  0
SECTION
  2
HEADER
  9
$ACADVER
  1
AC1015
  9
$ACADMAINTVER
 70
     6
  9
$DWGCODEPAGE
  3
ANSI_1252
  9
$INSBASE
 10
0.0
 20
0.0
 30
0.0
  9
$EXTMIN
 10
0.0
 20
0.0
 30
0.0
  9
$EXTMAX
 10
594.0
 20
420.0
 30
0.0
  9
$LIMMIN
 10
0.0
 20
0.0
  9
$LIMMAX
 10
594.0
 20
420.0
  9
$ORTHOMODE
 70
     0
  9
$REGENMODE
 70
     1
  9
$FILLMODE
 70
     1
  9
$QTEXTMODE
 70
     0
  9
$MIRRTEXT
 70
     1
  9
$LTSCALE
 40
1.0
  9
$ATTMODE
 70
     1
  9
$TEXTSIZE
 40
0.2
  9
$TRACEWID
 40
0.05
  9
$TEXTSTYLE
  7
STANDARD
  9
$CLAYER
  8
0
  9
$CELTYPE
  6
BYLAYER
  9
$CECOLOR
 62
   256
  9
$CELTSCALE
 40
1.0
  9
$DISPSILH
 70
     0
  9
$DIMSCALE
 40
1.0
  9
$DIMASZ
 40
2.5
  9
$DIMEXO
 40
3.7125
  9
$DIMDLI
 40
22.572
  9
$DIMRND
 40
0.0
  9
$DIMDLE
 40
0.0
  9
$DIMEXE
 40
10.692
  9
$DIMTP
 40
0.0
  9
$DIMTM
 40
0.0
  9
$DIMTXT
 40
3.5
  9
$DIMCEN
 40
5.346
  9
$DIMTSZ
 40
0.0
  9
$DIMTOL
 70
     0
  9
$DIMLIM
 70
     0
  9
$DIMTIH
 70
     1
  9
$DIMTOH
 70
     1
  9
$DIMSE1
 70
     0
  9
$DIMSE2
 70
     0
  9
$DIMTAD
 70
     0
  9
$DIMZIN
 70
     0
  9
$DIMBLK
  1
FILLED
  9
$DIMASO
 70
     1
  9
$DIMSHO
 70
     1
  9
$DIMPOST
  1

  9
$DIMAPOST
  1

  9
$DIMALT
 70
     0
  9
$DIMALTD
 70
     2
  9
$DIMALTF
 40
25.4
  9
$DIMLFAC
 40
1.0
  9
$DIMTOFL
 70
     0
  9
$DIMTVP
 40
0.0
  9
$DIMTIX
 70
     0
  9
$DIMSOXD
 70
     0
  9
$DIMSAH
 70
     0
  9
$DIMBLK1
  1

  9
$DIMBLK2
  1

  9
$DIMSTYLE
  2
STANDARD
  9
$DIMCLRD
 70
     0
  9
$DIMCLRE
 70
     0
  9
$DIMCLRT
 70
     0
  9
$DIMTFAC
 40
1.0
  9
$DIMGAP
 40
0.09
  9
$DIMJUST
 70
     0
  9
$DIMSD1
 70
     0
  9
$DIMSD2
 70
     0
  9
$DIMTOLJ
 70
     1
  9
$DIMTZIN
 70
     0
  9
$DIMALTZ
 70
     0
  9
$DIMALTTZ
 70
     0
  9
$DIMUPT
 70
     0
  9
$DIMDEC
 70
     4
  9
$DIMTDEC
 70
     4
  9
$DIMALTU
 70
     2
  9
$DIMALTTD
 70
     2
  9
$DIMTXSTY
  7
STANDARD
  9
$DIMAUNIT
 70
     0
  9
$DIMADEC
 70
     0
  9
$DIMALTRND
 40
0.0
  9
$DIMAZIN
 70
     0
  9
$DIMDSEP
 70
    46
  9
$DIMATFIT
 70
     3
  9
$DIMFRAC
 70
     0
  9
$DIMLDRBLK
  1

  9
$DIMLUNIT
 70
     2
  9
$DIMLWD
 70
    -2
  9
$DIMLWE
 70
    -2
  9
$DIMTMOVE
 70
     0
  9
$LUNITS
 70
     2
  9
$LUPREC
 70
     4
  9
$SKETCHINC
 40
0.1
  9
$FILLETRAD
 40
0.5
  9
$AUNITS
 70
     0
  9
$AUPREC
 70
     0
  9
$MENU
  1
.
  9
$ELEVATION
 40
0.0
  9
$PELEVATION
 40
0.0
  9
$THICKNESS
 40
0.0
  9
$LIMCHECK
 70
     0
  9
$CHAMFERA
 40
0.5
  9
$CHAMFERB
 40
0.5
  9
$CHAMFERC
 40
1.0
  9
$CHAMFERD
 40
0.0
  9
$SKPOLY
 70
     0
  9
$TDCREATE
 40
2447893.041666667
  9
$TDUCREATE
 40
0.0
  9
$TDUPDATE
 40
2447893.041666667
  9
$TDUUPDATE
 40
0.0
  9
$TDINDWG
 40
0.0
  9
$TDUSRTIMER
 40
0.0
  9
$USRTIMER
 70
     1
  9
$ANGBASE
 50
0.0
  9
$ANGDIR
 70
     0
  9
$PDMODE
 70
     3
  9
$PDSIZE
 40
0.3125
  9
$PLINEWID
 40
0.0
  9
$SPLFRAME
 70
     0
  9
$SPLINETYPE
 70
     6
  9
$SPLINESEGS
 70
     8
  9
$HANDSEED
  5
4EB
  9
$SURFTAB1
 70
     6
  9
$SURFTAB2
 70
     6
  9
$SURFTYPE
 70
     6
  9
$SURFU
 70
     6
  9
$SURFV
 70
     6
  9
$UCSBASE
  2

  9
$UCSNAME
  2

  9
$UCSORG
 10
0.0
 20
0.0
 30
0.0
  9
$UCSXDIR
 10
1.0
 20
0.0
 30
0.0
  9
$UCSYDIR
 10
0.0
 20
1.0
 30
0.0
  9
$UCSORTHOREF
  2

  9
$UCSORTHOVIEW
 70
     0
  9
$UCSORGTOP
 10
0.0
 20
0.0
 30
0.0
  9
$UCSORGBOTTOM
 10
0.0
 20
0.0
 30
0.0
  9
$UCSORGLEFT
 10
0.0
 20
0.0
 30
0.0
  9
$UCSORGRIGHT
 10
0.0
 20
0.0
 30
0.0
  9
$UCSORGFRONT
 10
0.0
 20
0.0
 30
0.0
  9
$UCSORGBACK
 10
0.0
 20
0.0
 30
0.0
  9
$PUCSBASE
  2

  9
$PUCSNAME
  2

  9
$PUCSORG
 10
0.0
 20
0.0
 30
0.0
  9
$PUCSXDIR
 10
1.0
 20
0.0
 30
0.0
  9
$PUCSYDIR
 10
0.0
 20
1.0
 30
0.0
  9
$PUCSORTHOREF
  2

  9
$PUCSORTHOVIEW
 70
     0
  9
$PUCSORGTOP
 10
0.0
 20
0.0
 30
0.0
  9
$PUCSORGBOTTOM
 10
0.0
 20
0.0
 30
0.0
  9
$PUCSORGLEFT
 10
0.0
 20
0.0
 30
0.0
  9
$PUCSORGRIGHT
 10
0.0
 20
0.0
 30
0.0
  9
$PUCSORGFRONT
 10
0.0
 20
0.0
 30
0.0
  9
$PUCSORGBACK
 10
0.0
 20
0.0
 30
0.0
  9
$USERI1
 70
     0
  9
$USERI2
 70
     0
  9
$USERI3
 70
     0
  9
$USERI4
 70
     0
  9
$USERI5
 70
     0
  9
$USERR1
 40
0.0
  9
$USERR2
 40
0.0
  9
$USERR3
 40
0.0
  9
$USERR4
 40
0.0
  9
$USERR5
 40
0.0
  9
$WORLDVIEW
 70
     1
  9
$SHADEDGE
 70
     3
  9
$SHADEDIF
 70
    70
  9
$TILEMODE
 70
     1
  9
$MAXACTVP
 70
    64
  9
$PINSBASE
 10
0.0
 20
0.0
 30
0.0
  9
$PLIMCHECK
 70
     0
  9
$PEXTMIN
 10
1.000000000000000E+20
 20
1.000000000000000E+20
 30
1.000000000000000E+20
  9
$PEXTMAX
 10
-1.000000000000000E+20
 20
-1.000000000000000E+20
 30
-1.000000000000000E+20
  9
$PLIMMIN
 10
0.0
 20
0.0
  9
$PLIMMAX
 10
12.0
 20
9.0
  9
$UNITMODE
 70
     0
  9
$VISRETAIN
 70
     1
  9
$PLINEGEN
 70
     0
  9
$PSLTSCALE
 70
     1
  9
$TREEDEPTH
 70
  3020
  9
$CMLSTYLE
  2
Standard
  9
$CMLJUST
 70
     0
  9
$CMLSCALE
 40
1.0
  9
$PROXYGRAPHICS
 70
     1
  9
$MEASUREMENT
 70
     1
  9
$CELWEIGHT
370
    -1
  9
$ENDCAPS
280
     0
  9
$JOINSTYLE
280
     0
  9
$LWDISPLAY
290
     0
  9
$INSUNITS
 70
     4
  9
$HYPERLINKBASE
  1

  9
$STYLESHEET
  1

  9
$XEDIT
290
     1
  9
$CEPSNTYPE
380
     0
  9
$PSTYLEMODE
290
     1
  9
$FINGERPRINTGUID
  2
{E7EA0B12-CC6C-4E5C-AC93-B243874FB864}
  9
$VERSIONGUID
  2
{FAEB1C32-E019-11D5-929B-00C0DF256EC4}
  9
$EXTNAMES
290
     1
  9
$PSVPSCALE
 40
0.0
  9
$OLESTARTUP
290
     0
  0
ENDSEC
  0
SECTION
  2
CLASSES
  0
CLASS
  1
ACDBDICTIONARYWDFLT
  2
AcDbDictionaryWithDefault
  3
ObjectDBX Classes
 90
        0
280
     0
281
     0
  0
CLASS
  1
ACDBPLACEHOLDER
  2
AcDbPlaceHolder
  3
ObjectDBX Classes
 90
        0
280
     0
281
     0
  0
CLASS
  1
LAYOUT
  2
AcDbLayout
  3
ObjectDBX Classes
 90
        0
280
     0
281
     0
  0
ENDSEC
  0
SECTION
  2
TABLES
  0
TABLE
  2
VPORT
  5
8
330
0
100
AcDbSymbolTable
 70
     1
  0
VPORT
  5
1F4
330
8
100
AcDbSymbolTableRecord
100
AcDbViewportTableRecord
  2
*ACTIVE
 70
     0
 10
0.0
 20
0.0
 11
1.0
 21
1.0
 12
297.0
 22
210.0
 13
0.0
 23
0.0
 14
1.0
 24
1.0
 15
0.0
 25
0.0
 16
0.0
 26
0.0
 36
1.0
 17
0.0
 27
0.0
 37
0.0
 40
420.0
 41
1.4142857143
 42
50.0
 43
0.0
 44
0.0
 50
0.0
 51
0.0
 71
     0
 72
   100
 73
     1
 74
     1
 75
     0
 76
     0
 77
     0
 78
     0
281
     0
 65
     1
110
0.0
120
0.0
130
0.0
111
1.0
121
0.0
131
0.0
112
0.0
122
1.0
132
0.0
 79
     0
146
0.0
  0
ENDTAB
  0
TABLE
  2
LTYPE
  5
5
330
0
100
AcDbSymbolTable
 70
     8
  0
LTYPE
  5
14
330
5
100
AcDbSymbolTableRecord
100
AcDbLinetypeTableRecord
  2
BYBLOCK
 70
     0
  3

 72
    65
 73
     0
 40
0.0
  0
LTYPE
  5
15
330
5
100
AcDbSymbolTableRecord
100
AcDbLinetypeTableRecord
  2
BYLAYER
 70
     0
  3

 72
    65
 73
     0
 40
0.0
  0
LTYPE
  5
16
330
5
100
AcDbSymbolTableRecord
100
AcDbLinetypeTableRecord
  2
CONTINUOUS
 70
     0
  3
Solid line
 72
    65
 73
     0
 40
0.0
  0
LTYPE
  5
1F5
330
5
100
AcDbSymbolTableRecord
100
AcDbLinetypeTableRecord
  2
CENTER
 70
     0
  3
____ _ ____ _ ____ _ ____ _ ____ _ ____ _ ____
 72
    65
 73
     4
 40
0.6
 49
0.375
 74
     0
 49
-0.075
 74
     0
 49
0.075
 74
     0
 49
-0.075
 74
     0
  0
LTYPE
  5
1F6
330
5
100
AcDbSymbolTableRecord
100
AcDbLinetypeTableRecord
  2
HIDDEN
 70
     0
  3
- - - - - - - - - - - - - - - - - - - -
 72
    65
 73
     2
 40
0.2
 49
0.1
 74
     0
 49
-0.1
 74
     0
  0
LTYPE
  5
1F7
330
5
100
AcDbSymbolTableRecord
100
AcDbLinetypeTableRecord
  2
PHANTOM
 70
     0
  3
_____ _ _ _____ _ _ _____ _ _ _____
 72
    65
 73
     6
 40
0.8
 49
0.45
 74
     0
 49
-0.05
 74
     0
 49
0.1
 74
     0
 49
-0.05
 74
     0
 49
0.1
 74
     0
 49
-0.05
 74
     0
  0
LTYPE
  5
1F8
330
5
100
AcDbSymbolTableRecord
100
AcDbLinetypeTableRecord
  2
DOT
 70
     0
  3
. . . . . . . . . . . . . . . . . . . .
 72
    65
 73
     2
 40
0.2
 49
0.1
 74
     0
 49
-0.1
 74
     0
  0
LTYPE
  5
1F9
330
5
100
AcDbSymbolTableRecord
100
AcDbLinetypeTableRecord
  2
DASHED
 70
     0
  3
- - - - - - - - - - - - - - - - - - - -
 72
    65
 73
     2
 40
0.2
 49
0.1
 74
     0
 49
-0.1
 74
     0
  0
LTYPE
  5
2FF
330
5
100
AcDbSymbolTableRecord
100
AcDbLinetypeTableRecord
  2
MITTE
 70
     0
  3
Mitte ____ _ ____ _ ____ _ ____ _ ____ _ ____
 72
    65
 73
     4
 40
50.8
 49
31.75
 74
     4
 75
     0
340
0
 46
1.0
 50
0.0
 44
0.0
 45
0.0
 49
-6.35
 74
     4
 75
     0
340
0
 46
1.0
 50
0.0
 44
0.0
 45
0.0
 49
6.35
 74
     4
 75
     0
340
0
 46
1.0
 50
0.0
 44
0.0
 45
0.0
 49
-6.35
 74
     4
 75
     0
340
0
 46
1.0
 50
0.0
 44
0.0
 45
0.0
  0
LTYPE
  5
300
330
5
100
AcDbSymbolTableRecord
100
AcDbLinetypeTableRecord
  2
STRICHLINIE
 70
     0
  3
Strichlinie __ __ __ __ __ __ __ __ __ __ __ __
 72
    65
 73
     2
 40
19.05
 49
12.7
 74
     4
 75
     0
340
0
 46
1.0
 50
0.0
 44
0.0
 45
0.0
 49
-6.35
 74
     4
 75
     0
340
0
 46
1.0
 50
0.0
 44
0.0
 45
0.0
  0
ENDTAB
  0
TABLE
  2
LAYER
  5
2
330
0
100
AcDbSymbolTable
 70
    48
  0
LAYER
  5
10
330
2
100
AcDbSymbolTableRecord
100
AcDbLayerTableRecord
  2
0
 70
     0
 62
     7
  6
CONTINUOUS
370
    -3
390
F
  0
LAYER
  5
301
330
2
100
AcDbSymbolTableRecord
100
AcDbLayerTableRecord
  2
1
 70
     0
 62
     4
  6
CONTINUOUS
370
    50
390
F
  0
LAYER
  5
302
330
2
100
AcDbSymbolTableRecord
100
AcDbLayerTableRecord
  2
2
 70
     0
 62
     7
  6
CONTINUOUS
370
    25
390
F
  0
LAYER
  5
304
330
2
100
AcDbSymbolTableRecord
100
AcDbLayerTableRecord
  2
4
 70
     0
 62
     2
  6
MITTE
370
    25
390
F
  0
LAYER
  5
306
330
2
100
AcDbSymbolTableRecord
100
AcDbLayerTableRecord
  2
6
 70
     0
 62
     5
  6
CONTINUOUS
370
    35
390
F
  0
LAYER
  5
307
330
2
100
AcDbSymbolTableRecord
100
AcDbLayerTableRecord
  2
CUT
 70
     0
 62
     1
  6
CONTINUOUS
370
    25
390
F
  0
LAYER
  5
308
330
2
100
AcDbSymbolTableRecord
100
AcDbLayerTableRecord
  2
NOCUT
 70
     0
 62
     7
  6
CONTINUOUS
370
    25
390
F
  0
LAYER
  5
30A
330
2
100
AcDbSymbolTableRecord
100
AcDbLayerTableRecord
  2
SK2
 70
     0
 62
     7
  6
CONTINUOUS
370
    25
390
F
  0
LAYER
  5
30B
330
2
100
AcDbSymbolTableRecord
100
AcDbLayerTableRecord
  2
SK3
 70
     0
 62
     1
  6
STRICHLINIE
370
    25
390
F
  0
LAYER
  5
30F
330
2
100
AcDbSymbolTableRecord
100
AcDbLayerTableRecord
  2
7
 70
     0
 62
     5
  6
CONTINUOUS
370
    25
390
F
  0
ENDTAB
  0
TABLE
  2
STYLE
  5
3
330
0
100
AcDbSymbolTable
 70
     3
  0
STYLE
  5
11
330
3
100
AcDbSymbolTableRecord
100
AcDbTextStyleTableRecord
  2
STANDARD
 70
     0
 40
0.0
 41
1.0
 50
0.0
 71
     0
 42
2.5
  3
monos.ttf
  4

1001
ACAD
1000
Monospac821 BT
1071
       49
  0
STYLE
  5
217
330
3
100
AcDbSymbolTableRecord
100
AcDbTextStyleTableRecord
  2
TEXTSTYLE_1
 70
     0
 40
0.0
 41
0.8
 50
0.0
 71
     0
 42
0.2
  3
monospace 821 bold bt
  4

  0
STYLE
  5
35F
330
3
100
AcDbSymbolTableRecord
100
AcDbTextStyleTableRecord
  2
KX-STANDARD
 70
     0
 40
0.0
 41
1.0
 50
0.0
 71
     0
 42
2.5
  3
monospace 821 bold bt
  4

  0
ENDTAB
  0
TABLE
  2
VIEW
  5
6
330
0
100
AcDbSymbolTable
 70
     0
  0
ENDTAB
  0
TABLE
  2
UCS
  5
7
330
0
100
AcDbSymbolTable
 70
     0
  0
ENDTAB
  0
TABLE
  2
APPID
  5
9
330
0
100
AcDbSymbolTable
 70
     1
  0
APPID
  5
218
330
9
100
AcDbSymbolTableRecord
100
AcDbRegAppTableRecord
  2
ACAD
 70
     0
  0
ENDTAB
  0
TABLE
  2
DIMSTYLE
  5
A
330
0
100
AcDbSymbolTable
 70
     5
100
AcDbDimStyleTable
  0
DIMSTYLE
105
226
330
A
100
AcDbSymbolTableRecord
100
AcDbDimStyleTableRecord
  2
STANDARD
 70
     0
 41
2.5
 47
0.01
 48
0.01
 73
     0
 74
     0
 77
     1
 78
     8
140
3.5
178
     7
271
     3
272
     3
284
     8
340
11
341
21B
342
21B
343
21B
344
21B
  0
DIMSTYLE
105
227
330
A
100
AcDbSymbolTableRecord
100
AcDbDimStyleTableRecord
  2
DIMSTYLE_1
 70
     0
 41
2.5
 73
     0
 74
     0
 77
     1
 78
     8
140
3.5
178
     7
271
     3
272
     3
284
     8
340
11
341
21B
342
21B
343
21B
344
21B
  0
DIMSTYLE
105
228
330
A
100
AcDbSymbolTableRecord
100
AcDbDimStyleTableRecord
  2
DIMSTYLE_2
 70
     0
 41
2.5
 73
     0
 74
     0
 77
     1
 78
     8
140
3.5
271
     3
272
     3
284
     8
340
11
341
21B
342
21B
343
21B
344
21B
  0
DIMSTYLE
105
229
330
A
100
AcDbSymbolTableRecord
100
AcDbDimStyleTableRecord
  2
DIMSTYLE_3
 70
     0
 41
2.5
 73
     0
 74
     0
 77
     1
 78
     8
140
3.5
271
     2
272
     2
284
     8
340
11
341
21B
342
21B
343
21B
344
21B
  0
DIMSTYLE
105
22A
330
A
100
AcDbSymbolTableRecord
100
AcDbDimStyleTableRecord
  2
DIMSTYLE_4
 70
     0
 41
2.5
 73
     0
 74
     0
 77
     1
 78
     8
140
3.5
271
     3
272
     3
284
     8
340
11
341
21B
342
21B
343
21B
344
21B
  0
ENDTAB
  0
TABLE
  2
BLOCK_RECORD
  5
1
330
0
100
AcDbSymbolTable
 70
    11
  0
BLOCK_RECORD
  5
219
330
1
100
AcDbSymbolTableRecord
100
AcDbBlockTableRecord
  2
*Model_Space
340
2FD
  0
BLOCK_RECORD
  5
21A
330
1
100
AcDbSymbolTableRecord
100
AcDbBlockTableRecord
  2
*Paper_Space
340
2FE
  0
BLOCK_RECORD
  5
21B
330
1
100
AcDbSymbolTableRecord
100
AcDbBlockTableRecord
  2
_FILLED
340
0
  0
BLOCK_RECORD
  5
21C
330
1
100
AcDbSymbolTableRecord
100
AcDbBlockTableRecord
  2
*D1
340
0
  0
BLOCK_RECORD
  5
21D
330
1
100
AcDbSymbolTableRecord
100
AcDbBlockTableRecord
  2
*D2
340
0
  0
BLOCK_RECORD
  5
21E
330
1
100
AcDbSymbolTableRecord
100
AcDbBlockTableRecord
  2
*D3
340
0
  0
BLOCK_RECORD
  5
21F
330
1
100
AcDbSymbolTableRecord
100
AcDbBlockTableRecord
  2
*D4
340
0
  0
BLOCK_RECORD
  5
220
330
1
100
AcDbSymbolTableRecord
100
AcDbBlockTableRecord
  2
*D5
340
0
  0
BLOCK_RECORD
  5
221
330
1
100
AcDbSymbolTableRecord
100
AcDbBlockTableRecord
  2
*D6
340
0
  0
BLOCK_RECORD
  5
222
330
1
100
AcDbSymbolTableRecord
100
AcDbBlockTableRecord
  2
*D7
340
0
  0
BLOCK_RECORD
  5
223
330
1
100
AcDbSymbolTableRecord
100
AcDbBlockTableRecord
  2
*D8
340
0
  0
BLOCK_RECORD
  5
224
330
1
100
AcDbSymbolTableRecord
100
AcDbBlockTableRecord
  2
*D9
340
0
  0
BLOCK_RECORD
  5
225
330
1
100
AcDbSymbolTableRecord
100
AcDbBlockTableRecord
  2
NULLPUNKT_BL0
340
0
  0
ENDTAB
  0
ENDSEC
  0
SECTION
  2
BLOCKS
  0
BLOCK
  5
20
330
219
100
AcDbEntity
  8
0
100
AcDbBlockBegin
  2
*Model_Space
 70
     0
 10
0.0
 20
0.0
 30
0.0
  3
*Model_Space
  1

  0
ENDBLK
  5
21
330
219
100
AcDbEntity
  8
0
100
AcDbBlockEnd
  0
BLOCK
  5
1C
330
21A
100
AcDbEntity
 67
     1
  8
0
100
AcDbBlockBegin
  2
*Paper_Space
 70
     0
 10
0.0
 20
0.0
 30
0.0
  3
*Paper_Space
  1

  0
ENDBLK
  5
1D
330
21A
100
AcDbEntity
 67
     1
  8
0
100
AcDbBlockEnd
  0
BLOCK
  5
23C
330
21B
100
AcDbEntity
  8
7
100
AcDbBlockBegin
  2
_FILLED
 70
     0
 10
0.0
 20
0.0
 30
0.0
  3
_FILLED
  1

  0
SOLID
  5
23D
330
21B
100
AcDbEntity
  8
7
100
AcDbTrace
 10
0.0
 20
0.0
 30
0.0
 11
-1.0
 21
0.132
 31
0.0
 12
-1.0
 22
-0.132
 32
0.0
 13
-1.0
 23
-0.132
 33
0.0
  0
ENDBLK
  5
23E
330
21B
100
AcDbEntity
  8
7
100
AcDbBlockEnd
  0
BLOCK
  5
23F
330
21C
100
AcDbEntity
  8
7
100
AcDbBlockBegin
  2
*D1
 70
     1
 10
0.0
 20
0.0
 30
0.0
  3
*D1
  1

  0
MTEXT
  5
240
330
21C
100
AcDbEntity
  8
SK2
100
AcDbMText
 10
-14.375
 20
0.0
 30
0.0
 40
3.5
 41
10.2666666667
 71
     2
 72
     1
  1
{\Fgdt;%%c}\FMONOS.TTF;22
 11
0.0
 21
1.0
 31
0.0
 73
     1
 44
0.9
  0
LINE
  5
241
330
21C
100
AcDbEntity
  8
SK2
100
AcDbLine
 10
0.4999009947
 20
-11.0
 30
0.0
 11
-12.0
 21
-11.0
 31
0.0
  0
LINE
  5
242
330
21C
100
AcDbEntity
  8
SK2
100
AcDbLine
 10
0.4999009947
 20
11.0
 30
0.0
 11
-12.0
 21
11.0
 31
0.0
  0
SOLID
  5
315
330
21C
100
AcDbEntity
  8
SK2
100
AcDbTrace
 10
-10.0
 20
-11.0
 30
0.0
 11
-9.67
 21
-8.5
 31
0.0
 12
-10.33
 22
-8.5
 32
0.0
 13
-10.33
 23
-8.5
 33
0.0
  0
SOLID
  5
316
330
21C
100
AcDbEntity
  8
SK2
100
AcDbTrace
 10
-10.0
 20
11.0
 30
0.0
 11
-10.33
 21
8.5
 31
0.0
 12
-9.67
 22
8.5
 32
0.0
 13
-9.67
 23
8.5
 33
0.0
  0
LWPOLYLINE
  5
4E0
330
21C
100
AcDbEntity
  8
SK2
100
AcDbPolyline
 90
        3
 70
     0
 43
0.0
 10
-10.0
 20
-11.0
 10
-10.0
 20
0.0
 10
-10.0
 20
11.0
  0
ENDBLK
  5
247
330
21C
100
AcDbEntity
  8
7
100
AcDbBlockEnd
  0
BLOCK
  5
248
330
21D
100
AcDbEntity
  8
7
100
AcDbBlockBegin
  2
*D2
 70
     1
 10
0.0
 20
0.0
 30
0.0
  3
*D2
  1

  0
MTEXT
  5
249
330
21D
100
AcDbEntity
  8
SK2
100
AcDbMText
 10
-22.875
 20
0.0
 30
0.0
 40
3.5
 41
10.2666666667
 71
     2
 72
     1
  1
{\Fgdt;%%c}\FMONOS.TTF;45
 11
0.0
 21
1.0
 31
0.0
 73
     1
 44
0.9
  0
LINE
  5
24A
330
21D
100
AcDbEntity
  8
SK2
100
AcDbLine
 10
0.126431009
 20
-22.5
 30
0.0
 11
-20.5
 21
-22.5
 31
0.0
  0
LINE
  5
24B
330
21D
100
AcDbEntity
  8
SK2
100
AcDbLine
 10
0.8709255403
 20
22.5
 30
0.0
 11
-20.5
 21
22.5
 31
0.0
  0
SOLID
  5
317
330
21D
100
AcDbEntity
  8
SK2
100
AcDbTrace
 10
-18.5
 20
-22.5
 30
0.0
 11
-18.17
 21
-20.0
 31
0.0
 12
-18.83
 22
-20.0
 32
0.0
 13
-18.83
 23
-20.0
 33
0.0
  0
SOLID
  5
318
330
21D
100
AcDbEntity
  8
SK2
100
AcDbTrace
 10
-18.5
 20
22.5
 30
0.0
 11
-18.83
 21
20.0
 31
0.0
 12
-18.17
 22
20.0
 32
0.0
 13
-18.17
 23
20.0
 33
0.0
  0
LWPOLYLINE
  5
4E1
330
21D
100
AcDbEntity
  8
SK2
100
AcDbPolyline
 90
        3
 70
     0
 43
0.0
 10
-18.5
 20
-22.5
 10
-18.5
 20
0.0
 10
-18.5
 20
22.5
  0
ENDBLK
  5
250
330
21D
100
AcDbEntity
  8
7
100
AcDbBlockEnd
  0
BLOCK
  5
251
330
21E
100
AcDbEntity
  8
7
100
AcDbBlockBegin
  2
*D3
 70
     1
 10
0.0
 20
0.0
 30
0.0
  3
*D3
  1

  0
MTEXT
  5
252
330
21E
100
AcDbEntity
  8
2
100
AcDbMText
 10
25.0
 20
54.3610529102
 30
0.0
 40
3.5
 41
5.6
 71
     2
 72
     1
  1
50
 73
     1
 44
0.9
  0
LINE
  5
253
330
21E
100
AcDbEntity
  8
2
100
AcDbLine
 10
0.0
 20
22.6133462046
 30
0.0
 11
0.0
 21
51.9860529102
 31
0.0
  0
LINE
  5
254
330
21E
100
AcDbEntity
  8
2
100
AcDbLine
 10
50.0
 20
23.0
 30
0.0
 11
50.0
 21
51.9860529102
 31
0.0
  0
SOLID
  5
319
330
21E
100
AcDbEntity
  8
2
100
AcDbTrace
 10
0.0
 20
49.9860529102
 30
0.0
 11
2.5
 21
49.6560529102
 31
0.0
 12
2.5
 22
50.3160529102
 32
0.0
 13
2.5
 23
50.3160529102
 33
0.0
  0
SOLID
  5
31A
330
21E
100
AcDbEntity
  8
2
100
AcDbTrace
 10
50.0
 20
49.9860529102
 30
0.0
 11
47.5
 21
50.3160529102
 31
0.0
 12
47.5
 22
49.6560529102
 32
0.0
 13
47.5
 23
49.6560529102
 33
0.0
  0
LWPOLYLINE
  5
4E2
330
21E
100
AcDbEntity
  8
2
100
AcDbPolyline
 90
        3
 70
     0
 43
0.0
 10
0.0
 20
49.9860529102
 10
25.0
 20
49.9860529102
 10
50.0
 20
49.9860529102
  0
ENDBLK
  5
259
330
21E
100
AcDbEntity
  8
7
100
AcDbBlockEnd
  0
BLOCK
  5
25A
330
21F
100
AcDbEntity
  8
7
100
AcDbBlockBegin
  2
*D4
 70
     1
 10
0.0
 20
0.0
 30
0.0
  3
*D4
  1

  0
MTEXT
  5
25B
330
21F
100
AcDbEntity
  8
2
100
AcDbMText
 10
75.165
 20
0.0
 30
0.0
 40
3.5
 41
10.2666666667
 71
     2
 72
     1
  1
{\Fgdt;%%c}\FMONOS.TTF;45
 11
0.0
 21
1.0
 31
0.0
 73
     1
 44
0.9
  0
LINE
  5
25C
330
21F
100
AcDbEntity
  8
2
100
AcDbLine
 10
50.5
 20
-22.5
 30
0.0
 11
81.54
 21
-22.5
 31
0.0
  0
LINE
  5
25D
330
21F
100
AcDbEntity
  8
2
100
AcDbLine
 10
50.5
 20
22.5
 30
0.0
 11
81.54
 21
22.5
 31
0.0
  0
SOLID
  5
31B
330
21F
100
AcDbEntity
  8
2
100
AcDbTrace
 10
79.54
 20
-22.5
 30
0.0
 11
79.87
 21
-20.0
 31
0.0
 12
79.21000000000001
 22
-20.0
 32
0.0
 13
79.21000000000001
 23
-20.0
 33
0.0
  0
SOLID
  5
31C
330
21F
100
AcDbEntity
  8
2
100
AcDbTrace
 10
79.54
 20
22.5
 30
0.0
 11
79.21000000000001
 21
20.0
 31
0.0
 12
79.87
 22
20.0
 32
0.0
 13
79.87
 23
20.0
 33
0.0
  0
LWPOLYLINE
  5
4E3
330
21F
100
AcDbEntity
  8
2
100
AcDbPolyline
 90
        3
 70
     0
 43
0.0
 10
79.54
 20
-22.5
 10
79.54
 20
0.0
 10
79.54
 20
22.5
  0
ENDBLK
  5
262
330
21F
100
AcDbEntity
  8
7
100
AcDbBlockEnd
  0
BLOCK
  5
263
330
220
100
AcDbEntity
  8
7
100
AcDbBlockBegin
  2
*D5
 70
     1
 10
0.0
 20
0.0
 30
0.0
  3
*D5
  1

  0
MTEXT
  5
264
330
220
100
AcDbEntity
  8
SK2
100
AcDbMText
 10
58.165
 20
0.0
 30
0.0
 40
3.5
 41
10.2666666667
 71
     2
 72
     1
  1
{\Fgdt;%%c}\FMONOS.TTF;11
 11
0.0
 21
1.0
 31
0.0
 73
     1
 44
0.9
  0
LINE
  5
265
330
220
100
AcDbEntity
  8
SK2
100
AcDbLine
 10
29.62418472
 20
-5.5
 30
0.0
 11
64.54
 21
-5.5
 31
0.0
  0
LINE
  5
266
330
220
100
AcDbEntity
  8
SK2
100
AcDbLine
 10
29.62418472
 20
5.5
 30
0.0
 11
64.54
 21
5.5
 31
0.0
  0
SOLID
  5
31D
330
220
100
AcDbEntity
  8
SK2
100
AcDbTrace
 10
62.54
 20
-5.5
 30
0.0
 11
62.87
 21
-3.0
 31
0.0
 12
62.21
 22
-3.0
 32
0.0
 13
62.21
 23
-3.0
 33
0.0
  0
SOLID
  5
31E
330
220
100
AcDbEntity
  8
SK2
100
AcDbTrace
 10
62.54
 20
5.5
 30
0.0
 11
62.21
 21
3.0
 31
0.0
 12
62.87
 22
3.0
 32
0.0
 13
62.87
 23
3.0
 33
0.0
  0
LWPOLYLINE
  5
4E4
330
220
100
AcDbEntity
  8
SK2
100
AcDbPolyline
 90
        3
 70
     0
 43
0.0
 10
62.54
 20
-5.5
 10
62.54
 20
0.0
 10
62.54
 20
5.5
  0
ENDBLK
  5
26B
330
220
100
AcDbEntity
  8
7
100
AcDbBlockEnd
  0
BLOCK
  5
26C
330
221
100
AcDbEntity
  8
7
100
AcDbBlockBegin
  2
*D6
 70
     1
 10
0.0
 20
0.0
 30
0.0
  3
*D6
  1

  0
MTEXT
  5
26D
330
221
100
AcDbEntity
  8
SK2
100
AcDbMText
 10
66.665
 20
0.0
 30
0.0
 40
3.5
 41
10.2666666667
 71
     2
 72
     1
  1
{\Fgdt;%%c}\FMONOS.TTF;17
 11
0.0
 21
1.0
 31
0.0
 73
     1
 44
0.9
  0
LINE
  5
26E
330
221
100
AcDbEntity
  8
SK2
100
AcDbLine
 10
44.432231595
 20
-8.5
 30
0.0
 11
73.04
 21
-8.5
 31
0.0
  0
LINE
  5
26F
330
221
100
AcDbEntity
  8
SK2
100
AcDbLine
 10
44.372231595
 20
8.5
 30
0.0
 11
73.04
 21
8.5
 31
0.0
  0
SOLID
  5
31F
330
221
100
AcDbEntity
  8
SK2
100
AcDbTrace
 10
71.04
 20
-8.5
 30
0.0
 11
71.37
 21
-6.0
 31
0.0
 12
70.71000000000001
 22
-6.0
 32
0.0
 13
70.71000000000001
 23
-6.0
 33
0.0
  0
SOLID
  5
320
330
221
100
AcDbEntity
  8
SK2
100
AcDbTrace
 10
71.04
 20
8.5
 30
0.0
 11
70.71000000000001
 21
6.0
 31
0.0
 12
71.37
 22
6.0
 32
0.0
 13
71.37
 23
6.0
 33
0.0
  0
LWPOLYLINE
  5
4E5
330
221
100
AcDbEntity
  8
SK2
100
AcDbPolyline
 90
        3
 70
     0
 43
0.0
 10
71.04
 20
-8.5
 10
71.04
 20
0.0
 10
71.04
 20
8.5
  0
ENDBLK
  5
274
330
221
100
AcDbEntity
  8
7
100
AcDbBlockEnd
  0
BLOCK
  5
275
330
222
100
AcDbEntity
  8
7
100
AcDbBlockBegin
  2
*D7
 70
     1
 10
0.0
 20
0.0
 30
0.0
  3
*D7
  1

  0
MTEXT
  5
276
330
222
100
AcDbEntity
  8
2
100
AcDbMText
 10
83.665
 20
0.0
 30
0.0
 40
3.5
 41
18.6666666667
 71
     2
 72
     1
  1
{\Fgdt;%%c}\FMONOS.TTF;58.19
 11
0.0
 21
1.0
 31
0.0
 73
     1
 44
0.9
  0
LINE
  5
277
330
222
100
AcDbEntity
  8
2
100
AcDbLine
 10
25.5108366957
 20
-29.095
 30
0.0
 11
90.04
 21
-29.095
 31
0.0
  0
LINE
  5
278
330
222
100
AcDbEntity
  8
2
100
AcDbLine
 10
25.4368735437
 20
29.095
 30
0.0
 11
49.0
 21
29.095
 31
0.0
  0
LINE
  5
279
330
222
100
AcDbEntity
  8
2
100
AcDbLine
 10
51.0
 20
29.095
 30
0.0
 11
90.04
 21
29.095
 31
0.0
  0
SOLID
  5
321
330
222
100
AcDbEntity
  8
2
100
AcDbTrace
 10
88.04
 20
-29.095
 30
0.0
 11
88.37
 21
-26.595
 31
0.0
 12
87.71000000000001
 22
-26.595
 32
0.0
 13
87.71000000000001
 23
-26.595
 33
0.0
  0
SOLID
  5
322
330
222
100
AcDbEntity
  8
2
100
AcDbTrace
 10
88.04
 20
29.095
 30
0.0
 11
87.71000000000001
 21
26.595
 31
0.0
 12
88.37
 22
26.595
 32
0.0
 13
88.37
 23
26.595
 33
0.0
  0
LWPOLYLINE
  5
4E6
330
222
100
AcDbEntity
  8
2
100
AcDbPolyline
 90
        3
 70
     0
 43
0.0
 10
88.04
 20
-29.095
 10
88.04
 20
0.0
 10
88.04
 20
29.095
  0
ENDBLK
  5
27E
330
222
100
AcDbEntity
  8
7
100
AcDbBlockEnd
  0
BLOCK
  5
27F
330
223
100
AcDbEntity
  8
7
100
AcDbBlockBegin
  2
*D8
 70
     1
 10
0.0
 20
0.0
 30
0.0
  3
*D8
  1

  0
MTEXT
  5
280
330
223
100
AcDbEntity
  8
2
100
AcDbMText
 10
32.6244419396
 20
45.1442681316
 30
0.0
 40
3.5
 41
7.9333333333
 71
     2
 72
     1
  1
75\Fgdt;{\Fgdt;~}
 11
0.7933533403
 21
0.608761429
 31
0.0
 73
     1
 44
0.9
  0
LINE
  5
281
330
223
100
AcDbEntity
  8
2
100
AcDbLine
 10
50.0
 20
23.0
 30
0.0
 11
50.0
 21
46.0424753153
 31
0.0
  0
LINE
  5
282
330
223
100
AcDbEntity
  8
2
100
AcDbLine
 10
31.1234183833
 20
27.5579648
 30
0.0
 11
27.0442305684
 21
28.6509798808
 31
0.0
  0
SOLID
  5
285
330
223
100
AcDbEntity
  8
2
100
AcDbTrace
 10
47.5233449049
 20
43.5680498311
 30
0.0
 11
50.0
 21
44.0424753153
 31
0.0
 12
47.4850699566
 22
44.2269390694
 32
0.0
 13
47.4850699566
 23
44.2269390694
 33
0.0
  0
SOLID
  5
286
330
223
100
AcDbEntity
  8
2
100
AcDbTrace
 10
29.664300219
 20
30.5525815032
 30
0.0
 11
29.1915667308
 21
28.0756028903
 31
0.0
 12
30.2908320654
 22
30.3450776586
 32
0.0
 13
30.2908320654
 23
30.3450776586
 33
0.0
  0
LWPOLYLINE
  5
4E7
330
223
100
AcDbEntity
  8
2
100
AcDbPolyline
 90
        3
 70
     0
 43
0.0
 10
50.0
 20
44.0424753153
 42
0.1651006681921965
 10
36.88577194267288
 20
39.59079474953474
 42
0.1651006681921964
 10
29.19156673075699
 20
28.07560289025058
  0
ENDBLK
  5
287
330
223
100
AcDbEntity
  8
7
100
AcDbBlockEnd
  0
BLOCK
  5
288
330
224
100
AcDbEntity
  8
7
100
AcDbBlockBegin
  2
*D9
 70
     1
 10
0.0
 20
0.0
 30
0.0
  3
*D9
  1

  0
MTEXT
  5
289
330
224
100
AcDbEntity
  8
SK2
100
AcDbMText
 10
10.5
 20
-35.0211534635
 30
0.0
 40
3.5
 41
5.6
 71
     2
 72
     1
  1
21
 73
     1
 44
0.9
  0
LINE
  5
28A
330
224
100
AcDbEntity
  8
SK2
100
AcDbLine
 10
21.0
 20
-10.5455839024
 30
0.0
 11
21.0
 21
-41.3961534635
 31
0.0
  0
LINE
  5
28B
330
224
100
AcDbEntity
  8
SK2
100
AcDbLine
 10
0.0
 20
-23.5
 30
0.0
 11
0.0
 21
-41.3961534635
 31
0.0
  0
SOLID
  5
323
330
224
100
AcDbEntity
  8
SK2
100
AcDbTrace
 10
21.0
 20
-39.3961534635
 30
0.0
 11
18.5
 21
-39.0661534635
 31
0.0
 12
18.5
 22
-39.7261534635
 32
0.0
 13
18.5
 23
-39.7261534635
 33
0.0
  0
SOLID
  5
324
330
224
100
AcDbEntity
  8
SK2
100
AcDbTrace
 10
0.0
 20
-39.3961534635
 30
0.0
 11
2.5
 21
-39.7261534635
 31
0.0
 12
2.5
 22
-39.0661534635
 32
0.0
 13
2.5
 23
-39.0661534635
 33
0.0
  0
LWPOLYLINE
  5
4E8
330
224
100
AcDbEntity
  8
SK2
100
AcDbPolyline
 90
        3
 70
     0
 43
0.0
 10
21.0
 20
-39.3961534635
 10
10.5
 20
-39.3961534635
 10
0.0
 20
-39.3961534635
  0
ENDBLK
  5
290
330
224
100
AcDbEntity
  8
7
100
AcDbBlockEnd
  0
BLOCK
  5
22B
330
225
100
AcDbEntity
  8
7
100
AcDbBlockBegin
  2
NULLPUNKT_BL0
 70
     0
 10
0.0
 20
0.0
 30
0.0
  3
NULLPUNKT_BL0
  1

  0
SOLID
  5
325
330
225
100
AcDbEntity
  8
1
100
AcDbTrace
 10
-1.4917828431
 20
0.0
 30
0.0
 11
-1.5
 21
0.0
 31
0.0
 12
-1.4917828431
 22
0.1567926949
 32
0.0
 13
-1.4917828431
 23
0.1567926949
 33
0.0
  0
SOLID
  5
326
330
225
100
AcDbEntity
  8
1
100
AcDbTrace
 10
1.4917828431
 20
0.0
 30
0.0
 11
1.4917828431
 21
0.1567926949
 31
0.0
 12
1.4672214011
 22
0.0
 32
0.0
 13
1.4672214011
 23
0.0
 33
0.0
210
0.0
220
0.0
230
-1.0
  0
SOLID
  5
327
330
225
100
AcDbEntity
  8
1
100
AcDbTrace
 10
-1.4672214011
 20
0.0
 30
0.0
 11
-1.4917828431
 21
0.1567926949
 31
0.0
 12
-1.4672214011
 22
0.3118675362
 32
0.0
 13
-1.4672214011
 23
0.3118675362
 33
0.0
  0
SOLID
  5
328
330
225
100
AcDbEntity
  8
1
100
AcDbTrace
 10
1.4672214011
 20
0.0
 30
0.0
 11
1.4672214011
 21
0.3118675362
 31
0.0
 12
1.4265847744
 22
0.0
 32
0.0
 13
1.4265847744
 23
0.0
 33
0.0
210
0.0
220
0.0
230
-1.0
  0
SOLID
  5
329
330
225
100
AcDbEntity
  8
1
100
AcDbTrace
 10
-1.4265847744
 20
0.0
 30
0.0
 11
-1.4672214011
 21
0.3118675362
 31
0.0
 12
-1.4265847744
 22
0.4635254916
 32
0.0
 13
-1.4265847744
 23
0.4635254916
 33
0.0
  0
SOLID
  5
32A
330
225
100
AcDbEntity
  8
1
100
AcDbTrace
 10
1.4265847744
 20
0.0
 30
0.0
 11
1.4265847744
 21
0.4635254916
 31
0.0
 12
1.3703181865
 22
0.0
 32
0.0
 13
1.3703181865
 23
0.0
 33
0.0
210
0.0
220
0.0
230
-1.0
  0
SOLID
  5
32B
330
225
100
AcDbEntity
  8
1
100
AcDbTrace
 10
-1.3703181865
 20
0.0
 30
0.0
 11
-1.4265847744
 21
0.4635254916
 31
0.0
 12
-1.3703181865
 22
0.6101049646
 32
0.0
 13
-1.3703181865
 23
0.6101049646
 33
0.0
  0
SOLID
  5
32C
330
225
100
AcDbEntity
  8
1
100
AcDbTrace
 10
1.3703181865
 20
0.0
 30
0.0
 11
1.3703181865
 21
0.6101049646
 31
0.0
 12
1.2990381057
 22
0.0
 32
0.0
 13
1.2990381057
 23
0.0
 33
0.0
210
0.0
220
0.0
230
-1.0
  0
SOLID
  5
32D
330
225
100
AcDbEntity
  8
1
100
AcDbTrace
 10
-1.2990381057
 20
0.0
 30
0.0
 11
-1.3703181865
 21
0.6101049646
 31
0.0
 12
-1.2990381057
 22
0.75
 32
0.0
 13
-1.2990381057
 23
0.75
 33
0.0
  0
SOLID
  5
32E
330
225
100
AcDbEntity
  8
1
100
AcDbTrace
 10
1.2990381057
 20
0.0
 30
0.0
 11
1.2990381057
 21
0.75
 31
0.0
 12
1.2135254916
 22
0.0
 32
0.0
 13
1.2135254916
 23
0.0
 33
0.0
210
0.0
220
0.0
230
-1.0
  0
SOLID
  5
32F
330
225
100
AcDbEntity
  8
1
100
AcDbTrace
 10
-1.2135254916
 20
0.0
 30
0.0
 11
-1.2990381057
 21
0.75
 31
0.0
 12
-1.2135254916
 22
0.8816778784
 32
0.0
 13
-1.2135254916
 23
0.8816778784
 33
0.0
  0
SOLID
  5
330
330
225
100
AcDbEntity
  8
1
100
AcDbTrace
 10
1.2135254916
 20
0.0
 30
0.0
 11
1.2135254916
 21
0.8816778784
 31
0.0
 12
1.1147172382
 22
0.0
 32
0.0
 13
1.1147172382
 23
0.0
 33
0.0
210
0.0
220
0.0
230
-1.0
  0
SOLID
  5
331
330
225
100
AcDbEntity
  8
1
100
AcDbTrace
 10
-1.1147172382
 20
0.0
 30
0.0
 11
-1.2135254916
 21
0.8816778784
 31
0.0
 12
-1.1147172382
 22
1.0036959095
 32
0.0
 13
-1.1147172382
 23
1.0036959095
 33
0.0
  0
SOLID
  5
332
330
225
100
AcDbEntity
  8
1
100
AcDbTrace
 10
1.1147172382
 20
0.0
 30
0.0
 11
1.1147172382
 21
1.0036959095
 31
0.0
 12
1.0036959095
 22
0.0
 32
0.0
 13
1.0036959095
 23
0.0
 33
0.0
210
0.0
220
0.0
230
-1.0
  0
SOLID
  5
333
330
225
100
AcDbEntity
  8
1
100
AcDbTrace
 10
-1.0036959095
 20
0.0
 30
0.0
 11
-1.1147172382
 21
1.0036959095
 31
0.0
 12
-1.0036959095
 22
1.1147172382
 32
0.0
 13
-1.0036959095
 23
1.1147172382
 33
0.0
  0
SOLID
  5
334
330
225
100
AcDbEntity
  8
1
100
AcDbTrace
 10
1.0036959095
 20
0.0
 30
0.0
 11
1.0036959095
 21
1.1147172382
 31
0.0
 12
0.8816778784
 22
0.0
 32
0.0
 13
0.8816778784
 23
0.0
 33
0.0
210
0.0
220
0.0
230
-1.0
  0
SOLID
  5
335
330
225
100
AcDbEntity
  8
1
100
AcDbTrace
 10
-0.8816778784
 20
0.0
 30
0.0
 11
-1.0036959095
 21
1.1147172382
 31
0.0
 12
-0.8816778784
 22
1.2135254916
 32
0.0
 13
-0.8816778784
 23
1.2135254916
 33
0.0
  0
SOLID
  5
336
330
225
100
AcDbEntity
  8
1
100
AcDbTrace
 10
0.8816778784
 20
0.0
 30
0.0
 11
0.8816778784
 21
1.2135254916
 31
0.0
 12
0.75
 22
0.0
 32
0.0
 13
0.75
 23
0.0
 33
0.0
210
0.0
220
0.0
230
-1.0
  0
SOLID
  5
337
330
225
100
AcDbEntity
  8
1
100
AcDbTrace
 10
-0.75
 20
0.0
 30
0.0
 11
-0.8816778784
 21
1.2135254916
 31
0.0
 12
-0.75
 22
1.2990381057
 32
0.0
 13
-0.75
 23
1.2990381057
 33
0.0
  0
SOLID
  5
338
330
225
100
AcDbEntity
  8
1
100
AcDbTrace
 10
0.75
 20
0.0
 30
0.0
 11
0.75
 21
1.2990381057
 31
0.0
 12
0.6101049646
 22
0.0
 32
0.0
 13
0.6101049646
 23
0.0
 33
0.0
210
0.0
220
0.0
230
-1.0
  0
SOLID
  5
339
330
225
100
AcDbEntity
  8
1
100
AcDbTrace
 10
-0.6101049646
 20
0.0
 30
0.0
 11
-0.75
 21
1.2990381057
 31
0.0
 12
-0.6101049646
 22
1.3703181865
 32
0.0
 13
-0.6101049646
 23
1.3703181865
 33
0.0
  0
SOLID
  5
33A
330
225
100
AcDbEntity
  8
1
100
AcDbTrace
 10
0.6101049646
 20
0.0
 30
0.0
 11
0.6101049646
 21
1.3703181865
 31
0.0
 12
0.4635254916
 22
0.0
 32
0.0
 13
0.4635254916
 23
0.0
 33
0.0
210
0.0
220
0.0
230
-1.0
  0
SOLID
  5
33B
330
225
100
AcDbEntity
  8
1
100
AcDbTrace
 10
-0.4635254916
 20
0.0
 30
0.0
 11
-0.6101049646
 21
1.3703181865
 31
0.0
 12
-0.4635254916
 22
1.4265847744
 32
0.0
 13
-0.4635254916
 23
1.4265847744
 33
0.0
  0
SOLID
  5
33C
330
225
100
AcDbEntity
  8
1
100
AcDbTrace
 10
0.4635254916
 20
0.0
 30
0.0
 11
0.4635254916
 21
1.4265847744
 31
0.0
 12
0.3118675362
 22
0.0
 32
0.0
 13
0.3118675362
 23
0.0
 33
0.0
210
0.0
220
0.0
230
-1.0
  0
SOLID
  5
33D
330
225
100
AcDbEntity
  8
1
100
AcDbTrace
 10
-0.3118675362
 20
0.0
 30
0.0
 11
-0.4635254916
 21
1.4265847744
 31
0.0
 12
-0.3118675362
 22
1.4672214011
 32
0.0
 13
-0.3118675362
 23
1.4672214011
 33
0.0
  0
SOLID
  5
33E
330
225
100
AcDbEntity
  8
1
100
AcDbTrace
 10
0.3118675362
 20
0.0
 30
0.0
 11
0.3118675362
 21
1.4672214011
 31
0.0
 12
0.1567926949
 22
0.0
 32
0.0
 13
0.1567926949
 23
0.0
 33
0.0
210
0.0
220
0.0
230
-1.0
  0
SOLID
  5
33F
330
225
100
AcDbEntity
  8
1
100
AcDbTrace
 10
-0.1567926949
 20
0.0
 30
0.0
 11
-0.3118675362
 21
1.4672214011
 31
0.0
 12
-0.1567926949
 22
1.4917828431
 32
0.0
 13
-0.1567926949
 23
1.4917828431
 33
0.0
  0
SOLID
  5
340
330
225
100
AcDbEntity
  8
1
100
AcDbTrace
 10
0.1567926949
 20
0.0
 30
0.0
 11
0.1567926949
 21
1.4917828431
 31
0.0
 12
0.0
 22
0.0
 32
0.0
 13
0.0
 23
0.0
 33
0.0
210
0.0
220
0.0
230
-1.0
  0
SOLID
  5
341
330
225
100
AcDbEntity
  8
1
100
AcDbTrace
 10
0.0
 20
0.0
 30
0.0
 11
-0.1567926949
 21
1.4917828431
 31
0.0
 12
0.0
 22
1.5
 32
0.0
 13
0.0
 23
1.5
 33
0.0
  0
SOLID
  5
342
330
225
100
AcDbEntity
  8
1
100
AcDbTrace
 10
0.0
 20
-1.5
 30
0.0
 11
0.0
 21
0.0
 31
0.0
 12
-0.1567926949
 22
-1.4917828431
 32
0.0
 13
-0.1567926949
 23
-1.4917828431
 33
0.0
210
0.0
220
0.0
230
-1.0
  0
SOLID
  5
343
330
225
100
AcDbEntity
  8
1
100
AcDbTrace
 10
-0.1567926949
 20
-1.4917828431
 30
0.0
 11
0.0
 21
0.0
 31
0.0
 12
-0.1567926949
 22
0.0
 32
0.0
 13
-0.1567926949
 23
0.0
 33
0.0
210
0.0
220
0.0
230
-1.0
  0
SOLID
  5
344
330
225
100
AcDbEntity
  8
1
100
AcDbTrace
 10
-0.1567926949
 20
-1.4917828431
 30
0.0
 11
-0.1567926949
 21
0.0
 31
0.0
 12
-0.3118675362
 22
-1.4672214011
 32
0.0
 13
-0.3118675362
 23
-1.4672214011
 33
0.0
210
0.0
220
0.0
230
-1.0
  0
SOLID
  5
345
330
225
100
AcDbEntity
  8
1
100
AcDbTrace
 10
-0.3118675362
 20
-1.4672214011
 30
0.0
 11
-0.1567926949
 21
0.0
 31
0.0
 12
-0.3118675362
 22
0.0
 32
0.0
 13
-0.3118675362
 23
0.0
 33
0.0
210
0.0
220
0.0
230
-1.0
  0
SOLID
  5
346
330
225
100
AcDbEntity
  8
1
100
AcDbTrace
 10
-0.3118675362
 20
-1.4672214011
 30
0.0
 11
-0.3118675362
 21
0.0
 31
0.0
 12
-0.4635254916
 22
-1.4265847744
 32
0.0
 13
-0.4635254916
 23
-1.4265847744
 33
0.0
210
0.0
220
0.0
230
-1.0
  0
SOLID
  5
347
330
225
100
AcDbEntity
  8
1
100
AcDbTrace
 10
-0.4635254916
 20
-1.4265847744
 30
0.0
 11
-0.3118675362
 21
0.0
 31
0.0
 12
-0.4635254916
 22
0.0
 32
0.0
 13
-0.4635254916
 23
0.0
 33
0.0
210
0.0
220
0.0
230
-1.0
  0
SOLID
  5
348
330
225
100
AcDbEntity
  8
1
100
AcDbTrace
 10
-0.4635254916
 20
-1.4265847744
 30
0.0
 11
-0.4635254916
 21
0.0
 31
0.0
 12
-0.6101049646
 22
-1.3703181865
 32
0.0
 13
-0.6101049646
 23
-1.3703181865
 33
0.0
210
0.0
220
0.0
230
-1.0
  0
SOLID
  5
349
330
225
100
AcDbEntity
  8
1
100
AcDbTrace
 10
-0.6101049646
 20
-1.3703181865
 30
0.0
 11
-0.4635254916
 21
0.0
 31
0.0
 12
-0.6101049646
 22
0.0
 32
0.0
 13
-0.6101049646
 23
0.0
 33
0.0
210
0.0
220
0.0
230
-1.0
  0
SOLID
  5
34A
330
225
100
AcDbEntity
  8
1
100
AcDbTrace
 10
-0.6101049646
 20
-1.3703181865
 30
0.0
 11
-0.6101049646
 21
0.0
 31
0.0
 12
-0.75
 22
-1.2990381057
 32
0.0
 13
-0.75
 23
-1.2990381057
 33
0.0
210
0.0
220
0.0
230
-1.0
  0
SOLID
  5
34B
330
225
100
AcDbEntity
  8
1
100
AcDbTrace
 10
-0.75
 20
-1.2990381057
 30
0.0
 11
-0.6101049646
 21
0.0
 31
0.0
 12
-0.75
 22
0.0
 32
0.0
 13
-0.75
 23
0.0
 33
0.0
210
0.0
220
0.0
230
-1.0
  0
SOLID
  5
34C
330
225
100
AcDbEntity
  8
1
100
AcDbTrace
 10
-0.75
 20
-1.2990381057
 30
0.0
 11
-0.75
 21
0.0
 31
0.0
 12
-0.8816778784
 22
-1.2135254916
 32
0.0
 13
-0.8816778784
 23
-1.2135254916
 33
0.0
210
0.0
220
0.0
230
-1.0
  0
SOLID
  5
34D
330
225
100
AcDbEntity
  8
1
100
AcDbTrace
 10
-0.8816778784
 20
-1.2135254916
 30
0.0
 11
-0.75
 21
0.0
 31
0.0
 12
-0.8816778784
 22
0.0
 32
0.0
 13
-0.8816778784
 23
0.0
 33
0.0
210
0.0
220
0.0
230
-1.0
  0
SOLID
  5
34E
330
225
100
AcDbEntity
  8
1
100
AcDbTrace
 10
-0.8816778784
 20
-1.2135254916
 30
0.0
 11
-0.8816778784
 21
0.0
 31
0.0
 12
-1.0036959095
 22
-1.1147172382
 32
0.0
 13
-1.0036959095
 23
-1.1147172382
 33
0.0
210
0.0
220
0.0
230
-1.0
  0
SOLID
  5
34F
330
225
100
AcDbEntity
  8
1
100
AcDbTrace
 10
-1.0036959095
 20
-1.1147172382
 30
0.0
 11
-0.8816778784
 21
0.0
 31
0.0
 12
-1.0036959095
 22
0.0
 32
0.0
 13
-1.0036959095
 23
0.0
 33
0.0
210
0.0
220
0.0
230
-1.0
  0
SOLID
  5
350
330
225
100
AcDbEntity
  8
1
100
AcDbTrace
 10
-1.0036959095
 20
-1.1147172382
 30
0.0
 11
-1.0036959095
 21
0.0
 31
0.0
 12
-1.1147172382
 22
-1.0036959095
 32
0.0
 13
-1.1147172382
 23
-1.0036959095
 33
0.0
210
0.0
220
0.0
230
-1.0
  0
SOLID
  5
351
330
225
100
AcDbEntity
  8
1
100
AcDbTrace
 10
-1.1147172382
 20
-1.0036959095
 30
0.0
 11
-1.0036959095
 21
0.0
 31
0.0
 12
-1.1147172382
 22
0.0
 32
0.0
 13
-1.1147172382
 23
0.0
 33
0.0
210
0.0
220
0.0
230
-1.0
  0
SOLID
  5
352
330
225
100
AcDbEntity
  8
1
100
AcDbTrace
 10
-1.1147172382
 20
-1.0036959095
 30
0.0
 11
-1.1147172382
 21
0.0
 31
0.0
 12
-1.2135254916
 22
-0.8816778784
 32
0.0
 13
-1.2135254916
 23
-0.8816778784
 33
0.0
210
0.0
220
0.0
230
-1.0
  0
SOLID
  5
353
330
225
100
AcDbEntity
  8
1
100
AcDbTrace
 10
-1.2135254916
 20
-0.8816778784
 30
0.0
 11
-1.1147172382
 21
0.0
 31
0.0
 12
-1.2135254916
 22
0.0
 32
0.0
 13
-1.2135254916
 23
0.0
 33
0.0
210
0.0
220
0.0
230
-1.0
  0
SOLID
  5
354
330
225
100
AcDbEntity
  8
1
100
AcDbTrace
 10
-1.2135254916
 20
-0.8816778784
 30
0.0
 11
-1.2135254916
 21
0.0
 31
0.0
 12
-1.2990381057
 22
-0.75
 32
0.0
 13
-1.2990381057
 23
-0.75
 33
0.0
210
0.0
220
0.0
230
-1.0
  0
SOLID
  5
355
330
225
100
AcDbEntity
  8
1
100
AcDbTrace
 10
-1.2990381057
 20
-0.75
 30
0.0
 11
-1.2135254916
 21
0.0
 31
0.0
 12
-1.2990381057
 22
0.0
 32
0.0
 13
-1.2990381057
 23
0.0
 33
0.0
210
0.0
220
0.0
230
-1.0
  0
SOLID
  5
356
330
225
100
AcDbEntity
  8
1
100
AcDbTrace
 10
-1.2990381057
 20
-0.75
 30
0.0
 11
-1.2990381057
 21
0.0
 31
0.0
 12
-1.3703181865
 22
-0.6101049646
 32
0.0
 13
-1.3703181865
 23
-0.6101049646
 33
0.0
210
0.0
220
0.0
230
-1.0
  0
SOLID
  5
357
330
225
100
AcDbEntity
  8
1
100
AcDbTrace
 10
-1.3703181865
 20
-0.6101049646
 30
0.0
 11
-1.2990381057
 21
0.0
 31
0.0
 12
-1.3703181865
 22
0.0
 32
0.0
 13
-1.3703181865
 23
0.0
 33
0.0
210
0.0
220
0.0
230
-1.0
  0
SOLID
  5
358
330
225
100
AcDbEntity
  8
1
100
AcDbTrace
 10
-1.3703181865
 20
-0.6101049646
 30
0.0
 11
-1.3703181865
 21
0.0
 31
0.0
 12
-1.4265847744
 22
-0.4635254916
 32
0.0
 13
-1.4265847744
 23
-0.4635254916
 33
0.0
210
0.0
220
0.0
230
-1.0
  0
SOLID
  5
359
330
225
100
AcDbEntity
  8
1
100
AcDbTrace
 10
-1.4265847744
 20
-0.4635254916
 30
0.0
 11
-1.3703181865
 21
0.0
 31
0.0
 12
-1.4265847744
 22
0.0
 32
0.0
 13
-1.4265847744
 23
0.0
 33
0.0
210
0.0
220
0.0
230
-1.0
  0
SOLID
  5
35A
330
225
100
AcDbEntity
  8
1
100
AcDbTrace
 10
-1.4265847744
 20
-0.4635254916
 30
0.0
 11
-1.4265847744
 21
0.0
 31
0.0
 12
-1.4672214011
 22
-0.3118675362
 32
0.0
 13
-1.4672214011
 23
-0.3118675362
 33
0.0
210
0.0
220
0.0
230
-1.0
  0
SOLID
  5
35B
330
225
100
AcDbEntity
  8
1
100
AcDbTrace
 10
-1.4672214011
 20
-0.3118675362
 30
0.0
 11
-1.4265847744
 21
0.0
 31
0.0
 12
-1.4672214011
 22
0.0
 32
0.0
 13
-1.4672214011
 23
0.0
 33
0.0
210
0.0
220
0.0
230
-1.0
  0
SOLID
  5
35C
330
225
100
AcDbEntity
  8
1
100
AcDbTrace
 10
-1.4672214011
 20
-0.3118675362
 30
0.0
 11
-1.4672214011
 21
0.0
 31
0.0
 12
-1.4917828431
 22
-0.1567926949
 32
0.0
 13
-1.4917828431
 23
-0.1567926949
 33
0.0
210
0.0
220
0.0
230
-1.0
  0
SOLID
  5
35D
330
225
100
AcDbEntity
  8
1
100
AcDbTrace
 10
-1.4917828431
 20
-0.1567926949
 30
0.0
 11
-1.4672214011
 21
0.0
 31
0.0
 12
-1.4917828431
 22
0.0
 32
0.0
 13
-1.4917828431
 23
0.0
 33
0.0
210
0.0
220
0.0
230
-1.0
  0
SOLID
  5
35E
330
225
100
AcDbEntity
  8
1
100
AcDbTrace
 10
-1.4917828431
 20
-0.1567926949
 30
0.0
 11
-1.4917828431
 21
0.0
 31
0.0
 12
-1.5
 22
0.0
 32
0.0
 13
-1.5
 23
0.0
 33
0.0
210
0.0
220
0.0
230
-1.0
  0
LWPOLYLINE
  5
4E9
330
225
100
AcDbEntity
  8
1
100
AcDbPolyline
 90
       44
 70
     0
 43
0.0
 10
1.5
 20
0.0
 10
1.4917828431
 20
-0.1567926949
 10
1.4672214011
 20
-0.3118675362
 10
1.4265847744
 20
-0.4635254916
 10
1.3703181865
 20
-0.6101049646
 10
1.2990381057
 20
-0.75
 10
1.2135254916
 20
-0.8816778784
 10
1.1147172382
 20
-1.0036959095
 10
1.0036959095
 20
-1.1147172382
 10
0.8816778784
 20
-1.2135254916
 10
0.75
 20
-1.2990381057
 10
0.6101049646
 20
-1.3703181865
 10
0.4635254916
 20
-1.4265847744
 10
0.3118675362
 20
-1.4672214011
 10
0.1567926949
 20
-1.4917828431
 10
-0.0000000000000003
 20
-1.5
 42
0.414213562373095
 10
1.5
 20
0.0
 42
0.414213562373095
 10
0.0000000000000001
 20
1.5
 42
0.414213562373095
 10
-1.5
 20
0.0000000000000002
 42
0.414213562373095
 10
0.0
 20
-1.5
 10
0.0
 20
0.0
 10
1.5
 20
0.0
 42
-0.414213562373095
 10
-0.0000000000000003
 20
-1.5
 10
0.0
 20
0.0
 10
0.0
 20
1.5
 10
-0.1567926949
 20
1.4917828431
 10
-0.3118675362
 20
1.4672214011
 10
-0.4635254916
 20
1.4265847744
 10
-0.6101049646
 20
1.3703181865
 10
-0.75
 20
1.2990381057
 10
-0.8816778784
 20
1.2135254916
 10
-1.0036959095
 20
1.1147172382
 10
-1.1147172382
 20
1.0036959095
 10
-1.2135254916
 20
0.8816778784
 10
-1.2990381057
 20
0.75
 10
-1.3703181865
 20
0.6101049646
 10
-1.4265847744
 20
0.4635254916
 10
-1.4672214011
 20
0.3118675362
 10
-1.4917828431
 20
0.1567926949
 10
-1.5
 20
0.0
 10
0.0
 20
0.0
 10
1.5
 20
0.0
 10
0.0
 20
0.0
 10
-1.5
 20
0.0
  0
LWPOLYLINE
  5
4EA
330
225
100
AcDbEntity
  8
1
100
AcDbPolyline
 90
        3
 70
     0
 43
0.0
 10
0.0
 20
1.5
 10
0.0
 20
0.0
 10
0.0
 20
-1.5
  0
ENDBLK
  5
23B
330
225
100
AcDbEntity
  8
7
100
AcDbBlockEnd
  0
ENDSEC
  0
SECTION
  2
ENTITIES
  0
DIMENSION
  5
291
330
219
100
AcDbEntity
  8
SK2
100
AcDbDimension
  2
*D1
 10
-10.0
 20
11.0
 30
0.0
 11
-11.4749443853
 21
-2.2945914366
 31
0.0
 70
   160
  1
%%c<>
 71
     2
 42
22.0
  3
DIMSTYLE_1
100
AcDbAlignedDimension
 13
0.4999009947
 23
-11.0
 33
0.0
 14
0.4999009947
 24
11.0
 34
0.0
 50
90.0
100
AcDbRotatedDimension
  0
DIMENSION
  5
292
330
219
100
AcDbEntity
  8
SK2
100
AcDbDimension
  2
*D2
 10
-18.5
 20
22.5
 30
0.0
 11
-19.9749443853
 21
-2.2945914366
 31
0.0
 70
   160
  1
%%c<>
 71
     2
 42
45.0
  3
DIMSTYLE_1
100
AcDbAlignedDimension
 13
0.126431009
 23
-22.5
 33
0.0
 14
0.8709255403
 24
22.5
 34
0.0
 50
90.0
100
AcDbRotatedDimension
  0
DIMENSION
  5
293
330
219
100
AcDbEntity
  8
2
100
AcDbDimension
  2
*D3
 10
50.0
 20
49.9860529102
 30
0.0
 11
22.2
 21
52.6110529102
 31
0.0
 70
   160
 71
     2
 42
50.0
  3
DIMSTYLE_2
100
AcDbAlignedDimension
 13
0.0
 23
22.6133462046
 33
0.0
 14
50.0
 24
23.0
 34
0.0
100
AcDbRotatedDimension
  0
DIMENSION
  5
294
330
219
100
AcDbEntity
  8
2
100
AcDbDimension
  2
*D4
 10
79.54
 20
22.5
 30
0.0
 11
78.0650556147
 21
-2.2945914366
 31
0.0
 70
   160
  1
%%c<>
 71
     2
 42
45.0
  3
DIMSTYLE_2
100
AcDbAlignedDimension
 13
50.5
 23
-22.5
 33
0.0
 14
50.5
 24
22.5
 34
0.0
 50
90.0
100
AcDbRotatedDimension
  0
DIMENSION
  5
295
330
219
100
AcDbEntity
  8
SK2
100
AcDbDimension
  2
*D5
 10
62.54
 20
5.5
 30
0.0
 11
61.0650556147
 21
-2.2945914366
 31
0.0
 70
   160
  1
%%c<>
 71
     2
 42
11.0
  3
DIMSTYLE_1
100
AcDbAlignedDimension
 13
29.62418472
 23
-5.5
 33
0.0
 14
29.62418472
 24
5.5
 34
0.0
 50
90.0
100
AcDbRotatedDimension
  0
DIMENSION
  5
296
330
219
100
AcDbEntity
  8
SK2
100
AcDbDimension
  2
*D6
 10
71.04
 20
8.5
 30
0.0
 11
69.5650556147
 21
-2.2945914366
 31
0.0
 70
   160
  1
%%c<>
 71
     2
 42
17.0
  3
DIMSTYLE_1
100
AcDbAlignedDimension
 13
44.432231595
 23
-8.5
 33
0.0
 14
44.372231595
 24
8.5
 34
0.0
 50
90.0
100
AcDbRotatedDimension
  0
DIMENSION
  5
297
330
219
100
AcDbEntity
  8
2
100
AcDbDimension
  2
*D7
 10
88.04
 20
29.095
 30
0.0
 11
87.5060102086
 21
-4.1719844301
 31
0.0
 70
   160
  1
%%c<>
 71
     2
 42
58.19
  3
DIMSTYLE_3
100
AcDbAlignedDimension
 13
25.5108366957
 23
-29.095
 33
0.0
 14
25.4368735437
 24
29.095
 34
0.0
 50
90.0
100
AcDbRotatedDimension
  0
DIMENSION
  5
298
330
219
100
AcDbEntity
  8
2
100
AcDbDimension
  2
*D8
 10
27.0442305684
 20
28.6509798808
 30
0.0
 11
31.7456265361
 21
44.1482007387
 31
0.0
 70
   162
 71
     2
 42
1.308996939
  3
DIMSTYLE_4
100
AcDb2LineAngularDimension
 13
50.0
 23
46.0424753153
 33
0.0
 14
50.0
 24
23.0
 34
0.0
 15
31.1234183833
 25
27.5579648
 35
0.0
 16
36.8857719427
 26
39.5907947495
 36
0.0
  0
DIMENSION
  5
299
330
219
100
AcDbEntity
  8
SK2
100
AcDbDimension
  2
*D9
 10
0.0
 20
-39.3961534635
 30
0.0
 11
7.7
 21
-36.7711534635
 31
0.0
 70
   160
 71
     2
 42
21.0
  3
DIMSTYLE_1
100
AcDbAlignedDimension
 13
21.0
 23
-10.5455839024
 33
0.0
 14
0.0
 24
-23.5
 34
0.0
 50
180.0
100
AcDbRotatedDimension
  0
MTEXT
  5
29A
330
219
100
AcDbEntity
  8
6
100
AcDbMText
 10
0.3905017266
 20
-49.0202002201
 30
0.0
 40
5.0
 41
64.0
 71
     1
 72
     1
  1
15L1H045050F1R00
 73
     1
 44
0.9
  0
MTEXT
  5
29B
330
219
100
AcDbEntity
  8
6
100
AcDbMText
 10
94.186803769
 20
-1.93416923
 30
0.0
 40
3.5
 41
8.4
 71
     1
 72
     1
  1
Z=3
 11
0.0
 21
1.0
 31
0.0
 73
     1
 44
0.9
  0
MTEXT
  5
29C
330
219
100
AcDbEntity
  8
6
100
AcDbMText
 10
56.2672856308
 20
41.0558641297
 30
0.0
 40
3.5
 41
30.8
 71
     1
 72
     1
  1
BEHW250308R
 73
     1
 44
0.9
  0
LINE
  5
2BE
330
219
100
AcDbEntity
  8
SK3
 48
0.2
100
AcDbLine
 10
0.9999774257
 20
-10.9999608936
 30
0.0
 11
0.0
 21
-11.5772953929
 31
0.0
  0
LINE
  5
2BF
330
219
100
AcDbEntity
  8
4
 48
0.2
100
AcDbLine
 10
-3.0
 20
0.0
 30
0.0
 11
48.9190610538
 21
0.0
 31
0.0
  0
LINE
  5
2C1
330
219
100
AcDbEntity
  8
SK3
 48
0.2
100
AcDbLine
 10
21.4999496141
 20
-5.4999495993
 30
0.0
 11
20.9999450336
 21
-5.9999450174
 31
0.0
  0
LINE
  5
2C6
330
219
100
AcDbEntity
  8
SK3
 48
0.2
100
AcDbLine
 10
21.5
 20
5.5
 30
0.0
 11
29.5
 21
5.5
 31
0.0
  0
LINE
  5
2CC
330
219
100
AcDbEntity
  8
SK3
 48
0.2
100
AcDbLine
 10
17.0
 20
11.0
 30
0.0
 11
18.492820323
 21
11.4
 31
0.0
  0
SOLID
  5
36D
330
219
100
AcDbEntity
  8
1
100
AcDbTrace
 10
-1.4917828431
 20
0.0
 30
0.0
 11
-1.5
 21
0.0
 31
0.0
 12
-1.4917828431
 22
0.1567926949
 32
0.0
 13
-1.4917828431
 23
0.1567926949
 33
0.0
  0
SOLID
  5
36E
330
219
100
AcDbEntity
  8
1
100
AcDbTrace
 10
1.4917828431
 20
0.0
 30
0.0
 11
1.4917828431
 21
0.1567926949
 31
0.0
 12
1.4672214011
 22
0.0
 32
0.0
 13
1.4672214011
 23
0.0
 33
0.0
210
0.0
220
0.0
230
-1.0
  0
SOLID
  5
36F
330
219
100
AcDbEntity
  8
1
100
AcDbTrace
 10
-1.4672214011
 20
0.0
 30
0.0
 11
-1.4917828431
 21
0.1567926949
 31
0.0
 12
-1.4672214011
 22
0.3118675362
 32
0.0
 13
-1.4672214011
 23
0.3118675362
 33
0.0
  0
SOLID
  5
370
330
219
100
AcDbEntity
  8
1
100
AcDbTrace
 10
1.4672214011
 20
0.0
 30
0.0
 11
1.4672214011
 21
0.3118675362
 31
0.0
 12
1.4265847744
 22
0.0
 32
0.0
 13
1.4265847744
 23
0.0
 33
0.0
210
0.0
220
0.0
230
-1.0
  0
SOLID
  5
371
330
219
100
AcDbEntity
  8
1
100
AcDbTrace
 10
-1.4265847744
 20
0.0
 30
0.0
 11
-1.4672214011
 21
0.3118675362
 31
0.0
 12
-1.4265847744
 22
0.4635254916
 32
0.0
 13
-1.4265847744
 23
0.4635254916
 33
0.0
  0
SOLID
  5
372
330
219
100
AcDbEntity
  8
1
100
AcDbTrace
 10
1.4265847744
 20
0.0
 30
0.0
 11
1.4265847744
 21
0.4635254916
 31
0.0
 12
1.3703181865
 22
0.0
 32
0.0
 13
1.3703181865
 23
0.0
 33
0.0
210
0.0
220
0.0
230
-1.0
  0
SOLID
  5
373
330
219
100
AcDbEntity
  8
1
100
AcDbTrace
 10
-1.3703181865
 20
0.0
 30
0.0
 11
-1.4265847744
 21
0.4635254916
 31
0.0
 12
-1.3703181865
 22
0.6101049646
 32
0.0
 13
-1.3703181865
 23
0.6101049646
 33
0.0
  0
SOLID
  5
374
330
219
100
AcDbEntity
  8
1
100
AcDbTrace
 10
1.3703181865
 20
0.0
 30
0.0
 11
1.3703181865
 21
0.6101049646
 31
0.0
 12
1.2990381057
 22
0.0
 32
0.0
 13
1.2990381057
 23
0.0
 33
0.0
210
0.0
220
0.0
230
-1.0
  0
SOLID
  5
375
330
219
100
AcDbEntity
  8
1
100
AcDbTrace
 10
-1.2990381057
 20
0.0
 30
0.0
 11
-1.3703181865
 21
0.6101049646
 31
0.0
 12
-1.2990381057
 22
0.75
 32
0.0
 13
-1.2990381057
 23
0.75
 33
0.0
  0
SOLID
  5
376
330
219
100
AcDbEntity
  8
1
100
AcDbTrace
 10
1.2990381057
 20
0.0
 30
0.0
 11
1.2990381057
 21
0.75
 31
0.0
 12
1.2135254916
 22
0.0
 32
0.0
 13
1.2135254916
 23
0.0
 33
0.0
210
0.0
220
0.0
230
-1.0
  0
SOLID
  5
377
330
219
100
AcDbEntity
  8
1
100
AcDbTrace
 10
-1.2135254916
 20
0.0
 30
0.0
 11
-1.2990381057
 21
0.75
 31
0.0
 12
-1.2135254916
 22
0.8816778784
 32
0.0
 13
-1.2135254916
 23
0.8816778784
 33
0.0
  0
SOLID
  5
378
330
219
100
AcDbEntity
  8
1
100
AcDbTrace
 10
1.2135254916
 20
0.0
 30
0.0
 11
1.2135254916
 21
0.8816778784
 31
0.0
 12
1.1147172382
 22
0.0
 32
0.0
 13
1.1147172382
 23
0.0
 33
0.0
210
0.0
220
0.0
230
-1.0
  0
SOLID
  5
379
330
219
100
AcDbEntity
  8
1
100
AcDbTrace
 10
-1.1147172382
 20
0.0
 30
0.0
 11
-1.2135254916
 21
0.8816778784
 31
0.0
 12
-1.1147172382
 22
1.0036959095
 32
0.0
 13
-1.1147172382
 23
1.0036959095
 33
0.0
  0
SOLID
  5
37A
330
219
100
AcDbEntity
  8
1
100
AcDbTrace
 10
1.1147172382
 20
0.0
 30
0.0
 11
1.1147172382
 21
1.0036959095
 31
0.0
 12
1.0036959095
 22
0.0
 32
0.0
 13
1.0036959095
 23
0.0
 33
0.0
210
0.0
220
0.0
230
-1.0
  0
SOLID
  5
37B
330
219
100
AcDbEntity
  8
1
100
AcDbTrace
 10
-1.0036959095
 20
0.0
 30
0.0
 11
-1.1147172382
 21
1.0036959095
 31
0.0
 12
-1.0036959095
 22
1.1147172382
 32
0.0
 13
-1.0036959095
 23
1.1147172382
 33
0.0
  0
SOLID
  5
37C
330
219
100
AcDbEntity
  8
1
100
AcDbTrace
 10
1.0036959095
 20
0.0
 30
0.0
 11
1.0036959095
 21
1.1147172382
 31
0.0
 12
0.8816778784
 22
0.0
 32
0.0
 13
0.8816778784
 23
0.0
 33
0.0
210
0.0
220
0.0
230
-1.0
  0
SOLID
  5
37D
330
219
100
AcDbEntity
  8
1
100
AcDbTrace
 10
-0.8816778784
 20
0.0
 30
0.0
 11
-1.0036959095
 21
1.1147172382
 31
0.0
 12
-0.8816778784
 22
1.2135254916
 32
0.0
 13
-0.8816778784
 23
1.2135254916
 33
0.0
  0
SOLID
  5
37E
330
219
100
AcDbEntity
  8
1
100
AcDbTrace
 10
0.8816778784
 20
0.0
 30
0.0
 11
0.8816778784
 21
1.2135254916
 31
0.0
 12
0.75
 22
0.0
 32
0.0
 13
0.75
 23
0.0
 33
0.0
210
0.0
220
0.0
230
-1.0
  0
SOLID
  5
37F
330
219
100
AcDbEntity
  8
1
100
AcDbTrace
 10
-0.75
 20
0.0
 30
0.0
 11
-0.8816778784
 21
1.2135254916
 31
0.0
 12
-0.75
 22
1.2990381057
 32
0.0
 13
-0.75
 23
1.2990381057
 33
0.0
  0
SOLID
  5
380
330
219
100
AcDbEntity
  8
1
100
AcDbTrace
 10
0.75
 20
0.0
 30
0.0
 11
0.75
 21
1.2990381057
 31
0.0
 12
0.6101049646
 22
0.0
 32
0.0
 13
0.6101049646
 23
0.0
 33
0.0
210
0.0
220
0.0
230
-1.0
  0
SOLID
  5
381
330
219
100
AcDbEntity
  8
1
100
AcDbTrace
 10
-0.6101049646
 20
0.0
 30
0.0
 11
-0.75
 21
1.2990381057
 31
0.0
 12
-0.6101049646
 22
1.3703181865
 32
0.0
 13
-0.6101049646
 23
1.3703181865
 33
0.0
  0
SOLID
  5
382
330
219
100
AcDbEntity
  8
1
100
AcDbTrace
 10
0.6101049646
 20
0.0
 30
0.0
 11
0.6101049646
 21
1.3703181865
 31
0.0
 12
0.4635254916
 22
0.0
 32
0.0
 13
0.4635254916
 23
0.0
 33
0.0
210
0.0
220
0.0
230
-1.0
  0
SOLID
  5
383
330
219
100
AcDbEntity
  8
1
100
AcDbTrace
 10
-0.4635254916
 20
0.0
 30
0.0
 11
-0.6101049646
 21
1.3703181865
 31
0.0
 12
-0.4635254916
 22
1.4265847744
 32
0.0
 13
-0.4635254916
 23
1.4265847744
 33
0.0
  0
SOLID
  5
384
330
219
100
AcDbEntity
  8
1
100
AcDbTrace
 10
0.4635254916
 20
0.0
 30
0.0
 11
0.4635254916
 21
1.4265847744
 31
0.0
 12
0.3118675362
 22
0.0
 32
0.0
 13
0.3118675362
 23
0.0
 33
0.0
210
0.0
220
0.0
230
-1.0
  0
SOLID
  5
385
330
219
100
AcDbEntity
  8
1
100
AcDbTrace
 10
-0.3118675362
 20
0.0
 30
0.0
 11
-0.4635254916
 21
1.4265847744
 31
0.0
 12
-0.3118675362
 22
1.4672214011
 32
0.0
 13
-0.3118675362
 23
1.4672214011
 33
0.0
  0
SOLID
  5
386
330
219
100
AcDbEntity
  8
1
100
AcDbTrace
 10
0.3118675362
 20
0.0
 30
0.0
 11
0.3118675362
 21
1.4672214011
 31
0.0
 12
0.1567926949
 22
0.0
 32
0.0
 13
0.1567926949
 23
0.0
 33
0.0
210
0.0
220
0.0
230
-1.0
  0
SOLID
  5
387
330
219
100
AcDbEntity
  8
1
100
AcDbTrace
 10
-0.1567926949
 20
0.0
 30
0.0
 11
-0.3118675362
 21
1.4672214011
 31
0.0
 12
-0.1567926949
 22
1.4917828431
 32
0.0
 13
-0.1567926949
 23
1.4917828431
 33
0.0
  0
SOLID
  5
388
330
219
100
AcDbEntity
  8
1
100
AcDbTrace
 10
0.1567926949
 20
0.0
 30
0.0
 11
0.1567926949
 21
1.4917828431
 31
0.0
 12
0.0
 22
0.0
 32
0.0
 13
0.0
 23
0.0
 33
0.0
210
0.0
220
0.0
230
-1.0
  0
SOLID
  5
389
330
219
100
AcDbEntity
  8
1
100
AcDbTrace
 10
0.0
 20
0.0
 30
0.0
 11
-0.1567926949
 21
1.4917828431
 31
0.0
 12
0.0
 22
1.5
 32
0.0
 13
0.0
 23
1.5
 33
0.0
  0
SOLID
  5
38A
330
219
100
AcDbEntity
  8
1
100
AcDbTrace
 10
0.0
 20
-1.5
 30
0.0
 11
0.0
 21
0.0
 31
0.0
 12
-0.1567926949
 22
-1.4917828431
 32
0.0
 13
-0.1567926949
 23
-1.4917828431
 33
0.0
210
0.0
220
0.0
230
-1.0
  0
SOLID
  5
38B
330
219
100
AcDbEntity
  8
1
100
AcDbTrace
 10
-0.1567926949
 20
-1.4917828431
 30
0.0
 11
0.0
 21
0.0
 31
0.0
 12
-0.1567926949
 22
0.0
 32
0.0
 13
-0.1567926949
 23
0.0
 33
0.0
210
0.0
220
0.0
230
-1.0
  0
SOLID
  5
38C
330
219
100
AcDbEntity
  8
1
100
AcDbTrace
 10
-0.1567926949
 20
-1.4917828431
 30
0.0
 11
-0.1567926949
 21
0.0
 31
0.0
 12
-0.3118675362
 22
-1.4672214011
 32
0.0
 13
-0.3118675362
 23
-1.4672214011
 33
0.0
210
0.0
220
0.0
230
-1.0
  0
SOLID
  5
38D
330
219
100
AcDbEntity
  8
1
100
AcDbTrace
 10
-0.3118675362
 20
-1.4672214011
 30
0.0
 11
-0.1567926949
 21
0.0
 31
0.0
 12
-0.3118675362
 22
0.0
 32
0.0
 13
-0.3118675362
 23
0.0
 33
0.0
210
0.0
220
0.0
230
-1.0
  0
SOLID
  5
38E
330
219
100
AcDbEntity
  8
1
100
AcDbTrace
 10
-0.3118675362
 20
-1.4672214011
 30
0.0
 11
-0.3118675362
 21
0.0
 31
0.0
 12
-0.4635254916
 22
-1.4265847744
 32
0.0
 13
-0.4635254916
 23
-1.4265847744
 33
0.0
210
0.0
220
0.0
230
-1.0
  0
SOLID
  5
38F
330
219
100
AcDbEntity
  8
1
100
AcDbTrace
 10
-0.4635254916
 20
-1.4265847744
 30
0.0
 11
-0.3118675362
 21
0.0
 31
0.0
 12
-0.4635254916
 22
0.0
 32
0.0
 13
-0.4635254916
 23
0.0
 33
0.0
210
0.0
220
0.0
230
-1.0
  0
SOLID
  5
390
330
219
100
AcDbEntity
  8
1
100
AcDbTrace
 10
-0.4635254916
 20
-1.4265847744
 30
0.0
 11
-0.4635254916
 21
0.0
 31
0.0
 12
-0.6101049646
 22
-1.3703181865
 32
0.0
 13
-0.6101049646
 23
-1.3703181865
 33
0.0
210
0.0
220
0.0
230
-1.0
  0
SOLID
  5
391
330
219
100
AcDbEntity
  8
1
100
AcDbTrace
 10
-0.6101049646
 20
-1.3703181865
 30
0.0
 11
-0.4635254916
 21
0.0
 31
0.0
 12
-0.6101049646
 22
0.0
 32
0.0
 13
-0.6101049646
 23
0.0
 33
0.0
210
0.0
220
0.0
230
-1.0
  0
SOLID
  5
392
330
219
100
AcDbEntity
  8
1
100
AcDbTrace
 10
-0.6101049646
 20
-1.3703181865
 30
0.0
 11
-0.6101049646
 21
0.0
 31
0.0
 12
-0.75
 22
-1.2990381057
 32
0.0
 13
-0.75
 23
-1.2990381057
 33
0.0
210
0.0
220
0.0
230
-1.0
  0
SOLID
  5
393
330
219
100
AcDbEntity
  8
1
100
AcDbTrace
 10
-0.75
 20
-1.2990381057
 30
0.0
 11
-0.6101049646
 21
0.0
 31
0.0
 12
-0.75
 22
0.0
 32
0.0
 13
-0.75
 23
0.0
 33
0.0
210
0.0
220
0.0
230
-1.0
  0
SOLID
  5
394
330
219
100
AcDbEntity
  8
1
100
AcDbTrace
 10
-0.75
 20
-1.2990381057
 30
0.0
 11
-0.75
 21
0.0
 31
0.0
 12
-0.8816778784
 22
-1.2135254916
 32
0.0
 13
-0.8816778784
 23
-1.2135254916
 33
0.0
210
0.0
220
0.0
230
-1.0
  0
SOLID
  5
395
330
219
100
AcDbEntity
  8
1
100
AcDbTrace
 10
-0.8816778784
 20
-1.2135254916
 30
0.0
 11
-0.75
 21
0.0
 31
0.0
 12
-0.8816778784
 22
0.0
 32
0.0
 13
-0.8816778784
 23
0.0
 33
0.0
210
0.0
220
0.0
230
-1.0
  0
SOLID
  5
396
330
219
100
AcDbEntity
  8
1
100
AcDbTrace
 10
-0.8816778784
 20
-1.2135254916
 30
0.0
 11
-0.8816778784
 21
0.0
 31
0.0
 12
-1.0036959095
 22
-1.1147172382
 32
0.0
 13
-1.0036959095
 23
-1.1147172382
 33
0.0
210
0.0
220
0.0
230
-1.0
  0
SOLID
  5
397
330
219
100
AcDbEntity
  8
1
100
AcDbTrace
 10
-1.0036959095
 20
-1.1147172382
 30
0.0
 11
-0.8816778784
 21
0.0
 31
0.0
 12
-1.0036959095
 22
0.0
 32
0.0
 13
-1.0036959095
 23
0.0
 33
0.0
210
0.0
220
0.0
230
-1.0
  0
SOLID
  5
398
330
219
100
AcDbEntity
  8
1
100
AcDbTrace
 10
-1.0036959095
 20
-1.1147172382
 30
0.0
 11
-1.0036959095
 21
0.0
 31
0.0
 12
-1.1147172382
 22
-1.0036959095
 32
0.0
 13
-1.1147172382
 23
-1.0036959095
 33
0.0
210
0.0
220
0.0
230
-1.0
  0
SOLID
  5
399
330
219
100
AcDbEntity
  8
1
100
AcDbTrace
 10
-1.1147172382
 20
-1.0036959095
 30
0.0
 11
-1.0036959095
 21
0.0
 31
0.0
 12
-1.1147172382
 22
0.0
 32
0.0
 13
-1.1147172382
 23
0.0
 33
0.0
210
0.0
220
0.0
230
-1.0
  0
SOLID
  5
39A
330
219
100
AcDbEntity
  8
1
100
AcDbTrace
 10
-1.1147172382
 20
-1.0036959095
 30
0.0
 11
-1.1147172382
 21
0.0
 31
0.0
 12
-1.2135254916
 22
-0.8816778784
 32
0.0
 13
-1.2135254916
 23
-0.8816778784
 33
0.0
210
0.0
220
0.0
230
-1.0
  0
SOLID
  5
39B
330
219
100
AcDbEntity
  8
1
100
AcDbTrace
 10
-1.2135254916
 20
-0.8816778784
 30
0.0
 11
-1.1147172382
 21
0.0
 31
0.0
 12
-1.2135254916
 22
0.0
 32
0.0
 13
-1.2135254916
 23
0.0
 33
0.0
210
0.0
220
0.0
230
-1.0
  0
SOLID
  5
39C
330
219
100
AcDbEntity
  8
1
100
AcDbTrace
 10
-1.2135254916
 20
-0.8816778784
 30
0.0
 11
-1.2135254916
 21
0.0
 31
0.0
 12
-1.2990381057
 22
-0.75
 32
0.0
 13
-1.2990381057
 23
-0.75
 33
0.0
210
0.0
220
0.0
230
-1.0
  0
SOLID
  5
39D
330
219
100
AcDbEntity
  8
1
100
AcDbTrace
 10
-1.2990381057
 20
-0.75
 30
0.0
 11
-1.2135254916
 21
0.0
 31
0.0
 12
-1.2990381057
 22
0.0
 32
0.0
 13
-1.2990381057
 23
0.0
 33
0.0
210
0.0
220
0.0
230
-1.0
  0
SOLID
  5
39E
330
219
100
AcDbEntity
  8
1
100
AcDbTrace
 10
-1.2990381057
 20
-0.75
 30
0.0
 11
-1.2990381057
 21
0.0
 31
0.0
 12
-1.3703181865
 22
-0.6101049646
 32
0.0
 13
-1.3703181865
 23
-0.6101049646
 33
0.0
210
0.0
220
0.0
230
-1.0
  0
SOLID
  5
39F
330
219
100
AcDbEntity
  8
1
100
AcDbTrace
 10
-1.3703181865
 20
-0.6101049646
 30
0.0
 11
-1.2990381057
 21
0.0
 31
0.0
 12
-1.3703181865
 22
0.0
 32
0.0
 13
-1.3703181865
 23
0.0
 33
0.0
210
0.0
220
0.0
230
-1.0
  0
SOLID
  5
3A0
330
219
100
AcDbEntity
  8
1
100
AcDbTrace
 10
-1.3703181865
 20
-0.6101049646
 30
0.0
 11
-1.3703181865
 21
0.0
 31
0.0
 12
-1.4265847744
 22
-0.4635254916
 32
0.0
 13
-1.4265847744
 23
-0.4635254916
 33
0.0
210
0.0
220
0.0
230
-1.0
  0
SOLID
  5
3A1
330
219
100
AcDbEntity
  8
1
100
AcDbTrace
 10
-1.4265847744
 20
-0.4635254916
 30
0.0
 11
-1.3703181865
 21
0.0
 31
0.0
 12
-1.4265847744
 22
0.0
 32
0.0
 13
-1.4265847744
 23
0.0
 33
0.0
210
0.0
220
0.0
230
-1.0
  0
SOLID
  5
3A2
330
219
100
AcDbEntity
  8
1
100
AcDbTrace
 10
-1.4265847744
 20
-0.4635254916
 30
0.0
 11
-1.4265847744
 21
0.0
 31
0.0
 12
-1.4672214011
 22
-0.3118675362
 32
0.0
 13
-1.4672214011
 23
-0.3118675362
 33
0.0
210
0.0
220
0.0
230
-1.0
  0
SOLID
  5
3A3
330
219
100
AcDbEntity
  8
1
100
AcDbTrace
 10
-1.4672214011
 20
-0.3118675362
 30
0.0
 11
-1.4265847744
 21
0.0
 31
0.0
 12
-1.4672214011
 22
0.0
 32
0.0
 13
-1.4672214011
 23
0.0
 33
0.0
210
0.0
220
0.0
230
-1.0
  0
SOLID
  5
3A4
330
219
100
AcDbEntity
  8
1
100
AcDbTrace
 10
-1.4672214011
 20
-0.3118675362
 30
0.0
 11
-1.4672214011
 21
0.0
 31
0.0
 12
-1.4917828431
 22
-0.1567926949
 32
0.0
 13
-1.4917828431
 23
-0.1567926949
 33
0.0
210
0.0
220
0.0
230
-1.0
  0
SOLID
  5
3A5
330
219
100
AcDbEntity
  8
1
100
AcDbTrace
 10
-1.4917828431
 20
-0.1567926949
 30
0.0
 11
-1.4672214011
 21
0.0
 31
0.0
 12
-1.4917828431
 22
0.0
 32
0.0
 13
-1.4917828431
 23
0.0
 33
0.0
210
0.0
220
0.0
230
-1.0
  0
SOLID
  5
3A6
330
219
100
AcDbEntity
  8
1
100
AcDbTrace
 10
-1.4917828431
 20
-0.1567926949
 30
0.0
 11
-1.4917828431
 21
0.0
 31
0.0
 12
-1.5
 22
0.0
 32
0.0
 13
-1.5
 23
0.0
 33
0.0
210
0.0
220
0.0
230
-1.0
  0
LWPOLYLINE
  5
4D3
330
219
100
AcDbEntity
  8
NOCUT
100
AcDbPolyline
 90
       11
 70
     0
 43
0.0
 10
0.0
 20
21.5
 42
-0.414213562373095
 10
1.0
 20
22.5
 10
13.2679491924
 20
22.5
 42
0.2679491924311226
 10
15.8660254038
 20
24.0
 10
18.40414578932938
 20
28.39615346349698
 42
-0.3394542588643489
 10
20.6538346871
 20
29.3280051161
 10
47.62940952255126
 20
22.09992162364453
 42
-0.3394542588633758
 10
48.0
 20
21.6169587105
 10
48.0
 20
0.0
 10
0.0
 20
0.0
 10
0.0
 20
21.4827389176
  0
LWPOLYLINE
  5
4D4
330
219
100
AcDbEntity
  8
1
100
AcDbPolyline
 90
       20
 70
     0
 43
0.0
 10
0.0
 20
-21.485709317
 10
0.0
 20
-6.2
 10
0.0
 20
-21.5
 42
0.414213562373095
 10
1.0
 20
-22.5
 10
13.2679491924
 20
-22.5
 42
-0.2679491924311228
 10
15.8660254038
 20
-24.0
 10
18.40414578932938
 20
-28.39615346349698
 42
0.3394542588643488
 10
20.6538346871
 20
-29.3280051161
 10
47.6294095226
 20
-22.0999216236
 42
0.3394542588633759
 10
48.0
 20
-21.6169587105
 10
48.0
 20
21.6169587105
 42
0.3394542588633758
 10
47.62940952255126
 20
22.09992162364453
 10
20.6538346871
 20
29.3280051161
 42
0.3394542588643489
 10
18.40414578932938
 20
28.39615346349698
 10
15.8660254038
 20
24.0
 42
-0.2679491924311226
 10
13.2679491924
 20
22.5
 10
1.0
 20
22.5
 42
0.414213562373095
 10
0.0
 20
21.5
 10
0.0
 20
6.2
 10
0.0
 20
21.4997415329
  0
LWPOLYLINE
  5
4D5
330
219
100
AcDbEntity
  8
SK3
 48
0.2
100
AcDbPolyline
 90
       10
 70
     0
 43
0.0
 10
0.9999096911
 20
-5.2
 10
0.9999999996
 20
-11.0
 10
17.0
 20
-11.0
 10
18.492820323
 20
-11.4
 10
20.0
 20
-11.4
 42
0.414213562373095
 10
21.0
 20
-10.4
 10
21.0
 20
10.4
 42
0.414213562373095
 10
20.0
 20
11.4
 10
18.492820323
 20
11.4
 10
18.492820323
 20
-11.4
  0
LWPOLYLINE
  5
4D6
330
219
100
AcDbEntity
  8
SK3
 48
0.2
100
AcDbPolyline
 90
        3
 70
     0
 43
0.0
 10
0.0
 20
11.5772953929
 10
0.9999999996
 20
11.0
 10
0.9999096911
 20
5.2
  0
LWPOLYLINE
  5
4D7
330
219
100
AcDbEntity
  8
1
100
AcDbPolyline
 90
        8
 70
     0
 43
0.0
 10
0.0
 20
6.2
 10
1.0
 20
5.2
 10
5.7
 20
5.199999999999999
 42
-0.414213562373095
 10
6.3
 20
4.6
 10
6.3
 20
-4.6
 42
-0.414213562373095
 10
5.7
 20
-5.199999999999999
 10
1.0
 20
-5.2
 10
0.0
 20
-6.2
  0
LWPOLYLINE
  5
4D8
330
219
100
AcDbEntity
  8
SK3
 48
0.2
100
AcDbPolyline
 90
        3
 70
     0
 43
0.0
 10
1.0
 20
11.0
 10
17.0
 20
11.0
 10
17.0
 20
-11.0
  0
LWPOLYLINE
  5
4D9
330
219
100
AcDbEntity
  8
SK3
 48
0.2
100
AcDbPolyline
 90
        6
 70
     0
 43
0.0
 10
45.0
 20
9.5
 42
-0.414213562373095
 10
44.0
 20
8.5
 10
30.0
 20
8.5
 10
30.0
 20
-8.5
 10
44.0
 20
-8.5
 42
-0.414213562373095
 10
45.0
 20
-9.5
  0
LWPOLYLINE
  5
4DA
330
219
100
AcDbEntity
  8
SK3
 48
0.2
100
AcDbPolyline
 90
        8
 70
     0
 43
0.0
 10
20.9999450344
 20
5.9999450166
 10
21.5
 20
5.5
 10
21.5
 20
-5.5
 10
29.5
 20
-5.5
 10
30.0000500364
 20
-5.9999499395
 10
30.0
 20
6.0000000008
 10
29.5000458701
 20
5.4999541146
 10
29.5
 20
-5.5
  0
LWPOLYLINE
  5
4DB
330
219
100
AcDbEntity
  8
SK3
 48
0.2
100
AcDbPolyline
 90
        8
 70
     1
 43
0.0
 10
47.95315389353971
 20
-21.14953820047552
 42
-0.1095178116571891
 10
48.0
 20
-21.3608473313
 10
48.0
 20
21.3608473313
 42
-0.1095178116638124
 10
47.9531538935
 20
21.1495382005
 10
45.1873844259267
 20
15.2183264366814
 42
0.1095178116832414
 10
45.0
 20
14.3730899132
 10
45.0
 20
-14.3730899132
 42
0.1095178116832414
 10
45.1873844259
 20
-15.2183264367
  0
LWPOLYLINE
  5
4DC
330
219
100
AcDbEntity
  8
1
100
AcDbPolyline
 90
      125
 70
     1
 43
0.0
 10
49.444689
 20
-22.649843
 10
49.4674227333
 20
-22.6432997266
 10
49.489971
 20
-22.636139
 10
49.5119269697
 20
-22.6284900514
 10
49.533658
 20
-22.620225
 10
49.5548337005
 20
-22.6114679081
 10
49.575747
 20
-22.602101
 10
49.5961457813
 20
-22.5922365315
 10
49.61624
 20
-22.581766
 10
49.6359199815
 20
-22.5707325607
 10
49.65525
 20
-22.559097
 10
49.6742185962
 20
-22.5468638471
 10
49.692807
 20
-22.53406
 10
49.7109196194
 20
-22.5207738156
 10
49.728633
 20
-22.50696
 10
49.7457527877
 20
-22.4927819948
 10
49.762445
 20
-22.478103
 10
49.7785248443
 20
-22.4630820582
 10
49.794138
 20
-22.447577
 10
49.8092938757
 20
-22.4315611838
 10
49.823953
 20
-22.415089
 10
49.8380885739
 20
-22.3982126461
 10
49.851714
 20
-22.380922
 10
49.86473182
 20
-22.3633480137
 10
49.877216
 20
-22.345391
 10
49.8890583961
 20
-22.3272066673
 10
49.900341
 20
-22.30867
 10
49.9111004179
 20
-22.2897033635
 10
49.921278
 20
-22.270418
 10
49.9308949856
 20
-22.2507892688
 10
49.939919
 20
-22.230881
 10
49.9483210716
 20
-22.2107565651
 10
49.956107
 20
-22.190386
 10
49.9632295193
 20
-22.1698853169
 10
49.969724
 20
-22.149177
 10
49.9756341358
 20
-22.1281160307
 10
49.980909
 20
-22.106887
 10
49.9855798498
 20
-22.0853684184
 10
49.989607
 20
-22.06372
 10
49.9929892438
 20
-22.041923966
 10
49.995703
 20
-22.020035
 10
49.997731342
 20
-21.9981185152
 10
49.999089
 20
-21.97615
 10
49.9997931859
 20
-21.9539250598
 10
49.999839
 20
-21.931689
 10
49.9992265606
 20
-21.9092261548
 10
49.997953
 20
-21.886791
 10
49.9960041859
 20
-21.8642961123
 10
49.993373
 20
-21.841871
 10
49.9900510112
 20
-21.81954748
 10
49.986042
 20
-21.797337
 10
49.9813352629
 20
-21.7751651847
 10
49.975967
 20
-21.753144
 10
49.9698872515
 20
-21.7310427441
 10
49.96317
 20
-21.709127
 10
49.9557202165
 20
-21.6870963001
 10
49.947652
 20
-21.665284
 10
49.9388300221
 20
-21.6433255247
 10
49.929413
 20
-21.621617
 10
45.605222
 20
-12.212033
 10
21.594724
 20
-18.736858
 10
21.5719898216
 20
-18.7435679465
 10
21.549442
 20
-18.750884
 10
21.5274861099
 20
-18.758674857
 10
21.505755
 20
-18.767071
 10
21.4845800457
 20
-18.7759460304
 10
21.463666
 20
-18.78542
 10
21.4432685946
 20
-18.7953772822
 10
21.423173
 20
-18.80593
 10
21.4034949863
 20
-18.8170314573
 10
21.384163
 20
-18.828725
 10
21.3651968361
 20
-18.8410006729
 10
21.346606
 20
-18.853838
 10
21.3284961204
 20
-18.8671420633
 10
21.31078
 20
-18.880966
 10
21.2936632223
 20
-18.8951373727
 10
21.276968
 20
-18.909803
 10
21.2608914578
 20
-18.924793329
 10
21.245275
 20
-18.940262
 10
21.2301223916
 20
-18.9562220354
 10
21.21546
 20
-18.972634
 10
21.2013282498
 20
-18.9894315713
 10
21.1877
 20
-19.00664
 10
21.1746849948
 20
-19.0241122738
 10
21.162197
 20
-19.041965
 10
21.1503575173
 20
-19.0600254694
 10
21.139072
 20
-19.078437
 10
21.1283153577
 20
-19.0972574457
 10
21.118135
 20
-19.116396
 10
21.1085205383
 20
-19.13585673
 10
21.099494
 20
-19.155597
 10
21.0910940404
 20
-19.1755326376
 10
21.083306
 20
-19.195715
 10
21.0761851656
 20
-19.2160091945
 10
21.069689
 20
-19.236512
 10
21.0637802445
 20
-19.257345934
 10
21.058504
 20
-19.278349
 10
21.0538341349
 20
-19.299621534
 10
21.049806
 20
-19.321025
 10
21.046424397
 20
-19.3425575617
 10
21.04371
 20
-19.364184
 10
21.0416819533
 20
-19.3858231755
 10
21.040324
 20
-19.407515
 10
21.0396198981
 20
-19.4294448686
 10
21.039574
 20
-19.451386
 10
21.0401863077
 20
-19.473538046
 10
21.04146
 20
-19.495662
 10
21.0434085909
 20
-19.5178329219
 10
21.04604
 20
-19.539933
 10
21.0493616889
 20
-19.561922437
 10
21.053371
 20
-19.583797
 10
21.0580775618
 20
-19.6056235514
 10
21.063446
 20
-19.627297
 10
21.0695256728
 20
-19.6490423154
 10
21.076243
 20
-19.670599
 10
21.0836928962
 20
-19.6922615264
 10
21.091761
 20
-19.713702
 10
21.1005835009
 20
-19.7352814905
 10
21.11
 20
-19.756607
 10
22.6011
 20
-22.960024
 10
24.539531
 20
-27.145118
 10
25.434191
 20
-29.082047
 10
33.713673
 20
-26.853485
 10
40.337259
 20
-25.07786
 10
46.132896
 20
-23.5307
  0
LWPOLYLINE
  5
4DD
330
219
100
AcDbEntity
  8
CUT
100
AcDbPolyline
 90
      124
 70
     1
 43
0.0
 10
49.444689
 20
22.649843
 10
49.4674227333
 20
22.6432997266
 10
49.489971
 20
22.636139
 10
49.5119269697
 20
22.6284900514
 10
49.533658
 20
22.620225
 10
49.5548337005
 20
22.6114679081
 10
49.575747
 20
22.602101
 10
49.5961457813
 20
22.5922365315
 10
49.61624
 20
22.581766
 10
49.6359199815
 20
22.5707325607
 10
49.65525
 20
22.559097
 10
49.6742185962
 20
22.5468638471
 10
49.692807
 20
22.53406
 10
49.7109196194
 20
22.5207738156
 10
49.728633
 20
22.50696
 10
49.7457527877
 20
22.4927819948
 10
49.762445
 20
22.478103
 10
49.7785248443
 20
22.4630820582
 10
49.794138
 20
22.447577
 10
49.8092938757
 20
22.4315611838
 10
49.823953
 20
22.415089
 10
49.8380885739
 20
22.3982126461
 10
49.851714
 20
22.380922
 10
49.86473182
 20
22.3633480137
 10
49.877216
 20
22.345391
 10
49.8890583961
 20
22.3272066673
 10
49.900341
 20
22.30867
 10
49.9111004179
 20
22.2897033635
 10
49.921278
 20
22.270418
 10
49.9308949856
 20
22.2507892688
 10
49.939919
 20
22.230881
 10
49.9483210716
 20
22.2107565651
 10
49.956107
 20
22.190386
 10
49.9632295193
 20
22.1698853169
 10
49.969724
 20
22.149177
 10
49.9756341358
 20
22.1281160307
 10
49.980909
 20
22.106887
 10
49.9855798498
 20
22.0853684184
 10
49.989607
 20
22.06372
 10
49.9929892438
 20
22.041923966
 10
49.995703
 20
22.020035
 10
49.997731342
 20
21.9981185152
 10
49.999089
 20
21.97615
 10
49.9997931859
 20
21.9539250598
 10
49.999839
 20
21.931689
 10
49.9992265606
 20
21.9092261548
 10
49.997953
 20
21.886791
 10
49.9960041859
 20
21.8642961123
 10
49.993373
 20
21.841871
 10
49.9900510112
 20
21.81954748
 10
49.986042
 20
21.797337
 10
49.9813352629
 20
21.7751651847
 10
49.975967
 20
21.753144
 10
49.9698872515
 20
21.7310427441
 10
49.96317
 20
21.709127
 10
49.9557202165
 20
21.6870963001
 10
49.947652
 20
21.665284
 10
49.9388300221
 20
21.6433255247
 10
49.929413
 20
21.621617
 10
47.096322
 20
15.450032
 10
45.605222
 20
12.212033
 10
39.809585
 20
13.778282
 10
33.185999
 20
15.576438
 10
23.250621
 20
18.284568
 10
21.594724
 20
18.736858
 10
21.5719898216
 20
18.7435679465
 10
21.549442
 20
18.750884
 10
21.5274861099
 20
18.758674857
 10
21.505755
 20
18.767071
 10
21.4845800457
 20
18.7759460304
 10
21.463666
 20
18.78542
 10
21.4432685946
 20
18.7953772822
 10
21.423173
 20
18.80593
 10
21.4034949863
 20
18.8170314573
 10
21.384163
 20
18.828725
 10
21.3651968361
 20
18.8410006729
 10
21.346606
 20
18.853838
 10
21.3284961204
 20
18.8671420633
 10
21.31078
 20
18.880966
 10
21.2936632223
 20
18.8951373727
 10
21.276968
 20
18.909803
 10
21.2608914578
 20
18.924793329
 10
21.245275
 20
18.940262
 10
21.2301223916
 20
18.9562220354
 10
21.21546
 20
18.972634
 10
21.2013282498
 20
18.9894315713
 10
21.1877
 20
19.00664
 10
21.1746849948
 20
19.0241122738
 10
21.162197
 20
19.041965
 10
21.1503575173
 20
19.0600254694
 10
21.139072
 20
19.078437
 10
21.1283153577
 20
19.0972574457
 10
21.118135
 20
19.116396
 10
21.1085205383
 20
19.13585673
 10
21.099494
 20
19.155597
 10
21.0910940404
 20
19.1755326376
 10
21.083306
 20
19.195715
 10
21.0761851656
 20
19.2160091945
 10
21.069689
 20
19.236512
 10
21.0637802445
 20
19.257345934
 10
21.058504
 20
19.278349
 10
21.0538341349
 20
19.299621534
 10
21.049806
 20
19.321025
 10
21.046424397
 20
19.3425575617
 10
21.04371
 20
19.364184
 10
21.0416819533
 20
19.3858231755
 10
21.040324
 20
19.407515
 10
21.0396198981
 20
19.4294448686
 10
21.039574
 20
19.451386
 10
21.0401863077
 20
19.473538046
 10
21.04146
 20
19.495662
 10
21.0434085909
 20
19.5178329219
 10
21.04604
 20
19.539933
 10
21.0493616889
 20
19.561922437
 10
21.053371
 20
19.583797
 10
21.0580775618
 20
19.6056235514
 10
21.063446
 20
19.627297
 10
21.0695256728
 20
19.6490423154
 10
21.076243
 20
19.670599
 10
21.0836928962
 20
19.6922615264
 10
21.091761
 20
19.713702
 10
21.1005835009
 20
19.7352814905
 10
21.11
 20
19.756607
 10
25.434191
 20
29.082047
  0
LWPOLYLINE
  5
4DE
330
219
100
AcDbEntity
  8
1
100
AcDbPolyline
 90
       44
 70
     0
 43
0.0
 10
1.5
 20
0.0
 10
1.4917828431
 20
-0.1567926949
 10
1.4672214011
 20
-0.3118675362
 10
1.4265847744
 20
-0.4635254916
 10
1.3703181865
 20
-0.6101049646
 10
1.2990381057
 20
-0.75
 10
1.2135254916
 20
-0.8816778784
 10
1.1147172382
 20
-1.0036959095
 10
1.0036959095
 20
-1.1147172382
 10
0.8816778784
 20
-1.2135254916
 10
0.75
 20
-1.2990381057
 10
0.6101049646
 20
-1.3703181865
 10
0.4635254916
 20
-1.4265847744
 10
0.3118675362
 20
-1.4672214011
 10
0.1567926949
 20
-1.4917828431
 10
-0.0000000000000003
 20
-1.5
 42
0.414213562373095
 10
1.5
 20
0.0
 42
0.414213562373095
 10
0.0000000000000001
 20
1.5
 42
0.414213562373095
 10
-1.5
 20
0.0000000000000002
 42
0.414213562373095
 10
0.0
 20
-1.5
 10
0.0
 20
0.0
 10
1.5
 20
0.0
 42
-0.414213562373095
 10
-0.0000000000000003
 20
-1.5
 10
0.0
 20
0.0
 10
0.0
 20
1.5
 10
-0.1567926949
 20
1.4917828431
 10
-0.3118675362
 20
1.4672214011
 10
-0.4635254916
 20
1.4265847744
 10
-0.6101049646
 20
1.3703181865
 10
-0.75
 20
1.2990381057
 10
-0.8816778784
 20
1.2135254916
 10
-1.0036959095
 20
1.1147172382
 10
-1.1147172382
 20
1.0036959095
 10
-1.2135254916
 20
0.8816778784
 10
-1.2990381057
 20
0.75
 10
-1.3703181865
 20
0.6101049646
 10
-1.4265847744
 20
0.4635254916
 10
-1.4672214011
 20
0.3118675362
 10
-1.4917828431
 20
0.1567926949
 10
-1.5
 20
0.0
 10
0.0
 20
0.0
 10
1.5
 20
0.0
 10
0.0
 20
0.0
 10
-1.5
 20
0.0
  0
LWPOLYLINE
  5
4DF
330
219
100
AcDbEntity
  8
1
100
AcDbPolyline
 90
        3
 70
     0
 43
0.0
 10
0.0
 20
1.5
 10
0.0
 20
0.0
 10
0.0
 20
-1.5
  0
ENDSEC
  0
SECTION
  2
OBJECTS
  0
DICTIONARY
  5
C
330
0
100
AcDbDictionary
281
     1
  3
ACAD_GROUP
350
D
  3
ACAD_LAYOUT
350
1A
  3
ACAD_MLEADERSTYLE
350
314
  3
ACAD_MLINESTYLE
350
17
  3
ACAD_PLOTSETTINGS
350
19
  3
ACAD_PLOTSTYLENAME
350
E
  3
ACAD_TABLESTYLE
350
313
  0
DICTIONARY
  5
D
102
{ACAD_REACTORS
330
C
102
}
330
C
100
AcDbDictionary
281
     1
  0
DICTIONARY
  5
1A
102
{ACAD_REACTORS
330
C
102
}
330
C
100
AcDbDictionary
281
     1
  3
Layout1
350
2FE
  3
Model
350
2FD
  0
DICTIONARY
  5
314
102
{ACAD_REACTORS
330
C
102
}
330
C
100
AcDbDictionary
281
     1
  0
DICTIONARY
  5
17
102
{ACAD_REACTORS
330
C
102
}
330
C
100
AcDbDictionary
281
     1
  3
Standard
350
18
  0
DICTIONARY
  5
19
102
{ACAD_REACTORS
330
C
102
}
330
C
100
AcDbDictionary
281
     1
  0
ACDBDICTIONARYWDFLT
  5
E
102
{ACAD_REACTORS
330
C
102
}
330
C
100
AcDbDictionary
281
     1
  3
Normal
350
F
100
AcDbDictionaryWithDefault
340
F
  0
DICTIONARY
  5
313
102
{ACAD_REACTORS
330
C
102
}
330
C
100
AcDbDictionary
281
     1
  0
LAYOUT
  5
2FE
102
{ACAD_REACTORS
330
1A
102
}
330
1A
100
AcDbPlotSettings
  1

  2
none_device
  4
ISO_A2_(594.00_x_420.00_MM)
  6

 40
0.0
 41
0.0
 42
0.0
 43
0.0
 44
594.0
 45
420.0
 46
0.0
 47
0.0
 48
0.0
 49
0.0
140
0.0
141
0.0
142
1.0
143
1.0
 70
     0
 72
     1
 73
     0
 74
     0
  7

 75
     0
147
1.0
148
0.0
149
0.0
100
AcDbLayout
  1
Layout1
 70
     0
 71
     1
 10
0.0
 20
0.0
 11
594.0
 21
420.0
 12
0.0
 22
0.0
 32
0.0
 14
0.0
 24
0.0
 34
0.0
 15
0.0
 25
0.0
 35
0.0
146
0.0
 13
0.0
 23
0.0
 33
0.0
 16
1.0
 26
0.0
 36
0.0
 17
0.0
 27
1.0
 37
0.0
 76
     0
330
21A
  0
LAYOUT
  5
2FD
102
{ACAD_REACTORS
330
1A
102
}
330
1A
100
AcDbPlotSettings
  1

  2
none_device
  4
ISO_A2_(594.00_x_420.00_MM)
  6

 40
0.0
 41
0.0
 42
0.0
 43
0.0
 44
594.0
 45
420.0
 46
0.0
 47
0.0
 48
0.0
 49
0.0
140
0.0
141
0.0
142
1.0
143
1.0
 70
  1024
 72
     1
 73
     0
 74
     0
  7

 75
     0
147
1.0
148
0.0
149
0.0
100
AcDbLayout
  1
Model
 70
     0
 71
     0
 10
0.0
 20
0.0
 11
594.0
 21
420.0
 12
0.0
 22
0.0
 32
0.0
 14
0.0
 24
0.0
 34
0.0
 15
0.0
 25
0.0
 35
0.0
146
0.0
 13
0.0
 23
0.0
 33
0.0
 16
1.0
 26
0.0
 36
0.0
 17
0.0
 27
1.0
 37
0.0
 76
     0
330
219
331
1F4
  0
MLINESTYLE
  5
18
102
{ACAD_REACTORS
330
17
102
}
330
17
100
AcDbMlineStyle
  2
STANDARD
 70
     0
  3

 62
   256
 51
90.0
 52
90.0
 71
     2
 49
0.5
 62
   256
  6
BYLAYER
 49
-0.5
 62
   256
  6
BYLAYER
  0
ACDBPLACEHOLDER
  5
F
102
{ACAD_REACTORS
330
E
102
}
330
E
  0
ENDSEC
  0
EOF
