  0
SECTION
  2
HEADER
  9
$ACADVER
  1
AC1015
  9
$ACADMAINTVER
 70
    20
  9
$DWGCODEPAGE
  3
ANSI_949
  9
$INSBASE
 10
0.0
 20
0.0
 30
0.0
  9
$EXTMIN
 10
-114.931303263329
 20
-101.0885366144973
 30
-0.0015258207003583
  9
$EXTMAX
 10
65.84498703857526
 20
47.84528754425742
 30
0.0000000349246037
  9
$LIMMIN
 10
-170.0
 20
-170.0
  9
$LIMMAX
 10
519.0
 20
260.0
  9
$ORTHOMODE
 70
     0
  9
$REGENMODE
 70
     1
  9
$FILLMODE
 70
     1
  9
$QTEXTMODE
 70
     0
  9
$MIRRTEXT
 70
     0
  9
$LTSCALE
 40
1.0
  9
$ATTMODE
 70
     1
  9
$TEXTSIZE
 40
5.0
  9
$TRACEWID
 40
1.0
  9
$TEXTSTYLE
  7
STANDARD
  9
$CLAYER
  8
2
  9
$CELTYPE
  6
BYLAYER
  9
$CECOLOR
 62
   256
  9
$CELTSCALE
 40
1.0
  9
$DISPSILH
 70
     0
  9
$DIMSCALE
 40
1.0
  9
$DIMASZ
 40
2.5
  9
$DIMEXO
 40
0.0
  9
$DIMDLI
 40
3.75
  9
$DIMRND
 40
0.0
  9
$DIMDLE
 40
0.0
  9
$DIMEXE
 40
1.25
  9
$DIMTP
 40
0.0
  9
$DIMTM
 40
0.0
  9
$DIMTXT
 40
3.5
  9
$DIMCEN
 40
0.0
  9
$DIMTSZ
 40
0.0
  9
$DIMTOL
 70
     0
  9
$DIMLIM
 70
     0
  9
$DIMTIH
 70
     0
  9
$DIMTOH
 70
     0
  9
$DIMSE1
 70
     0
  9
$DIMSE2
 70
     0
  9
$DIMTAD
 70
     1
  9
$DIMZIN
 70
     8
  9
$DIMBLK
  1

  9
$DIMASO
 70
     1
  9
$DIMSHO
 70
     1
  9
$DIMPOST
  1

  9
$DIMAPOST
  1

  9
$DIMALT
 70
     0
  9
$DIMALTD
 70
     3
  9
$DIMALTF
 40
0.039370078
  9
$DIMLFAC
 40
1.0
  9
$DIMTOFL
 70
     1
  9
$DIMTVP
 40
0.0
  9
$DIMTIX
 70
     0
  9
$DIMSOXD
 70
     0
  9
$DIMSAH
 70
     0
  9
$DIMBLK1
  1

  9
$DIMBLK2
  1

  9
$DIMSTYLE
  2
STANDARD
  9
$DIMCLRD
 70
     0
  9
$DIMCLRE
 70
     0
  9
$DIMCLRT
 70
     0
  9
$DIMTFAC
 40
1.0
  9
$DIMGAP
 40
0.625
  9
$DIMJUST
 70
     0
  9
$DIMSD1
 70
     0
  9
$DIMSD2
 70
     0
  9
$DIMTOLJ
 70
     0
  9
$DIMTZIN
 70
     8
  9
$DIMALTZ
 70
     0
  9
$DIMALTTZ
 70
     0
  9
$DIMUPT
 70
     0
  9
$DIMDEC
 70
     2
  9
$DIMTDEC
 70
     2
  9
$DIMALTU
 70
     2
  9
$DIMALTTD
 70
     3
  9
$DIMTXSTY
  7
STANDARD
  9
$DIMAUNIT
 70
     0
  9
$DIMADEC
 70
     2
  9
$DIMALTRND
 40
0.0
  9
$DIMAZIN
 70
     2
  9
$DIMDSEP
 70
    46
  9
$DIMATFIT
 70
     3
  9
$DIMFRAC
 70
     0
  9
$DIMLDRBLK
  1

  9
$DIMLUNIT
 70
     2
  9
$DIMLWD
 70
    -2
  9
$DIMLWE
 70
    -2
  9
$DIMTMOVE
 70
     0
  9
$LUNITS
 70
     2
  9
$LUPREC
 70
     4
  9
$SKETCHINC
 40
1.0
  9
$FILLETRAD
 40
0.0
  9
$AUNITS
 70
     0
  9
$AUPREC
 70
     0
  9
$MENU
  1
c:\tdm21\cad\caduti13\tdm13
  9
$ELEVATION
 40
0.0
  9
$PELEVATION
 40
0.0
  9
$THICKNESS
 40
0.0
  9
$LIMCHECK
 70
     0
  9
$CHAMFERA
 40
0.0
  9
$CHAMFERB
 40
0.0
  9
$CHAMFERC
 40
0.0
  9
$CHAMFERD
 40
0.0
  9
$SKPOLY
 70
     0
  9
$TDCREATE
 40
2455296.745974386
  9
$TDUCREATE
 40
2455296.370974387
  9
$TDUPDATE
 40
2457612.565293842
  9
$TDUUPDATE
 40
2457612.190293843
  9
$TDINDWG
 40
1.9715328819
  9
$TDUSRTIMER
 40
1.9715307176
  9
$USRTIMER
 70
     1
  9
$ANGBASE
 50
0.0
  9
$ANGDIR
 70
     0
  9
$PDMODE
 70
     0
  9
$PDSIZE
 40
0.0
  9
$PLINEWID
 40
0.0
  9
$SPLFRAME
 70
     0
  9
$SPLINETYPE
 70
     6
  9
$SPLINESEGS
 70
     8
  9
$HANDSEED
  5
12D36
  9
$SURFTAB1
 70
     6
  9
$SURFTAB2
 70
     6
  9
$SURFTYPE
 70
     6
  9
$SURFU
 70
     6
  9
$SURFV
 70
     6
  9
$UCSBASE
  2

  9
$UCSNAME
  2

  9
$UCSORG
 10
0.0
 20
0.0
 30
0.0
  9
$UCSXDIR
 10
1.0
 20
0.0
 30
0.0
  9
$UCSYDIR
 10
0.0
 20
1.0
 30
0.0
  9
$UCSORTHOREF
  2

  9
$UCSORTHOVIEW
 70
     0
  9
$UCSORGTOP
 10
0.0
 20
0.0
 30
0.0
  9
$UCSORGBOTTOM
 10
0.0
 20
0.0
 30
0.0
  9
$UCSORGLEFT
 10
0.0
 20
0.0
 30
0.0
  9
$UCSORGRIGHT
 10
0.0
 20
0.0
 30
0.0
  9
$UCSORGFRONT
 10
0.0
 20
0.0
 30
0.0
  9
$UCSORGBACK
 10
0.0
 20
0.0
 30
0.0
  9
$PUCSBASE
  2

  9
$PUCSNAME
  2

  9
$PUCSORG
 10
0.0
 20
0.0
 30
0.0
  9
$PUCSXDIR
 10
1.0
 20
0.0
 30
0.0
  9
$PUCSYDIR
 10
0.0
 20
1.0
 30
0.0
  9
$PUCSORTHOREF
  2

  9
$PUCSORTHOVIEW
 70
     0
  9
$PUCSORGTOP
 10
0.0
 20
0.0
 30
0.0
  9
$PUCSORGBOTTOM
 10
0.0
 20
0.0
 30
0.0
  9
$PUCSORGLEFT
 10
0.0
 20
0.0
 30
0.0
  9
$PUCSORGRIGHT
 10
0.0
 20
0.0
 30
0.0
  9
$PUCSORGFRONT
 10
0.0
 20
0.0
 30
0.0
  9
$PUCSORGBACK
 10
0.0
 20
0.0
 30
0.0
  9
$USERI1
 70
     0
  9
$USERI2
 70
     0
  9
$USERI3
 70
     0
  9
$USERI4
 70
     0
  9
$USERI5
 70
     0
  9
$USERR1
 40
0.0
  9
$USERR2
 40
0.0
  9
$USERR3
 40
0.0
  9
$USERR4
 40
0.0
  9
$USERR5
 40
0.0
  9
$WORLDVIEW
 70
     1
  9
$SHADEDGE
 70
     3
  9
$SHADEDIF
 70
    70
  9
$TILEMODE
 70
     1
  9
$MAXACTVP
 70
    64
  9
$PINSBASE
 10
0.0
 20
0.0
 30
0.0
  9
$PLIMCHECK
 70
     0
  9
$PEXTMIN
 10
0.0
 20
0.0
 30
0.0
  9
$PEXTMAX
 10
0.0
 20
0.0
 30
0.0
  9
$PLIMMIN
 10
0.0
 20
0.0
  9
$PLIMMAX
 10
12.0
 20
9.0
  9
$UNITMODE
 70
     0
  9
$VISRETAIN
 70
     0
  9
$PLINEGEN
 70
     0
  9
$PSLTSCALE
 70
     1
  9
$TREEDEPTH
 70
  3020
  9
$CMLSTYLE
  2
STANDARD
  9
$CMLJUST
 70
     0
  9
$CMLSCALE
 40
20.0
  9
$PROXYGRAPHICS
 70
     1
  9
$MEASUREMENT
 70
     1
  9
$CELWEIGHT
370
    -1
  9
$ENDCAPS
280
     0
  9
$JOINSTYLE
280
     0
  9
$LWDISPLAY
290
     0
  9
$INSUNITS
 70
     4
  9
$HYPERLINKBASE
  1

  9
$STYLESHEET
  1
MONOCHROME.CTB
  9
$XEDIT
290
     1
  9
$CEPSNTYPE
380
     0
  9
$PSTYLEMODE
290
     1
  9
$FINGERPRINTGUID
  2
{FFB8C8EB-D02A-4238-A6B1-145454AF2DD3}
  9
$VERSIONGUID
  2
{ED3F01EE-17BD-42EF-BD08-6E48B6D00A05}
  9
$EXTNAMES
290
     1
  9
$PSVPSCALE
 40
0.0
  9
$OLESTARTUP
290
     0
  0
ENDSEC
  0
SECTION
  2
CLASSES
  0
CLASS
  1
ACDBDICTIONARYWDFLT
  2
AcDbDictionaryWithDefault
  3
ObjectDBX Classes
 90
        0
280
     0
281
     0
  0
CLASS
  1
DICTIONARYVAR
  2
AcDbDictionaryVar
  3
ObjectDBX Classes
 90
        0
280
     0
281
     0
  0
CLASS
  1
TABLESTYLE
  2
AcDbTableStyle
  3
ObjectDBX Classes
 90
     4095
280
     0
281
     0
  0
CLASS
  1
MATERIAL
  2
AcDbMaterial
  3
ObjectDBX Classes
 90
     1153
280
     0
281
     0
  0
CLASS
  1
VISUALSTYLE
  2
AcDbVisualStyle
  3
ObjectDBX Classes
 90
     4095
280
     0
281
     0
  0
CLASS
  1
SCALE
  2
AcDbScale
  3
ObjectDBX Classes
 90
     1153
280
     0
281
     0
  0
CLASS
  1
MLEADERSTYLE
  2
AcDbMLeaderStyle
  3
ACDB_MLEADERSTYLE_CLASS
 90
     4095
280
     0
281
     0
  0
CLASS
  1
CELLSTYLEMAP
  2
AcDbCellStyleMap
  3
ObjectDBX Classes
 90
     1152
280
     0
281
     0
  0
CLASS
  1
DIMASSOC
  2
AcDbDimAssoc
  3
"AcDbDimAssoc|Product Desc:     AcDim ARX App For Dimension|Company:          Autodesk, Inc.|WEB Address:      www.autodesk.com"
 90
        0
280
     0
281
     0
  0
CLASS
  1
SORTENTSTABLE
  2
AcDbSortentsTable
  3
ObjectDBX Classes
 90
        0
280
     0
281
     0
  0
CLASS
  1
WIPEOUT
  2
AcDbWipeout
  3
"WipeOut|Product Desc: Object Enabler for WipeOut entity                        |Company: Autodesk, Inc.                        |WEB Address: www.autodesk.com"
 90
    34943
280
     0
281
     1
  0
CLASS
  1
WIPEOUTVARIABLES
  2
AcDbWipeoutVariables
  3
"WipeOut|Product Desc:     WipeOut Dbx Application|Company:          Autodesk, Inc.|WEB Address:      www.autodesk.com"
 90
        0
280
     0
281
     0
  0
CLASS
  1
AEC_REFEDIT_STATUS_TRACKER
  2
AecDbRefEditStatusTracker
  3
AecArchBase60|Product Desc: Autodesk Architectural Desktop 2007 |Company: Autodesk,Inc. |WEB Address: www.autodesk.com
 90
    32897
280
     0
281
     0
  0
CLASS
  1
NPOCOLLECTION
  2
AcDbImpNonPersistentObjectsCollection
  3
ObjectDBX Classes
 90
    33921
280
     0
281
     0
  0
CLASS
  1
ACDBPLACEHOLDER
  2
AcDbPlaceHolder
  3
ObjectDBX Classes
 90
        0
280
     0
281
     0
  0
CLASS
  1
LAYOUT
  2
AcDbLayout
  3
ObjectDBX Classes
 90
        0
280
     0
281
     0
  0
CLASS
  1
SOLID_BACKGROUND
  2
AcDbSolidBackground
  3
SCENEOE
 90
    36863
280
     0
281
     0
  0
ENDSEC
  0
SECTION
  2
TABLES
  0
TABLE
  2
VPORT
  5
8
102
{ACAD_XDICTIONARY
360
2C07
102
}
330
0
100
AcDbSymbolTable
 70
     1
  0
VPORT
  5
2BF9
330
8
100
AcDbSymbolTableRecord
100
AcDbViewportTableRecord
  2
*Active
 70
     0
 10
0.0
 20
0.0
 11
1.0
 21
1.0
 12
300.4028545466152
 22
-181.8672693622626
 13
0.0
 23
0.0
 14
5.0
 24
5.0
 15
5.0
 25
5.0
 16
0.0
 26
0.0
 36
4.675706334103843
 17
-324.9460126589921
 27
155.2456448271427
 37
0.0
 40
158.6326792652497
 41
1.1468788249694
 42
50.0
 43
0.0
 44
0.0
 50
0.0
 51
0.0
 71
     0
 72
  2000
 73
     1
 74
     3
 75
     0
 76
     0
 77
     0
 78
     0
281
     0
 65
     1
110
0.0
120
0.0
130
0.0
111
1.0
121
0.0
131
0.0
112
0.0
122
1.0
132
0.0
 79
     0
146
0.0
  0
ENDTAB
  0
TABLE
  2
LTYPE
  5
5
330
0
100
AcDbSymbolTable
 70
     7
  0
LTYPE
  5
12
330
5
100
AcDbSymbolTableRecord
100
AcDbLinetypeTableRecord
  2
BYBLOCK
 70
     0
  3

 72
    65
 73
     0
 40
0.0
  0
LTYPE
  5
13
330
5
100
AcDbSymbolTableRecord
100
AcDbLinetypeTableRecord
  2
BYLAYER
 70
     0
  3

 72
    65
 73
     0
 40
0.0
  0
LTYPE
  5
14
330
5
100
AcDbSymbolTableRecord
100
AcDbLinetypeTableRecord
  2
CONTINUOUS
 70
     0
  3
Solid line
 72
    65
 73
     0
 40
0.0
  0
LTYPE
  5
7CF1
330
5
100
AcDbSymbolTableRecord
100
AcDbLinetypeTableRecord
  2
CENTER2
 70
     0
  3
Center (.5x) ___ _ ___ _ ___ _ ___ _ ___ _ ___
 72
    65
 73
     4
 40
28.575
 49
19.05
 74
     0
 49
-3.174999999999998
 74
     0
 49
3.174999999999998
 74
     0
 49
-3.174999999999998
 74
     0
  0
LTYPE
  5
12A26
330
5
100
AcDbSymbolTableRecord
100
AcDbLinetypeTableRecord
  2
DASHDOT
 70
     0
  3
 __ . __ . __ . __ . __ . __ . __ . 
 72
    65
 73
     4
 40
18.5
 49
12.0
 74
     0
 49
-3.0
 74
     0
 49
0.5
 74
     0
 49
-3.0
 74
     0
  0
LTYPE
  5
12BF7
330
5
100
AcDbSymbolTableRecord
100
AcDbLinetypeTableRecord
  2
HIDDEN
 70
     0
  3
Hidden __ __ __ __ __ __ __ __ __ __ __ __ __ __
 72
    65
 73
     2
 40
9.524999999999998
 49
6.349999999999999
 74
     0
 49
-3.174999999999999
 74
     0
  0
LTYPE
  5
12BF8
330
5
100
AcDbSymbolTableRecord
100
AcDbLinetypeTableRecord
  2
HIDDENX2
 70
     0
  3
Hidden (2x) ____ ____ ____ ____ ____ ____ ____
 72
    65
 73
     2
 40
19.05
 49
12.7
 74
     0
 49
-6.349999999999999
 74
     0
  0
ENDTAB
  0
TABLE
  2
LAYER
  5
2
102
{ACAD_XDICTIONARY
360
451
102
}
330
0
100
AcDbSymbolTable
 70
    13
  0
LAYER
  5
F
102
{ACAD_XDICTIONARY
360
F62
102
}
330
2
100
AcDbSymbolTableRecord
100
AcDbLayerTableRecord
  2
0
 70
     0
 62
     7
  6
CONTINUOUS
370
    -3
390
300
  0
LAYER
  5
23
102
{ACAD_XDICTIONARY
360
F64
102
}
330
2
100
AcDbSymbolTableRecord
100
AcDbLayerTableRecord
  2
1
 70
     0
 62
     4
  6
CONTINUOUS
370
    50
390
300
  0
LAYER
  5
25
102
{ACAD_XDICTIONARY
360
F66
102
}
330
2
100
AcDbSymbolTableRecord
100
AcDbLayerTableRecord
  2
2
 70
     0
 62
     7
  6
CONTINUOUS
370
    25
390
300
  0
LAYER
  5
2E
102
{ACAD_XDICTIONARY
360
F70
102
}
330
2
100
AcDbSymbolTableRecord
100
AcDbLayerTableRecord
  2
SK6
 70
     0
 62
     5
  6
CONTINUOUS
370
    -3
390
300
  0
LAYER
  5
49B
102
{ACAD_XDICTIONARY
360
F78
102
}
330
2
100
AcDbSymbolTableRecord
100
AcDbLayerTableRecord
  2
INFTOTAL
 70
     0
 62
     9
  6
CONTINUOUS
370
    18
390
300
1001
AcAecLayerStandard
1000

1000

  0
LAYER
  5
5F84
330
2
100
AcDbSymbolTableRecord
100
AcDbLayerTableRecord
  2
DEFPOINTS
 70
     0
 62
     7
  6
CONTINUOUS
290
     0
370
    25
390
300
  0
LAYER
  5
F5A3
102
{ACAD_XDICTIONARY
360
F5A4
102
}
330
2
100
AcDbSymbolTableRecord
100
AcDbLayerTableRecord
  2
SKVIEW1
 70
     0
 62
     4
  6
CONTINUOUS
370
    50
390
300
1001
AcAecLayerStandard
1000

1000

  0
LAYER
  5
10476
330
2
100
AcDbSymbolTableRecord
100
AcDbLayerTableRecord
  2
INSERT
 70
     0
 62
     4
  6
CONTINUOUS
370
    50
390
300
1001
AcAecLayerStandard
1000

1000

  0
LAYER
  5
10477
330
2
100
AcDbSymbolTableRecord
100
AcDbLayerTableRecord
  2
SK2
 70
     0
 62
     7
  6
CONTINUOUS
370
    25
390
300
1001
AcAecLayerStandard
1000

1000

  0
LAYER
  5
124B5
330
2
100
AcDbSymbolTableRecord
100
AcDbLayerTableRecord
  2
SK1
 70
     0
 62
     4
  6
CONTINUOUS
370
    50
390
300
1001
AcAecLayerStandard
1000

1000

  0
LAYER
  5
12563
330
2
100
AcDbSymbolTableRecord
100
AcDbLayerTableRecord
  2
SKVIEWINSERT
 70
     0
 62
     4
  6
CONTINUOUS
370
    50
390
300
1001
AcAecLayerStandard
1000

1000

  0
LAYER
  5
12BF4
330
2
100
AcDbSymbolTableRecord
100
AcDbLayerTableRecord
  2
3
 70
     0
 62
     1
  6
CONTINUOUS
370
    50
390
300
1001
AcAecLayerStandard
1000

1000

  0
LAYER
  5
12C5F
330
2
100
AcDbSymbolTableRecord
100
AcDbLayerTableRecord
  2
SKVIEW2
 70
     0
 62
     7
  6
CONTINUOUS
370
    50
390
300
1001
AcAecLayerStandard
1000

1000

  0
ENDTAB
  0
TABLE
  2
STYLE
  5
3
330
0
100
AcDbSymbolTable
 70
     2
  0
STYLE
  5
10
330
3
100
AcDbSymbolTableRecord
100
AcDbTextStyleTableRecord
  2
STANDARD
 70
     0
 40
0.0
 41
1.0
 50
0.0
 71
     0
 42
5.0
  3
monos.ttf
  4

1001
ACAD
1000
Monospac821 BT
1071
       49
  0
STYLE
  5
12BF6
330
3
100
AcDbSymbolTableRecord
100
AcDbTextStyleTableRecord
  2

 70
     1
 40
0.0
 41
1.0
 50
0.0
 71
     0
 42
5.0
  3
ltypeshp.shx
  4

  0
ENDTAB
  0
TABLE
  2
VIEW
  5
6
330
0
100
AcDbSymbolTable
 70
     0
  0
ENDTAB
  0
TABLE
  2
UCS
  5
7
330
0
100
AcDbSymbolTable
 70
     0
  0
ENDTAB
  0
TABLE
  2
APPID
  5
9
330
0
100
AcDbSymbolTable
 70
    20
  0
APPID
  5
11
330
9
100
AcDbSymbolTableRecord
100
AcDbRegAppTableRecord
  2
ACAD
 70
     0
  0
APPID
  5
3A6
330
9
100
AcDbSymbolTableRecord
100
AcDbRegAppTableRecord
  2
ACAD_PSEXT
 70
     0
  0
APPID
  5
3A8
330
9
100
AcDbSymbolTableRecord
100
AcDbRegAppTableRecord
  2
ACAD_EXEMPT_FROM_CAD_STANDARDS
 70
     0
  0
APPID
  5
43E
330
9
100
AcDbSymbolTableRecord
100
AcDbRegAppTableRecord
  2
ACAD_MLEADERVER
 70
     0
  0
APPID
  5
460
330
9
100
AcDbSymbolTableRecord
100
AcDbRegAppTableRecord
  2
ACAD_DSTYLE_DIMJAG
 70
     0
  0
APPID
  5
461
330
9
100
AcDbSymbolTableRecord
100
AcDbRegAppTableRecord
  2
ACAD_DSTYLE_DIMBREAK
 70
     0
  0
APPID
  5
462
330
9
100
AcDbSymbolTableRecord
100
AcDbRegAppTableRecord
  2
ACAD_DSTYLE_DIMTALN
 70
     0
  0
APPID
  5
47A
330
9
100
AcDbSymbolTableRecord
100
AcDbRegAppTableRecord
  2
AcAecLayerStandard
 70
     0
  0
APPID
  5
4AB
330
9
100
AcDbSymbolTableRecord
100
AcDbRegAppTableRecord
  2
DCO15
 70
     0
  0
APPID
  5
4B9
330
9
100
AcDbSymbolTableRecord
100
AcDbRegAppTableRecord
  2
AcadAnnoPO
 70
     0
  0
APPID
  5
55F
330
9
100
AcDbSymbolTableRecord
100
AcDbRegAppTableRecord
  2
ACAD_DSTYLE_DIMRADIAL_EXTENSION
 70
     0
  0
APPID
  5
FB2
330
9
100
AcDbSymbolTableRecord
100
AcDbRegAppTableRecord
  2
ACAD_DSTYLE_DIMTEXT_FILL
 70
     0
  0
APPID
  5
FB3
330
9
100
AcDbSymbolTableRecord
100
AcDbRegAppTableRecord
  2
ACAD_DSTYLE_DIMEXT_LENGTH
 70
     0
  0
APPID
  5
FB4
330
9
100
AcDbSymbolTableRecord
100
AcDbRegAppTableRecord
  2
ACAD_DSTYLE_DIMEXT_ENABLED
 70
     0
  0
APPID
  5
FB5
330
9
100
AcDbSymbolTableRecord
100
AcDbRegAppTableRecord
  2
ACAD_DSTYLE_DIM_LINETYPE
 70
     0
  0
APPID
  5
FB6
330
9
100
AcDbSymbolTableRecord
100
AcDbRegAppTableRecord
  2
ACAD_DSTYLE_DIM_EXT1_LINETYPE
 70
     0
  0
APPID
  5
FB7
330
9
100
AcDbSymbolTableRecord
100
AcDbRegAppTableRecord
  2
ACAD_DSTYLE_DIM_EXT2_LINETYPE
 70
     0
  0
APPID
  5
1BDB
330
9
100
AcDbSymbolTableRecord
100
AcDbRegAppTableRecord
  2
ACAD_DSTYLE_DIMJOGGED_JOGANGLE_SYMBOL
 70
     0
  0
APPID
  5
1E51
330
9
100
AcDbSymbolTableRecord
100
AcDbRegAppTableRecord
  2
ACAD_DSTYLE_DIMARC_LENGTH_SYMBOL
 70
     0
  0
APPID
  5
44BD
330
9
100
AcDbSymbolTableRecord
100
AcDbRegAppTableRecord
  2
AcLayerTools
 70
     0
  0
ENDTAB
  0
TABLE
  2
DIMSTYLE
  5
A
330
0
100
AcDbSymbolTable
 70
     2
100
AcDbDimStyleTable
 71
     1
340
3F
  0
DIMSTYLE
105
3F
102
{ACAD_REACTORS
330
12C35
330
12C6B
330
12C8C
330
12CA4
330
12CBC
330
12CD4
102
}
330
A
100
AcDbSymbolTableRecord
100
AcDbDimStyleTableRecord
  2
STANDARD
 70
     0
 41
2.5
 42
0.0
 43
3.75
 44
1.25
 73
     0
 74
     0
 77
     1
 78
     8
 79
     2
140
3.5
141
0.0
143
0.039370078
147
0.625
171
     3
172
     1
179
     2
271
     2
272
     2
274
     3
283
     0
284
     8
340
10
1001
ACAD_DSTYLE_DIMJAG
1070
   388
1040
1.5
1001
ACAD_DSTYLE_DIMTALN
1070
   392
1070
     0
  0
ENDTAB
  0
TABLE
  2
BLOCK_RECORD
  5
1
330
0
100
AcDbSymbolTable
 70
    27
  0
BLOCK_RECORD
  5
18
102
{ACAD_XDICTIONARY
360
1057
102
}
330
1
100
AcDbSymbolTableRecord
100
AcDbBlockTableRecord
  2
*MODEL_SPACE
340
303
  0
BLOCK_RECORD
  5
338
330
1
100
AcDbSymbolTableRecord
100
AcDbBlockTableRecord
  2
*Paper_Space
340
33B
  0
BLOCK_RECORD
  5
120AC
330
1
100
AcDbSymbolTableRecord
100
AcDbBlockTableRecord
  2
*D0
340
0
  0
BLOCK_RECORD
  5
120B8
330
1
100
AcDbSymbolTableRecord
100
AcDbBlockTableRecord
  2
*D1
340
0
  0
BLOCK_RECORD
  5
120C6
330
1
100
AcDbSymbolTableRecord
100
AcDbBlockTableRecord
  2
*D2
340
0
  0
BLOCK_RECORD
  5
120DB
330
1
100
AcDbSymbolTableRecord
100
AcDbBlockTableRecord
  2
*D3
340
0
  0
BLOCK_RECORD
  5
120E7
330
1
100
AcDbSymbolTableRecord
100
AcDbBlockTableRecord
  2
*D4
340
0
  0
BLOCK_RECORD
  5
125C4
330
1
100
AcDbSymbolTableRecord
100
AcDbBlockTableRecord
  2
*D5
340
0
  0
BLOCK_RECORD
  5
125D1
330
1
100
AcDbSymbolTableRecord
100
AcDbBlockTableRecord
  2
*D6
340
0
  0
BLOCK_RECORD
  5
125DF
330
1
100
AcDbSymbolTableRecord
100
AcDbBlockTableRecord
  2
*D7
340
0
  0
BLOCK_RECORD
  5
125EB
330
1
100
AcDbSymbolTableRecord
100
AcDbBlockTableRecord
  2
*D8
340
0
  0
BLOCK_RECORD
  5
125F7
330
1
100
AcDbSymbolTableRecord
100
AcDbBlockTableRecord
  2
*D9
340
0
  0
BLOCK_RECORD
  5
12835
330
1
100
AcDbSymbolTableRecord
100
AcDbBlockTableRecord
  2
*D11
340
0
  0
BLOCK_RECORD
  5
12841
330
1
100
AcDbSymbolTableRecord
100
AcDbBlockTableRecord
  2
*D12
340
0
  0
BLOCK_RECORD
  5
1284E
330
1
100
AcDbSymbolTableRecord
100
AcDbBlockTableRecord
  2
*D13
340
0
  0
BLOCK_RECORD
  5
1285A
330
1
100
AcDbSymbolTableRecord
100
AcDbBlockTableRecord
  2
*D14
340
0
  0
BLOCK_RECORD
  5
12866
330
1
100
AcDbSymbolTableRecord
100
AcDbBlockTableRecord
  2
*D15
340
0
  0
BLOCK_RECORD
  5
12899
330
1
100
AcDbSymbolTableRecord
100
AcDbBlockTableRecord
  2
BLOCK1
340
0
102
{BLKREFS
331
12A29
102
}
  0
BLOCK_RECORD
  5
1289F
330
1
100
AcDbSymbolTableRecord
100
AcDbBlockTableRecord
  2
BLOCK2
340
0
102
{BLKREFS
331
12A2A
102
}
  0
BLOCK_RECORD
  5
12963
330
1
100
AcDbSymbolTableRecord
100
AcDbBlockTableRecord
  2
BLOCK4
340
0
102
{BLKREFS
331
12A2B
102
}
  0
BLOCK_RECORD
  5
12C36
330
1
100
AcDbSymbolTableRecord
100
AcDbBlockTableRecord
  2
*D21
340
0
  0
BLOCK_RECORD
  5
12C6C
330
1
100
AcDbSymbolTableRecord
100
AcDbBlockTableRecord
  2
*D22
340
0
  0
BLOCK_RECORD
  5
12C8D
330
1
100
AcDbSymbolTableRecord
100
AcDbBlockTableRecord
  2
*D23
340
0
  0
BLOCK_RECORD
  5
12CA5
330
1
100
AcDbSymbolTableRecord
100
AcDbBlockTableRecord
  2
*D24
340
0
  0
BLOCK_RECORD
  5
12CBD
330
1
100
AcDbSymbolTableRecord
100
AcDbBlockTableRecord
  2
*D25
340
0
  0
BLOCK_RECORD
  5
12CD5
330
1
100
AcDbSymbolTableRecord
100
AcDbBlockTableRecord
  2
*D26
340
0
  0
ENDTAB
  0
ENDSEC
  0
SECTION
  2
BLOCKS
  0
BLOCK
  5
32
330
18
100
AcDbEntity
  8
0
100
AcDbBlockBegin
  2
*MODEL_SPACE
 70
     0
 10
0.0
 20
0.0
 30
0.0
  3
*MODEL_SPACE
  1

  0
ENDBLK
  5
33
330
18
100
AcDbEntity
  8
0
100
AcDbBlockEnd
  0
BLOCK
  5
339
330
338
100
AcDbEntity
 67
     1
  8
0
100
AcDbBlockBegin
  2
*Paper_Space
 70
     0
 10
0.0
 20
0.0
 30
0.0
  3
*Paper_Space
  1

  0
ENDBLK
  5
33A
330
338
100
AcDbEntity
 67
     1
  8
0
100
AcDbBlockEnd
  0
BLOCK
  5
120AD
330
120AC
100
AcDbEntity
  8
0
100
AcDbBlockBegin
  2
*D0
 70
     1
 10
0.0
 20
0.0
 30
0.0
  3
*D0
  1

  0
LINE
  5
1251D
330
120AC
100
AcDbEntity
  8
2
 62
     0
370
    -2
100
AcDbLine
 10
19.5
 20
-2.365360546112007
 30
0.0
 11
19.5
 21
13.38386271389126
 31
0.0
  0
LINE
  5
1251E
330
120AC
100
AcDbEntity
  8
2
 62
     0
370
    -2
100
AcDbLine
 10
29.50006387580589
 20
-2.365776888516712
 30
0.0
 11
29.50006387580589
 21
13.38386271389126
 31
0.0
  0
LINE
  5
1251F
330
120AC
100
AcDbEntity
  8
2
 62
     0
370
    -2
100
AcDbLine
 10
22.0
 20
12.13386271389126
 30
0.0
 11
27.00006387580589
 21
12.13386271389126
 31
0.0
  0
LINE
  5
12520
330
120AC
100
AcDbEntity
  8
2
 62
     0
370
    -2
100
AcDbLine
 10
29.50006387580589
 20
12.13386271389126
 30
0.0
 11
53.94999360173702
 21
12.13386271389126
 31
0.0
  0
SOLID
  5
12521
330
120AC
100
AcDbEntity
  8
2
 62
     0
100
AcDbTrace
 10
22.0
 20
12.55052938055793
 30
0.0
 11
22.0
 21
11.71719604722459
 31
0.0
 12
19.5
 22
12.13386271389126
 32
0.0
 13
19.5
 23
12.13386271389126
 33
0.0
  0
SOLID
  5
12522
330
120AC
100
AcDbEntity
  8
2
 62
     0
100
AcDbTrace
 10
27.00006387580589
 20
12.55052938055793
 30
0.0
 11
27.00006387580589
 21
11.71719604722459
 31
0.0
 12
29.50006387580589
 22
12.13386271389126
 32
0.0
 13
29.50006387580589
 23
12.13386271389126
 33
0.0
  0
MTEXT
  5
12523
330
120AC
100
AcDbEntity
  8
2
 62
     0
370
    -2
100
AcDbMText
 10
42.97502873877145
 20
14.57035252415127
 30
0.0
 40
3.5
 41
0.0
 71
     5
 72
     1
  1
Tmax=10
 73
     1
 44
1.0
1001
ACAD
1000
MTEXTBEGIN
1070
    73
1070
     1
1070
    44
1040
1.0
1070
    74
1070
     0
1000
MTEXTEND
  0
POINT
  5
12524
330
120AC
100
AcDbEntity
  8
DEFPOINTS
 62
     0
100
AcDbPoint
 10
19.5
 20
-2.365360546112007
 30
0.0
  0
POINT
  5
12525
330
120AC
100
AcDbEntity
  8
DEFPOINTS
 62
     0
100
AcDbPoint
 10
29.50006387580589
 20
-2.365776888516712
 30
0.0
  0
POINT
  5
12526
330
120AC
100
AcDbEntity
  8
DEFPOINTS
 62
     0
100
AcDbPoint
 10
29.50006387580589
 20
12.13386271389126
 30
0.0
  0
ENDBLK
  5
120AE
330
120AC
100
AcDbEntity
  8
0
100
AcDbBlockEnd
  0
BLOCK
  5
120B9
330
120B8
100
AcDbEntity
  8
0
100
AcDbBlockBegin
  2
*D1
 70
     1
 10
0.0
 20
0.0
 30
0.0
  3
*D1
  1

  0
LINE
  5
1247B
330
120B8
100
AcDbEntity
  8
2
 62
     0
370
    -2
100
AcDbLine
 10
29.08267851813969
 20
-2.398933157283586
 30
0.0
 11
38.08176136664668
 21
-2.398933157283587
 31
0.0
  0
LINE
  5
1247C
330
120B8
100
AcDbEntity
  8
2
 62
     0
370
    -2
100
AcDbLine
 10
29.08267851813969
 20
-5.401070744443508
 30
0.0
 11
38.08176136664668
 21
-5.401070744443511
 31
0.0
  0
LINE
  5
1247D
330
120B8
100
AcDbEntity
  8
2
 62
     0
370
    -2
100
AcDbLine
 10
36.83176136664668
 20
0.1010668427164115
 30
0.0
 11
36.83176136664668
 21
2.601066842716411
 31
0.0
  0
LINE
  5
1247E
330
120B8
100
AcDbEntity
  8
2
 62
     0
370
    -2
100
AcDbLine
 10
36.83176136664668
 20
-7.901070744443511
 30
0.0
 11
36.83176136664668
 21
-14.09590560038167
 31
0.0
  0
LINE
  5
1247F
330
120B8
100
AcDbEntity
  8
2
 62
     0
370
    -2
100
AcDbLine
 10
36.83176136664668
 20
-2.398933157283587
 30
0.0
 11
36.83176136664668
 21
-5.401070744443511
 31
0.0
  0
SOLID
  5
12480
330
120B8
100
AcDbEntity
  8
2
 62
     0
100
AcDbTrace
 10
36.41509469998001
 20
0.1010668427164115
 30
0.0
 11
37.24842803331334
 21
0.1010668427164114
 31
0.0
 12
36.83176136664668
 22
-2.398933157283587
 32
0.0
 13
36.83176136664668
 23
-2.398933157283587
 33
0.0
  0
SOLID
  5
12481
330
120B8
100
AcDbEntity
  8
2
 62
     0
100
AcDbTrace
 10
36.41509469998001
 20
-7.901070744443511
 30
0.0
 11
37.24842803331334
 21
-7.901070744443511
 31
0.0
 12
36.83176136664668
 22
-5.401070744443511
 32
0.0
 13
36.83176136664668
 23
-5.401070744443511
 33
0.0
  0
MTEXT
  5
12482
330
120B8
100
AcDbEntity
  8
2
 62
     0
370
    -2
100
AcDbMText
 10
34.39527155638666
 20
-12.24848817241258
 30
0.0
 40
3.5
 41
0.0
 71
     5
 72
     1
  1
3
 11
0.0000000000000001
 21
1.0
 31
0.0
 73
     1
 44
1.0
1001
ACAD
1000
MTEXTBEGIN
1070
    73
1070
     1
1070
    44
1040
1.0
1070
    74
1070
     0
1000
MTEXTEND
  0
POINT
  5
12483
330
120B8
100
AcDbEntity
  8
DEFPOINTS
 62
     0
100
AcDbPoint
 10
29.08267851813969
 20
-2.398933157283586
 30
0.0
  0
POINT
  5
12484
330
120B8
100
AcDbEntity
  8
DEFPOINTS
 62
     0
100
AcDbPoint
 10
29.08267851813969
 20
-5.401070744443508
 30
0.0
  0
POINT
  5
12485
330
120B8
100
AcDbEntity
  8
DEFPOINTS
 62
     0
100
AcDbPoint
 10
36.83176136664668
 20
-5.401070744443511
 30
0.0
  0
ENDBLK
  5
120BA
330
120B8
100
AcDbEntity
  8
0
100
AcDbBlockEnd
  0
BLOCK
  5
120C7
330
120C6
100
AcDbEntity
  8
0
100
AcDbBlockBegin
  2
*D2
 70
     1
 10
0.0
 20
0.0
 30
0.0
  3
*D2
  1

  0
LINE
  5
12472
330
120C6
100
AcDbEntity
  8
2
 62
     0
370
    -2
100
AcDbLine
 10
29.49999999998868
 20
-3.900000000001736
 30
0.0
 11
48.08176136664667
 21
-3.900000000001741
 31
0.0
  0
LINE
  5
12473
330
120C6
100
AcDbEntity
  8
2
 62
     0
370
    -2
100
AcDbLine
 10
12.49999999999996
 20
4.999999999999959
 30
0.0
 11
48.08176136664667
 21
4.999999999999949
 31
0.0
  0
LINE
  5
12474
330
120C6
100
AcDbEntity
  8
2
 62
     0
370
    -2
100
AcDbLine
 10
46.83176136664667
 20
-1.400000000001741
 30
0.0
 11
46.83176136664667
 21
2.499999999999949
 31
0.0
  0
SOLID
  5
12475
330
120C6
100
AcDbEntity
  8
2
 62
     0
100
AcDbTrace
 10
46.41509469998001
 20
-1.400000000001741
 30
0.0
 11
47.24842803331333
 21
-1.400000000001741
 31
0.0
 12
46.83176136664667
 22
-3.900000000001741
 32
0.0
 13
46.83176136664667
 23
-3.900000000001741
 33
0.0
  0
SOLID
  5
12476
330
120C6
100
AcDbEntity
  8
2
 62
     0
100
AcDbTrace
 10
46.41509469998001
 20
2.499999999999949
 30
0.0
 11
47.24842803331333
 21
2.499999999999949
 31
0.0
 12
46.83176136664667
 22
4.999999999999949
 32
0.0
 13
46.83176136664667
 23
4.999999999999949
 33
0.0
  0
MTEXT
  5
12477
330
120C6
100
AcDbEntity
  8
2
 62
     0
370
    -2
100
AcDbMText
 10
44.39527155638665
 20
0.5499999999991118
 30
0.0
 40
3.5
 41
0.0
 71
     5
 72
     1
  1
8.9
 11
0.0000000000000001
 21
1.0
 31
0.0
 73
     1
 44
1.0
1001
ACAD
1000
MTEXTBEGIN
1070
    73
1070
     1
1070
    44
1040
1.0
1070
    74
1070
     0
1000
MTEXTEND
  0
POINT
  5
12478
330
120C6
100
AcDbEntity
  8
DEFPOINTS
 62
     0
100
AcDbPoint
 10
29.49999999998868
 20
-3.900000000001736
 30
0.0
  0
POINT
  5
12479
330
120C6
100
AcDbEntity
  8
DEFPOINTS
 62
     0
100
AcDbPoint
 10
12.49999999999996
 20
4.999999999999959
 30
0.0
  0
POINT
  5
1247A
330
120C6
100
AcDbEntity
  8
DEFPOINTS
 62
     0
100
AcDbPoint
 10
46.83176136664667
 20
4.999999999999949
 30
0.0
  0
ENDBLK
  5
120C8
330
120C6
100
AcDbEntity
  8
0
100
AcDbBlockEnd
  0
BLOCK
  5
120DC
330
120DB
100
AcDbEntity
  8
0
100
AcDbBlockBegin
  2
*D3
 70
     1
 10
0.0
 20
0.0
 30
0.0
  3
*D3
  1

  0
LINE
  5
1245F
330
120DB
100
AcDbEntity
  8
SK2
 62
     0
370
    -2
100
AcDbLine
 10
-14.5
 20
5.0
 30
0.0
 11
-24.19603798824787
 21
5.000000000000004
 31
0.0
  0
LINE
  5
12460
330
120DB
100
AcDbEntity
  8
SK2
 62
     0
370
    -2
100
AcDbLine
 10
-15.5
 20
-4.999999999999998
 30
0.0
 11
-24.19603798824787
 21
-4.999999999999995
 31
0.0
  0
LINE
  5
12461
330
120DB
100
AcDbEntity
  8
SK2
 62
     0
370
    -2
100
AcDbLine
 10
-22.94603798824787
 20
2.500000000000003
 30
0.0
 11
-22.94603798824787
 21
-2.499999999999996
 31
0.0
  0
SOLID
  5
12462
330
120DB
100
AcDbEntity
  8
SK2
 62
     0
100
AcDbTrace
 10
-23.36270465491454
 20
2.500000000000003
 30
0.0
 11
-22.5293713215812
 21
2.500000000000003
 31
0.0
 12
-22.94603798824787
 22
5.000000000000004
 32
0.0
 13
-22.94603798824787
 23
5.000000000000004
 33
0.0
  0
SOLID
  5
12463
330
120DB
100
AcDbEntity
  8
SK2
 62
     0
100
AcDbTrace
 10
-23.36270465491454
 20
-2.499999999999995
 30
0.0
 11
-22.5293713215812
 21
-2.499999999999996
 31
0.0
 12
-22.94603798824787
 22
-4.999999999999995
 32
0.0
 13
-22.94603798824787
 23
-4.999999999999995
 33
0.0
  0
MTEXT
  5
12464
330
120DB
100
AcDbEntity
  8
SK2
 62
     0
370
    -2
100
AcDbMText
 10
-25.38252779850788
 20
0.0000000000000001
 30
0.0
 40
3.5
 41
0.0
 71
     5
 72
     1
  1
10
 11
0.0000000000000001
 21
1.0
 31
0.0
 73
     1
 44
1.0
1001
ACAD
1000
MTEXTBEGIN
1070
    73
1070
     1
1070
    44
1040
1.0
1070
    74
1070
     0
1000
MTEXTEND
  0
POINT
  5
12465
330
120DB
100
AcDbEntity
  8
DEFPOINTS
 62
     0
100
AcDbPoint
 10
-14.5
 20
5.0
 30
0.0
  0
POINT
  5
12466
330
120DB
100
AcDbEntity
  8
DEFPOINTS
 62
     0
100
AcDbPoint
 10
-15.5
 20
-4.999999999999998
 30
0.0
  0
POINT
  5
12467
330
120DB
100
AcDbEntity
  8
DEFPOINTS
 62
     0
100
AcDbPoint
 10
-22.94603798824787
 20
-4.999999999999995
 30
0.0
  0
ENDBLK
  5
120DD
330
120DB
100
AcDbEntity
  8
0
100
AcDbBlockEnd
  0
BLOCK
  5
120E8
330
120E7
100
AcDbEntity
  8
0
100
AcDbBlockBegin
  2
*D4
 70
     1
 10
0.0
 20
0.0
 30
0.0
  3
*D4
  1

  0
LINE
  5
12527
330
120E7
100
AcDbEntity
  8
SK2
 62
     0
370
    -2
100
AcDbLine
 10
-15.5
 20
4.000000000000006
 30
0.0
 11
-15.5
 21
21.26603280359021
 31
0.0
  0
LINE
  5
12528
330
120E7
100
AcDbEntity
  8
SK2
 62
     0
370
    -2
100
AcDbLine
 10
29.50003749722723
 20
-2.398933157283586
 30
0.0
 11
29.50003749722723
 21
21.26603280359021
 31
0.0
  0
LINE
  5
12529
330
120E7
100
AcDbEntity
  8
SK2
 62
     0
370
    -2
100
AcDbLine
 10
-13.0
 20
20.01603280359021
 30
0.0
 11
27.00003749722723
 21
20.01603280359021
 31
0.0
  0
SOLID
  5
1252A
330
120E7
100
AcDbEntity
  8
SK2
 62
     0
100
AcDbTrace
 10
-13.0
 20
20.43269947025688
 30
0.0
 11
-13.0
 21
19.59936613692354
 31
0.0
 12
-15.5
 22
20.01603280359021
 32
0.0
 13
-15.5
 23
20.01603280359021
 33
0.0
  0
SOLID
  5
1252B
330
120E7
100
AcDbEntity
  8
SK2
 62
     0
100
AcDbTrace
 10
27.00003749722723
 20
20.43269947025688
 30
0.0
 11
27.00003749722723
 21
19.59936613692354
 31
0.0
 12
29.50003749722723
 22
20.01603280359021
 32
0.0
 13
29.50003749722723
 23
20.01603280359021
 33
0.0
  0
MTEXT
  5
1252C
330
120E7
100
AcDbEntity
  8
SK2
 62
     0
370
    -2
100
AcDbMText
 10
6.990405748909664
 20
22.44145444800342
 30
0.0
 40
3.5
 41
0.0
 71
     5
 72
     1
  1
45
 73
     1
 44
1.0
1001
ACAD
1000
MTEXTBEGIN
1070
    73
1070
     1
1070
    44
1040
1.0
1070
    74
1070
     0
1000
MTEXTEND
  0
POINT
  5
1252D
330
120E7
100
AcDbEntity
  8
DEFPOINTS
 62
     0
100
AcDbPoint
 10
-15.5
 20
4.000000000000006
 30
0.0
  0
POINT
  5
1252E
330
120E7
100
AcDbEntity
  8
DEFPOINTS
 62
     0
100
AcDbPoint
 10
29.50003749722723
 20
-2.398933157283586
 30
0.0
  0
POINT
  5
1252F
330
120E7
100
AcDbEntity
  8
DEFPOINTS
 62
     0
100
AcDbPoint
 10
29.50003749722723
 20
20.01603280359021
 30
0.0
  0
ENDBLK
  5
120E9
330
120E7
100
AcDbEntity
  8
0
100
AcDbBlockEnd
  0
BLOCK
  5
125C5
330
125C4
100
AcDbEntity
  8
0
100
AcDbBlockBegin
  2
*D5
 70
     1
 10
0.0
 20
0.0
 30
0.0
  3
*D5
  1

  0
LINE
  5
125C6
330
125C4
100
AcDbEntity
  8
2
 62
     0
370
    -2
100
AcDbLine
 10
19.5
 20
-2.365360546112007
 30
0.0
 11
19.5
 21
13.38386271389126
 31
0.0
  0
LINE
  5
125C7
330
125C4
100
AcDbEntity
  8
2
 62
     0
370
    -2
100
AcDbLine
 10
29.50006387580589
 20
-2.365776888516712
 30
0.0
 11
29.50006387580589
 21
13.38386271389126
 31
0.0
  0
LINE
  5
125C8
330
125C4
100
AcDbEntity
  8
2
 62
     0
370
    -2
100
AcDbLine
 10
22.0
 20
12.13386271389126
 30
0.0
 11
27.00006387580589
 21
12.13386271389126
 31
0.0
  0
LINE
  5
125C9
330
125C4
100
AcDbEntity
  8
2
 62
     0
370
    -2
100
AcDbLine
 10
29.50006387580589
 20
12.13386271389126
 30
0.0
 11
53.94999360173702
 21
12.13386271389126
 31
0.0
  0
SOLID
  5
125CA
330
125C4
100
AcDbEntity
  8
2
 62
     0
100
AcDbTrace
 10
22.0
 20
12.55052938055793
 30
0.0
 11
22.0
 21
11.71719604722459
 31
0.0
 12
19.5
 22
12.13386271389126
 32
0.0
 13
19.5
 23
12.13386271389126
 33
0.0
  0
SOLID
  5
125CB
330
125C4
100
AcDbEntity
  8
2
 62
     0
100
AcDbTrace
 10
27.00006387580589
 20
12.55052938055793
 30
0.0
 11
27.00006387580589
 21
11.71719604722459
 31
0.0
 12
29.50006387580589
 22
12.13386271389126
 32
0.0
 13
29.50006387580589
 23
12.13386271389126
 33
0.0
  0
MTEXT
  5
125CC
330
125C4
100
AcDbEntity
  8
2
 62
     0
370
    -2
100
AcDbMText
 10
42.97502873877145
 20
14.57035252415127
 30
0.0
 40
3.5
 41
0.0
 71
     5
 72
     1
  1
Tmax=10
 73
     1
 44
1.0
1001
ACAD
1000
MTEXTBEGIN
1070
    73
1070
     1
1070
    44
1040
1.0
1070
    74
1070
     0
1000
MTEXTEND
  0
POINT
  5
125CD
330
125C4
100
AcDbEntity
  8
DEFPOINTS
 62
     0
100
AcDbPoint
 10
19.5
 20
-2.365360546112007
 30
0.0
  0
POINT
  5
125CE
330
125C4
100
AcDbEntity
  8
DEFPOINTS
 62
     0
100
AcDbPoint
 10
29.50006387580589
 20
-2.365776888516712
 30
0.0
  0
POINT
  5
125CF
330
125C4
100
AcDbEntity
  8
DEFPOINTS
 62
     0
100
AcDbPoint
 10
29.50006387580589
 20
12.13386271389126
 30
0.0
  0
ENDBLK
  5
125D0
330
125C4
100
AcDbEntity
  8
0
100
AcDbBlockEnd
  0
BLOCK
  5
125D2
330
125D1
100
AcDbEntity
  8
0
100
AcDbBlockBegin
  2
*D6
 70
     1
 10
0.0
 20
0.0
 30
0.0
  3
*D6
  1

  0
LINE
  5
125D3
330
125D1
100
AcDbEntity
  8
2
 62
     0
370
    -2
100
AcDbLine
 10
29.08267851813969
 20
-2.398933157283586
 30
0.0
 11
38.08176136664668
 21
-2.398933157283587
 31
0.0
  0
LINE
  5
125D4
330
125D1
100
AcDbEntity
  8
2
 62
     0
370
    -2
100
AcDbLine
 10
29.08267851813969
 20
-5.401070744443508
 30
0.0
 11
38.08176136664668
 21
-5.401070744443511
 31
0.0
  0
LINE
  5
125D5
330
125D1
100
AcDbEntity
  8
2
 62
     0
370
    -2
100
AcDbLine
 10
36.83176136664668
 20
0.1010668427164115
 30
0.0
 11
36.83176136664668
 21
2.601066842716411
 31
0.0
  0
LINE
  5
125D6
330
125D1
100
AcDbEntity
  8
2
 62
     0
370
    -2
100
AcDbLine
 10
36.83176136664668
 20
-7.901070744443511
 30
0.0
 11
36.83176136664668
 21
-14.09590560038167
 31
0.0
  0
LINE
  5
125D7
330
125D1
100
AcDbEntity
  8
2
 62
     0
370
    -2
100
AcDbLine
 10
36.83176136664668
 20
-2.398933157283587
 30
0.0
 11
36.83176136664668
 21
-5.401070744443511
 31
0.0
  0
SOLID
  5
125D8
330
125D1
100
AcDbEntity
  8
2
 62
     0
100
AcDbTrace
 10
36.41509469998001
 20
0.1010668427164115
 30
0.0
 11
37.24842803331334
 21
0.1010668427164114
 31
0.0
 12
36.83176136664668
 22
-2.398933157283587
 32
0.0
 13
36.83176136664668
 23
-2.398933157283587
 33
0.0
  0
SOLID
  5
125D9
330
125D1
100
AcDbEntity
  8
2
 62
     0
100
AcDbTrace
 10
36.41509469998001
 20
-7.901070744443511
 30
0.0
 11
37.24842803331334
 21
-7.901070744443511
 31
0.0
 12
36.83176136664668
 22
-5.401070744443511
 32
0.0
 13
36.83176136664668
 23
-5.401070744443511
 33
0.0
  0
MTEXT
  5
125DA
330
125D1
100
AcDbEntity
  8
2
 62
     0
370
    -2
100
AcDbMText
 10
34.39527155638666
 20
-12.24848817241258
 30
0.0
 40
3.5
 41
0.0
 71
     5
 72
     1
  1
3
 11
0.0000000000000001
 21
1.0
 31
0.0
 73
     1
 44
1.0
1001
ACAD
1000
MTEXTBEGIN
1070
    73
1070
     1
1070
    44
1040
1.0
1070
    74
1070
     0
1000
MTEXTEND
  0
POINT
  5
125DB
330
125D1
100
AcDbEntity
  8
DEFPOINTS
 62
     0
100
AcDbPoint
 10
29.08267851813969
 20
-2.398933157283586
 30
0.0
  0
POINT
  5
125DC
330
125D1
100
AcDbEntity
  8
DEFPOINTS
 62
     0
100
AcDbPoint
 10
29.08267851813969
 20
-5.401070744443508
 30
0.0
  0
POINT
  5
125DD
330
125D1
100
AcDbEntity
  8
DEFPOINTS
 62
     0
100
AcDbPoint
 10
36.83176136664668
 20
-5.401070744443511
 30
0.0
  0
ENDBLK
  5
125DE
330
125D1
100
AcDbEntity
  8
0
100
AcDbBlockEnd
  0
BLOCK
  5
125E0
330
125DF
100
AcDbEntity
  8
0
100
AcDbBlockBegin
  2
*D7
 70
     1
 10
0.0
 20
0.0
 30
0.0
  3
*D7
  1

  0
LINE
  5
125E1
330
125DF
100
AcDbEntity
  8
2
 62
     0
370
    -2
100
AcDbLine
 10
29.49999999998868
 20
-3.900000000001736
 30
0.0
 11
48.08176136664667
 21
-3.900000000001741
 31
0.0
  0
LINE
  5
125E2
330
125DF
100
AcDbEntity
  8
2
 62
     0
370
    -2
100
AcDbLine
 10
12.49999999999996
 20
4.999999999999959
 30
0.0
 11
48.08176136664667
 21
4.999999999999949
 31
0.0
  0
LINE
  5
125E3
330
125DF
100
AcDbEntity
  8
2
 62
     0
370
    -2
100
AcDbLine
 10
46.83176136664667
 20
-1.400000000001741
 30
0.0
 11
46.83176136664667
 21
2.499999999999949
 31
0.0
  0
SOLID
  5
125E4
330
125DF
100
AcDbEntity
  8
2
 62
     0
100
AcDbTrace
 10
46.41509469998001
 20
-1.400000000001741
 30
0.0
 11
47.24842803331333
 21
-1.400000000001741
 31
0.0
 12
46.83176136664667
 22
-3.900000000001741
 32
0.0
 13
46.83176136664667
 23
-3.900000000001741
 33
0.0
  0
SOLID
  5
125E5
330
125DF
100
AcDbEntity
  8
2
 62
     0
100
AcDbTrace
 10
46.41509469998001
 20
2.499999999999949
 30
0.0
 11
47.24842803331333
 21
2.499999999999949
 31
0.0
 12
46.83176136664667
 22
4.999999999999949
 32
0.0
 13
46.83176136664667
 23
4.999999999999949
 33
0.0
  0
MTEXT
  5
125E6
330
125DF
100
AcDbEntity
  8
2
 62
     0
370
    -2
100
AcDbMText
 10
44.39527155638665
 20
0.5499999999991118
 30
0.0
 40
3.5
 41
0.0
 71
     5
 72
     1
  1
8.9
 11
0.0000000000000001
 21
1.0
 31
0.0
 73
     1
 44
1.0
1001
ACAD
1000
MTEXTBEGIN
1070
    73
1070
     1
1070
    44
1040
1.0
1070
    74
1070
     0
1000
MTEXTEND
  0
POINT
  5
125E7
330
125DF
100
AcDbEntity
  8
DEFPOINTS
 62
     0
100
AcDbPoint
 10
29.49999999998868
 20
-3.900000000001736
 30
0.0
  0
POINT
  5
125E8
330
125DF
100
AcDbEntity
  8
DEFPOINTS
 62
     0
100
AcDbPoint
 10
12.49999999999996
 20
4.999999999999959
 30
0.0
  0
POINT
  5
125E9
330
125DF
100
AcDbEntity
  8
DEFPOINTS
 62
     0
100
AcDbPoint
 10
46.83176136664667
 20
4.999999999999949
 30
0.0
  0
ENDBLK
  5
125EA
330
125DF
100
AcDbEntity
  8
0
100
AcDbBlockEnd
  0
BLOCK
  5
125EC
330
125EB
100
AcDbEntity
  8
0
100
AcDbBlockBegin
  2
*D8
 70
     1
 10
0.0
 20
0.0
 30
0.0
  3
*D8
  1

  0
LINE
  5
125ED
330
125EB
100
AcDbEntity
  8
SK2
 62
     0
370
    -2
100
AcDbLine
 10
-14.5
 20
5.0
 30
0.0
 11
-24.19603798824787
 21
5.000000000000004
 31
0.0
  0
LINE
  5
125EE
330
125EB
100
AcDbEntity
  8
SK2
 62
     0
370
    -2
100
AcDbLine
 10
-15.5
 20
-4.999999999999998
 30
0.0
 11
-24.19603798824787
 21
-4.999999999999995
 31
0.0
  0
LINE
  5
125EF
330
125EB
100
AcDbEntity
  8
SK2
 62
     0
370
    -2
100
AcDbLine
 10
-22.94603798824787
 20
2.500000000000003
 30
0.0
 11
-22.94603798824787
 21
-2.499999999999996
 31
0.0
  0
SOLID
  5
125F0
330
125EB
100
AcDbEntity
  8
SK2
 62
     0
100
AcDbTrace
 10
-23.36270465491454
 20
2.500000000000003
 30
0.0
 11
-22.5293713215812
 21
2.500000000000003
 31
0.0
 12
-22.94603798824787
 22
5.000000000000004
 32
0.0
 13
-22.94603798824787
 23
5.000000000000004
 33
0.0
  0
SOLID
  5
125F1
330
125EB
100
AcDbEntity
  8
SK2
 62
     0
100
AcDbTrace
 10
-23.36270465491454
 20
-2.499999999999995
 30
0.0
 11
-22.5293713215812
 21
-2.499999999999996
 31
0.0
 12
-22.94603798824787
 22
-4.999999999999995
 32
0.0
 13
-22.94603798824787
 23
-4.999999999999995
 33
0.0
  0
MTEXT
  5
125F2
330
125EB
100
AcDbEntity
  8
SK2
 62
     0
370
    -2
100
AcDbMText
 10
-25.38252779850788
 20
0.0000000000000001
 30
0.0
 40
3.5
 41
0.0
 71
     5
 72
     1
  1
10
 11
0.0000000000000001
 21
1.0
 31
0.0
 73
     1
 44
1.0
1001
ACAD
1000
MTEXTBEGIN
1070
    73
1070
     1
1070
    44
1040
1.0
1070
    74
1070
     0
1000
MTEXTEND
  0
POINT
  5
125F3
330
125EB
100
AcDbEntity
  8
DEFPOINTS
 62
     0
100
AcDbPoint
 10
-14.5
 20
5.0
 30
0.0
  0
POINT
  5
125F4
330
125EB
100
AcDbEntity
  8
DEFPOINTS
 62
     0
100
AcDbPoint
 10
-15.5
 20
-4.999999999999998
 30
0.0
  0
POINT
  5
125F5
330
125EB
100
AcDbEntity
  8
DEFPOINTS
 62
     0
100
AcDbPoint
 10
-22.94603798824787
 20
-4.999999999999995
 30
0.0
  0
ENDBLK
  5
125F6
330
125EB
100
AcDbEntity
  8
0
100
AcDbBlockEnd
  0
BLOCK
  5
125F8
330
125F7
100
AcDbEntity
  8
0
100
AcDbBlockBegin
  2
*D9
 70
     1
 10
0.0
 20
0.0
 30
0.0
  3
*D9
  1

  0
LINE
  5
125F9
330
125F7
100
AcDbEntity
  8
SK2
 62
     0
370
    -2
100
AcDbLine
 10
-15.5
 20
4.000000000000006
 30
0.0
 11
-15.5
 21
21.26603280359021
 31
0.0
  0
LINE
  5
125FA
330
125F7
100
AcDbEntity
  8
SK2
 62
     0
370
    -2
100
AcDbLine
 10
29.50003749722723
 20
-2.398933157283586
 30
0.0
 11
29.50003749722723
 21
21.26603280359021
 31
0.0
  0
LINE
  5
125FB
330
125F7
100
AcDbEntity
  8
SK2
 62
     0
370
    -2
100
AcDbLine
 10
-13.0
 20
20.01603280359021
 30
0.0
 11
27.00003749722723
 21
20.01603280359021
 31
0.0
  0
SOLID
  5
125FC
330
125F7
100
AcDbEntity
  8
SK2
 62
     0
100
AcDbTrace
 10
-13.0
 20
20.43269947025688
 30
0.0
 11
-13.0
 21
19.59936613692354
 31
0.0
 12
-15.5
 22
20.01603280359021
 32
0.0
 13
-15.5
 23
20.01603280359021
 33
0.0
  0
SOLID
  5
125FD
330
125F7
100
AcDbEntity
  8
SK2
 62
     0
100
AcDbTrace
 10
27.00003749722723
 20
20.43269947025688
 30
0.0
 11
27.00003749722723
 21
19.59936613692354
 31
0.0
 12
29.50003749722723
 22
20.01603280359021
 32
0.0
 13
29.50003749722723
 23
20.01603280359021
 33
0.0
  0
MTEXT
  5
125FE
330
125F7
100
AcDbEntity
  8
SK2
 62
     0
370
    -2
100
AcDbMText
 10
6.990405748909664
 20
22.44145444800342
 30
0.0
 40
3.5
 41
0.0
 71
     5
 72
     1
  1
45
 73
     1
 44
1.0
1001
ACAD
1000
MTEXTBEGIN
1070
    73
1070
     1
1070
    44
1040
1.0
1070
    74
1070
     0
1000
MTEXTEND
  0
POINT
  5
125FF
330
125F7
100
AcDbEntity
  8
DEFPOINTS
 62
     0
100
AcDbPoint
 10
-15.5
 20
4.000000000000006
 30
0.0
  0
POINT
  5
12600
330
125F7
100
AcDbEntity
  8
DEFPOINTS
 62
     0
100
AcDbPoint
 10
29.50003749722723
 20
-2.398933157283586
 30
0.0
  0
POINT
  5
12601
330
125F7
100
AcDbEntity
  8
DEFPOINTS
 62
     0
100
AcDbPoint
 10
29.50003749722723
 20
20.01603280359021
 30
0.0
  0
ENDBLK
  5
12602
330
125F7
100
AcDbEntity
  8
0
100
AcDbBlockEnd
  0
BLOCK
  5
12836
330
12835
100
AcDbEntity
  8
0
100
AcDbBlockBegin
  2
*D11
 70
     1
 10
0.0
 20
0.0
 30
0.0
  3
*D11
  1

  0
LINE
  5
12C15
330
12835
100
AcDbEntity
  8
2
 62
     0
370
    -2
100
AcDbLine
 10
45.20613160576186
 20
-215.6441703464624
 30
0.0
 11
63.78789297241982
 21
-215.6441703464624
 31
0.0
  0
LINE
  5
12C16
330
12835
100
AcDbEntity
  8
2
 62
     0
370
    -2
100
AcDbLine
 10
28.20613160577315
 20
-206.7441703464607
 30
0.0
 11
63.78789297241983
 21
-206.7441703464607
 31
0.0
  0
LINE
  5
12C17
330
12835
100
AcDbEntity
  8
2
 62
     0
370
    -2
100
AcDbLine
 10
62.53789297241982
 20
-213.1441703464624
 30
0.0
 11
62.53789297241982
 21
-209.2441703464607
 31
0.0
  0
SOLID
  5
12C18
330
12835
100
AcDbEntity
  8
2
 62
     0
100
AcDbTrace
 10
62.12122630575315
 20
-213.1441703464624
 30
0.0
 11
62.95455963908648
 21
-213.1441703464624
 31
0.0
 12
62.53789297241982
 22
-215.6441703464624
 32
0.0
 13
62.53789297241982
 23
-215.6441703464624
 33
0.0
  0
SOLID
  5
12C19
330
12835
100
AcDbEntity
  8
2
 62
     0
100
AcDbTrace
 10
62.12122630575315
 20
-209.2441703464607
 30
0.0
 11
62.95455963908648
 21
-209.2441703464607
 31
0.0
 12
62.53789297241983
 22
-206.7441703464607
 32
0.0
 13
62.53789297241983
 23
-206.7441703464607
 33
0.0
  0
MTEXT
  5
12C1A
330
12835
100
AcDbEntity
  8
2
 62
     0
100
AcDbMText
 10
60.10140316215984
 20
-211.1941703464616
 30
0.0
 40
3.5
 41
0.0
 71
     5
 72
     1
  1
8.9
 11
0.0000000000000001
 21
1.0
 31
0.0
 73
     1
 44
1.0
1001
ACAD
1000
MTEXTBEGIN
1070
    73
1070
     1
1070
    44
1040
1.0
1070
    74
1070
     0
1000
MTEXTEND
  0
POINT
  5
12C1B
330
12835
100
AcDbEntity
  8
DEFPOINTS
 62
     0
100
AcDbPoint
 10
45.20613160576186
 20
-215.6441703464624
 30
0.0
  0
POINT
  5
12C1C
330
12835
100
AcDbEntity
  8
DEFPOINTS
 62
     0
100
AcDbPoint
 10
28.20613160577315
 20
-206.7441703464607
 30
0.0
  0
POINT
  5
12C1D
330
12835
100
AcDbEntity
  8
DEFPOINTS
 62
     0
100
AcDbPoint
 10
62.53789297241983
 20
-206.7441703464607
 30
0.0
  0
ENDBLK
  5
12837
330
12835
100
AcDbEntity
  8
0
100
AcDbBlockEnd
  0
BLOCK
  5
12842
330
12841
100
AcDbEntity
  8
0
100
AcDbBlockBegin
  2
*D12
 70
     1
 10
0.0
 20
0.0
 30
0.0
  3
*D12
  1

  0
LINE
  5
12C0B
330
12841
100
AcDbEntity
  8
2
 62
     0
370
    -2
100
AcDbLine
 10
35.20613160577318
 20
-214.1095308925727
 30
0.0
 11
35.20613160577318
 21
-198.3603076325694
 31
0.0
  0
LINE
  5
12C0C
330
12841
100
AcDbEntity
  8
2
 62
     0
370
    -2
100
AcDbLine
 10
45.20619548157907
 20
-214.1099472349774
 30
0.0
 11
45.20619548157907
 21
-198.3603076325694
 31
0.0
  0
LINE
  5
12C0D
330
12841
100
AcDbEntity
  8
2
 62
     0
370
    -2
100
AcDbLine
 10
37.70613160577318
 20
-199.6103076325694
 30
0.0
 11
42.70619548157907
 21
-199.6103076325694
 31
0.0
  0
LINE
  5
12C0E
330
12841
100
AcDbEntity
  8
2
 62
     0
370
    -2
100
AcDbLine
 10
45.20619548157907
 20
-199.6103076325694
 30
0.0
 11
69.6561252075102
 21
-199.6103076325694
 31
0.0
  0
SOLID
  5
12C0F
330
12841
100
AcDbEntity
  8
2
 62
     0
100
AcDbTrace
 10
37.70613160577318
 20
-199.1936409659027
 30
0.0
 11
37.70613160577318
 21
-200.0269742992361
 31
0.0
 12
35.20613160577318
 22
-199.6103076325694
 32
0.0
 13
35.20613160577318
 23
-199.6103076325694
 33
0.0
  0
SOLID
  5
12C10
330
12841
100
AcDbEntity
  8
2
 62
     0
100
AcDbTrace
 10
42.70619548157907
 20
-199.1936409659027
 30
0.0
 11
42.70619548157907
 21
-200.0269742992361
 31
0.0
 12
45.20619548157907
 22
-199.6103076325694
 32
0.0
 13
45.20619548157907
 23
-199.6103076325694
 33
0.0
  0
MTEXT
  5
12C11
330
12841
100
AcDbEntity
  8
2
 62
     0
100
AcDbMText
 10
58.68116034454463
 20
-197.1738178223094
 30
0.0
 40
3.5
 41
0.0
 71
     5
 72
     1
  1
Tmax=10
 73
     1
 44
1.0
1001
ACAD
1000
MTEXTBEGIN
1070
    73
1070
     1
1070
    44
1040
1.0
1070
    74
1070
     0
1000
MTEXTEND
  0
POINT
  5
12C12
330
12841
100
AcDbEntity
  8
DEFPOINTS
 62
     0
100
AcDbPoint
 10
35.20613160577318
 20
-214.1095308925727
 30
0.0
  0
POINT
  5
12C13
330
12841
100
AcDbEntity
  8
DEFPOINTS
 62
     0
100
AcDbPoint
 10
45.20619548157907
 20
-214.1099472349774
 30
0.0
  0
POINT
  5
12C14
330
12841
100
AcDbEntity
  8
DEFPOINTS
 62
     0
100
AcDbPoint
 10
45.20619548157907
 20
-199.6103076325694
 30
0.0
  0
ENDBLK
  5
12843
330
12841
100
AcDbEntity
  8
0
100
AcDbBlockEnd
  0
BLOCK
  5
1284F
330
1284E
100
AcDbEntity
  8
0
100
AcDbBlockBegin
  2
*D13
 70
     1
 10
0.0
 20
0.0
 30
0.0
  3
*D13
  1

  0
LINE
  5
12C02
330
1284E
100
AcDbEntity
  8
SK2
 62
     0
370
    -2
100
AcDbLine
 10
1.20613160577318
 20
-206.7441703464607
 30
0.0
 11
-8.489906382474721
 21
-206.7441703464607
 31
0.0
  0
LINE
  5
12C03
330
1284E
100
AcDbEntity
  8
SK2
 62
     0
370
    -2
100
AcDbLine
 10
0.2061316057731801
 20
-216.7441703464607
 30
0.0
 11
-8.489906382474725
 21
-216.7441703464607
 31
0.0
  0
LINE
  5
12C04
330
1284E
100
AcDbEntity
  8
SK2
 62
     0
370
    -2
100
AcDbLine
 10
-7.239906382474722
 20
-209.2441703464607
 30
0.0
 11
-7.239906382474724
 21
-214.2441703464607
 31
0.0
  0
SOLID
  5
12C05
330
1284E
100
AcDbEntity
  8
SK2
 62
     0
100
AcDbTrace
 10
-7.656573049141389
 20
-209.2441703464607
 30
0.0
 11
-6.823239715808055
 21
-209.2441703464607
 31
0.0
 12
-7.239906382474722
 22
-206.7441703464607
 32
0.0
 13
-7.239906382474722
 23
-206.7441703464607
 33
0.0
  0
SOLID
  5
12C06
330
1284E
100
AcDbEntity
  8
SK2
 62
     0
100
AcDbTrace
 10
-7.656573049141391
 20
-214.2441703464607
 30
0.0
 11
-6.823239715808057
 21
-214.2441703464607
 31
0.0
 12
-7.239906382474724
 22
-216.7441703464607
 32
0.0
 13
-7.239906382474724
 23
-216.7441703464607
 33
0.0
  0
MTEXT
  5
12C07
330
1284E
100
AcDbEntity
  8
SK2
 62
     0
100
AcDbMText
 10
-9.676396192734701
 20
-211.7441703464607
 30
0.0
 40
3.5
 41
0.0
 71
     5
 72
     1
  1
10
 11
0.0000000000000001
 21
1.0
 31
0.0
 73
     1
 44
1.0
1001
ACAD
1000
MTEXTBEGIN
1070
    73
1070
     1
1070
    44
1040
1.0
1070
    74
1070
     0
1000
MTEXTEND
  0
POINT
  5
12C08
330
1284E
100
AcDbEntity
  8
DEFPOINTS
 62
     0
100
AcDbPoint
 10
1.20613160577318
 20
-206.7441703464607
 30
0.0
  0
POINT
  5
12C09
330
1284E
100
AcDbEntity
  8
DEFPOINTS
 62
     0
100
AcDbPoint
 10
0.2061316057731801
 20
-216.7441703464607
 30
0.0
  0
POINT
  5
12C0A
330
1284E
100
AcDbEntity
  8
DEFPOINTS
 62
     0
100
AcDbPoint
 10
-7.239906382474724
 20
-216.7441703464607
 30
0.0
  0
ENDBLK
  5
12850
330
1284E
100
AcDbEntity
  8
0
100
AcDbBlockEnd
  0
BLOCK
  5
1285B
330
1285A
100
AcDbEntity
  8
0
100
AcDbBlockBegin
  2
*D14
 70
     1
 10
0.0
 20
0.0
 30
0.0
  3
*D14
  1

  0
LINE
  5
12BF9
330
1285A
100
AcDbEntity
  8
SK2
 62
     0
370
    -2
100
AcDbLine
 10
0.2061316057731801
 20
-207.7441703464607
 30
0.0
 11
0.2061316057731812
 21
-190.4781375428705
 31
0.0
  0
LINE
  5
12BFA
330
1285A
100
AcDbEntity
  8
SK2
 62
     0
370
    -2
100
AcDbLine
 10
45.20616910300041
 20
-214.1431035037443
 30
0.0
 11
45.20616910300041
 21
-190.4781375428705
 31
0.0
  0
LINE
  5
12BFB
330
1285A
100
AcDbEntity
  8
SK2
 62
     0
370
    -2
100
AcDbLine
 10
2.706131605773181
 20
-191.7281375428705
 30
0.0
 11
42.70616910300041
 21
-191.7281375428705
 31
0.0
  0
SOLID
  5
12BFC
330
1285A
100
AcDbEntity
  8
SK2
 62
     0
100
AcDbTrace
 10
2.706131605773181
 20
-191.3114708762038
 30
0.0
 11
2.706131605773181
 21
-192.1448042095371
 31
0.0
 12
0.2061316057731811
 22
-191.7281375428705
 32
0.0
 13
0.2061316057731811
 23
-191.7281375428705
 33
0.0
  0
SOLID
  5
12BFD
330
1285A
100
AcDbEntity
  8
SK2
 62
     0
100
AcDbTrace
 10
42.70616910300041
 20
-191.3114708762038
 30
0.0
 11
42.70616910300041
 21
-192.1448042095371
 31
0.0
 12
45.20616910300041
 22
-191.7281375428705
 32
0.0
 13
45.20616910300041
 23
-191.7281375428705
 33
0.0
  0
MTEXT
  5
12BFE
330
1285A
100
AcDbEntity
  8
SK2
 62
     0
100
AcDbMText
 10
22.69653735468285
 20
-189.3027158984573
 30
0.0
 40
3.5
 41
0.0
 71
     5
 72
     1
  1
45
 73
     1
 44
1.0
1001
ACAD
1000
MTEXTBEGIN
1070
    73
1070
     1
1070
    44
1040
1.0
1070
    74
1070
     0
1000
MTEXTEND
  0
POINT
  5
12BFF
330
1285A
100
AcDbEntity
  8
DEFPOINTS
 62
     0
100
AcDbPoint
 10
0.2061316057731801
 20
-207.7441703464607
 30
0.0
  0
POINT
  5
12C00
330
1285A
100
AcDbEntity
  8
DEFPOINTS
 62
     0
100
AcDbPoint
 10
45.20616910300041
 20
-214.1431035037443
 30
0.0
  0
POINT
  5
12C01
330
1285A
100
AcDbEntity
  8
DEFPOINTS
 62
     0
100
AcDbPoint
 10
45.20616910300041
 20
-191.7281375428705
 30
0.0
  0
ENDBLK
  5
1285C
330
1285A
100
AcDbEntity
  8
0
100
AcDbBlockEnd
  0
BLOCK
  5
12867
330
12866
100
AcDbEntity
  8
0
100
AcDbBlockBegin
  2
*D15
 70
     1
 10
0.0
 20
0.0
 30
0.0
  3
*D15
  1

  0
LINE
  5
12C1E
330
12866
100
AcDbEntity
  8
2
 62
     0
370
    -2
100
AcDbLine
 10
44.78881012391286
 20
-214.1431035037443
 30
0.0
 11
53.78789297241982
 21
-214.1431035037443
 31
0.0
  0
LINE
  5
12C1F
330
12866
100
AcDbEntity
  8
2
 62
     0
370
    -2
100
AcDbLine
 10
44.78881012391286
 20
-217.1452410909042
 30
0.0
 11
53.78789297241982
 21
-217.1452410909042
 31
0.0
  0
LINE
  5
12C20
330
12866
100
AcDbEntity
  8
2
 62
     0
370
    -2
100
AcDbLine
 10
52.53789297241982
 20
-211.6431035037443
 30
0.0
 11
52.53789297241982
 21
-209.1431035037443
 31
0.0
  0
LINE
  5
12C21
330
12866
100
AcDbEntity
  8
2
 62
     0
370
    -2
100
AcDbLine
 10
52.53789297241982
 20
-219.6452410909042
 30
0.0
 11
52.53789297241982
 21
-225.8400759468424
 31
0.0
  0
LINE
  5
12C22
330
12866
100
AcDbEntity
  8
2
 62
     0
370
    -2
100
AcDbLine
 10
52.53789297241982
 20
-214.1431035037443
 30
0.0
 11
52.53789297241982
 21
-217.1452410909042
 31
0.0
  0
SOLID
  5
12C23
330
12866
100
AcDbEntity
  8
2
 62
     0
100
AcDbTrace
 10
52.12122630575315
 20
-211.6431035037443
 30
0.0
 11
52.95455963908648
 21
-211.6431035037443
 31
0.0
 12
52.53789297241982
 22
-214.1431035037443
 32
0.0
 13
52.53789297241982
 23
-214.1431035037443
 33
0.0
  0
SOLID
  5
12C24
330
12866
100
AcDbEntity
  8
2
 62
     0
100
AcDbTrace
 10
52.12122630575315
 20
-219.6452410909042
 30
0.0
 11
52.95455963908648
 21
-219.6452410909042
 31
0.0
 12
52.53789297241982
 22
-217.1452410909042
 32
0.0
 13
52.53789297241982
 23
-217.1452410909042
 33
0.0
  0
MTEXT
  5
12C25
330
12866
100
AcDbEntity
  8
2
 62
     0
100
AcDbMText
 10
50.10140316215984
 20
-223.9926585188733
 30
0.0
 40
3.5
 41
0.0
 71
     5
 72
     1
  1
3
 11
0.0000000000000001
 21
1.0
 31
0.0
 73
     1
 44
1.0
1001
ACAD
1000
MTEXTBEGIN
1070
    73
1070
     1
1070
    44
1040
1.0
1070
    74
1070
     0
1000
MTEXTEND
  0
POINT
  5
12C26
330
12866
100
AcDbEntity
  8
DEFPOINTS
 62
     0
100
AcDbPoint
 10
44.78881012391286
 20
-214.1431035037443
 30
0.0
  0
POINT
  5
12C27
330
12866
100
AcDbEntity
  8
DEFPOINTS
 62
     0
100
AcDbPoint
 10
44.78881012391286
 20
-217.1452410909042
 30
0.0
  0
POINT
  5
12C28
330
12866
100
AcDbEntity
  8
DEFPOINTS
 62
     0
100
AcDbPoint
 10
52.53789297241982
 20
-217.1452410909042
 30
0.0
  0
ENDBLK
  5
12868
330
12866
100
AcDbEntity
  8
0
100
AcDbBlockEnd
  0
BLOCK
  5
1289A
330
12899
100
AcDbEntity
  8
0
370
     0
100
AcDbBlockBegin
  2
BLOCK1
 70
     0
 10
0.0
 20
0.0
 30
0.0
  3
BLOCK1
  1

  0
TEXT
  5
1289B
330
12899
100
AcDbEntity
  8
0
 62
     7
370
    13
100
AcDbText
 10
-8.142267
 20
-21.018082
 30
0.0
 40
3.0
  1
Front view
 41
0.7380433547985944
 72
     5
 11
11.042711
 21
-21.018082
 31
0.0
100
AcDbText
  0
TEXT
  5
1289C
330
12899
100
AcDbEntity
  8
0
 62
     7
370
    13
100
AcDbText
 10
-8.142267
 20
-26.020863
 30
0.0
 40
3.0
  1
Scale:
 41
0.7447849535460036
 72
     5
 11
3.473866
 21
-26.020863
 31
0.0
100
AcDbText
  0
TEXT
  5
1289D
330
12899
100
AcDbEntity
  8
0
 62
     7
370
    13
100
AcDbText
 10
3.473866
 20
-26.020863
 30
0.0
 40
3.0
  1
  1:1
 41
0.6237572583400921
 72
     5
 11
11.580957
 21
-26.020863
 31
0.0
100
AcDbText
  0
ENDBLK
  5
1289E
330
12899
100
AcDbEntity
  8
0
100
AcDbBlockEnd
  0
BLOCK
  5
128A0
330
1289F
100
AcDbEntity
  8
0
370
     0
100
AcDbBlockBegin
  2
BLOCK2
 70
     0
 10
0.0
 20
0.0
 30
0.0
  3
BLOCK2
  1

  0
ELLIPSE
  5
128A1
330
1289F
100
AcDbEntity
  8
0
 62
     7
370
    13
100
AcDbEllipse
 10
40.181171
 20
14.128592
 30
0.0
 11
2.700000047683715
 21
-0.0004436589078978
 31
0.0
210
0.0
220
0.0
230
0.9999999999999998
 40
0.026206
 41
1.83679734090672
 42
2.036992593018221
  0
LINE
  5
128A2
330
1289F
100
AcDbEntity
  8
0
 62
     7
 48
0.016365
370
    35
100
AcDbLine
 10
43.179017
 20
15.0
 30
0.0
 11
42.52442999999999
 21
15.0
 31
0.0
  0
LINE
  5
128A3
330
1289F
100
AcDbEntity
  8
0
 62
     7
 48
0.105346
370
    35
100
AcDbLine
 10
42.52442999999999
 20
15.0
 30
0.0
 11
38.310573
 21
14.999992
 31
0.0
  0
LINE
  5
128A4
330
1289F
100
AcDbEntity
  8
0
 62
     7
 48
0.367567
370
    35
100
AcDbLine
 10
46.769305
 20
0.588424
 30
0.0
 11
39.59413
 21
13.421398
 31
0.0
  0
LINE
  5
128A5
330
1289F
100
AcDbEntity
  8
0
 62
     7
 48
0.015088
370
    35
100
AcDbLine
 10
46.5724
 20
1.995193
 30
0.0
 11
46.27699999999999
 21
1.468928
 31
0.0
  0
ELLIPSE
  5
128A6
330
1289F
100
AcDbEntity
  8
0
 62
     7
370
    35
100
AcDbEllipse
 10
40.87819699999999
 20
13.179895
 30
0.0
 11
-0.2570692300796509
 21
1.731015682220458
 31
0.0
210
0.0
220
0.0
230
0.9999999999999998
 40
0.9844799999999999
 41
6.283079006291702
 42
7.334816397374572
  0
ELLIPSE
  5
128A7
330
1289F
100
AcDbEntity
  8
0
 62
     7
370
    35
100
AcDbEllipse
 10
46.266857
 20
3.258608
 30
0.0
 11
-0.1909657120704651
 21
1.285897374153137
 31
0.0
210
0.0
220
0.0
230
1.0
 40
0.9844799999999999
 41
3.141486352127976
 42
4.038903399138552
  0
ELLIPSE
  5
128A8
330
1289F
100
AcDbEntity
  8
0
 62
     7
370
    35
100
AcDbEllipse
 10
46.266857
 20
3.258608
 30
0.0
 11
-0.1909657120704651
 21
1.285897374153137
 31
0.0
210
0.0
220
0.0
230
1.0
 40
0.9844799999999999
 41
2.769394153961671
 42
3.141486352127976
  0
LINE
  5
128A9
330
1289F
100
AcDbEntity
  8
0
 62
     7
 48
0.044169
370
    35
100
AcDbLine
 10
41.13019099999999
 20
14.966674
 30
0.0
 11
42.896913
 21
14.958223
 31
0.0
  0
LINE
  5
128AA
330
1289F
100
AcDbEntity
  8
0
 62
     7
 48
0.001682
370
    35
100
AcDbLine
 10
44.44293799999999
 20
14.950828
 30
0.0
 11
44.51021400000001
 21
14.950506
 31
0.0
  0
ELLIPSE
  5
128AB
330
1289F
100
AcDbEntity
  8
0
 62
     7
370
    35
100
AcDbEllipse
 10
41.129902
 20
13.217276
 30
0.0
 11
-0.2570692300796509
 21
1.731015682220458
 31
0.0
210
0.0
220
0.0
230
0.9999999999999998
 40
0.9844799999999999
 41
0.8334267844126797
 42
1.203668873387117
  0
ELLIPSE
  5
128AC
330
1289F
100
AcDbEntity
  8
0
 62
     7
370
    35
100
AcDbEllipse
 10
41.129902
 20
13.217276
 30
0.0
 11
-0.2570692300796509
 21
1.731015682220458
 31
0.0
210
0.0
220
0.0
230
0.9999999999999998
 40
0.9844799999999999
 41
6.283079005717953
 42
6.82003272601906
  0
ELLIPSE
  5
128AD
330
1289F
100
AcDbEntity
  8
0
 62
     7
370
    35
100
AcDbEllipse
 10
41.129902
 20
13.217276
 30
0.0
 11
-0.2570692300796509
 21
1.731015682220458
 31
0.0
210
0.0
220
0.0
230
0.9999999999999998
 40
0.9844799999999999
 41
6.133298501580835
 42
6.283079005717953
  0
LINE
  5
128AE
330
1289F
100
AcDbEntity
  8
0
 62
     7
 48
0.019514
370
    35
100
AcDbLine
 10
47.762282
 20
3.281518
 30
0.0
 11
47.37549099999999
 21
2.603527999999999
 31
0.0
  0
LINE
  5
128AF
330
1289F
100
AcDbEntity
  8
0
 62
     7
 48
0.00048
370
    35
100
AcDbLine
 10
43.178255
 20
15.0
 30
0.0
 11
43.159051
 21
15.0
 31
0.0
  0
LINE
  5
128B0
330
1289F
100
AcDbEntity
  8
0
 62
     7
 48
0.01115
370
    35
100
AcDbLine
 10
44.843521
 20
15.0
 30
0.0
 11
44.397507
 21
15.0
 31
0.0
  0
LINE
  5
128B1
330
1289F
100
AcDbEntity
  8
0
 62
     7
 48
0.106296
370
    35
100
AcDbLine
 10
38.251832
 20
15.0
 30
0.0
 11
34.0
 21
15.0
 31
0.0
  0
LINE
  5
128B2
330
1289F
100
AcDbEntity
  8
0
 62
     7
 48
0.001468
370
    35
100
AcDbLine
 10
38.251832
 20
15.0
 30
0.0
 11
38.310566
 21
15.0
 31
0.0
  0
LINE
  5
128B3
330
1289F
100
AcDbEntity
  8
0
 62
     7
 48
0.050865
370
    35
100
AcDbLine
 10
38.310566
 20
15.0
 30
0.0
 11
39.59413
 21
13.421398
 31
0.0
  0
LINE
  5
128B4
330
1289F
100
AcDbEntity
  8
0
 62
     7
 48
0.119615
370
    35
100
AcDbLine
 10
46.778058
 20
0.490625
 30
0.0
 11
49.119999
 21
4.662875999999999
 31
0.0
  0
LINE
  5
128B5
330
1289F
100
AcDbEntity
  8
0
 62
     7
 48
0.016826
370
    35
100
AcDbLine
 10
50.590915
 20
7.283364999999998
 30
0.0
 11
50.92035
 21
7.870264999999999
 31
0.0
  0
LINE
  5
128B6
330
1289F
100
AcDbEntity
  8
0
 62
     7
 48
0.001467
370
    35
100
AcDbLine
 10
50.92035
 20
7.870264999999999
 30
0.0
 11
50.862297
 21
7.861644
 31
0.0
  0
LINE
  5
128B7
330
1289F
100
AcDbEntity
  8
0
 62
     7
 48
0.002455
370
    35
100
AcDbLine
 10
46.778058
 20
0.490625
 30
0.0
 11
46.769305
 21
0.588424
 31
0.0
  0
LINE
  5
128B8
330
1289F
100
AcDbEntity
  8
0
 62
     7
 48
0.368924
370
    35
100
AcDbLine
 10
39.576392
 20
13.370977
 30
0.0
 11
46.778058
 21
0.490625
 31
0.0
  0
LINE
  5
128B9
330
1289F
100
AcDbEntity
  8
0
 62
     7
 48
0.001336
370
    35
100
AcDbLine
 10
39.576392
 20
13.370977
 30
0.0
 11
39.59413
 21
13.421398
 31
0.0
  0
LINE
  5
128BA
330
1289F
100
AcDbEntity
  8
0
 62
     7
 48
0.114063
370
    35
100
AcDbLine
 10
32.819133
 20
10.592945
 30
0.0
 11
34.0
 21
15.0
 31
0.0
  0
ARC
  5
128BB
330
1289F
100
AcDbEntity
  8
0
 62
     7
370
    35
100
AcDbCircle
 10
32.046392
 20
10.8
 30
0.0
 40
0.8
100
AcDbArc
 50
329.833887
 51
345.0
  0
LINE
  5
128BC
330
1289F
100
AcDbEntity
  8
0
 62
     7
370
    13
100
AcDbLine
 10
32.73805
 20
10.397993
 30
0.0
 11
44.305203
 21
-10.0
 31
0.0
  0
LINE
  5
128BD
330
1289F
100
AcDbEntity
  8
0
 62
     7
 48
0.10555
370
    35
100
AcDbLine
 10
48.527193
 20
-10.0
 30
0.0
 11
44.305203
 21
-10.0
 31
0.0
  0
LINE
  5
128BE
330
1289F
100
AcDbEntity
  8
0
 62
     7
 48
0.144316
370
    35
100
AcDbLine
 10
51.412985
 20
-5.000461
 30
0.0
 11
48.527193
 21
-10.0
 31
0.0
  0
LINE
  5
128BF
330
1289F
100
AcDbEntity
  8
0
 62
     7
 48
0.314607
370
    35
100
AcDbLine
 10
51.412985
 20
-5.000461
 30
0.0
 11
51.412985
 21
7.583808999999999
 31
0.0
  0
LINE
  5
128C0
330
1289F
100
AcDbEntity
  8
0
 62
     7
 48
0.014247
370
    35
100
AcDbLine
 10
50.92035
 20
7.870264999999999
 30
0.0
 11
51.412985
 21
7.583808999999999
 31
0.0
  0
LINE
  5
128C1
330
1289F
100
AcDbEntity
  8
0
 62
     7
 48
0.052489
370
    35
100
AcDbLine
 10
38.251832
 20
15.0
 30
0.0
 11
39.576392
 21
13.370977
 31
0.0
  0
LINE
  5
128C2
330
1289F
100
AcDbEntity
  8
0
 62
     7
370
    35
100
AcDbLine
 10
-69.0
 20
-10.0
 30
0.0
 11
33.708906
 21
-10.0
 31
0.0
  0
LINE
  5
128C3
330
1289F
100
AcDbEntity
  8
0
 62
     7
 48
0.019119
370
    35
100
AcDbLine
 10
43.540447
 20
-10.0
 30
0.0
 11
44.305203
 21
-10.0
 31
0.0
  0
LINE
  5
128C4
330
1289F
100
AcDbEntity
  8
0
 62
     7
 48
0.014768
370
    35
100
AcDbLine
 10
43.540447
 20
-10.0
 30
0.0
 11
42.949725
 21
-10.0
 31
0.0
  0
LINE
  5
128C5
330
1289F
100
AcDbEntity
  8
0
 62
     7
 48
0.23102
370
    35
100
AcDbLine
 10
42.949725
 20
-10.0
 30
0.0
 11
33.708906
 21
-10.0
 31
0.0
  0
LINE
  5
128C6
330
1289F
100
AcDbEntity
  8
0
 62
     7
 48
0.201504
370
    35
100
AcDbLine
 10
31.608263
 20
10.0
 30
0.0
 11
23.548112
 21
10.0
 31
0.0
  0
LINE
  5
128C7
330
1289F
100
AcDbEntity
  8
0
 62
     7
 48
0.010953
370
    35
100
AcDbLine
 10
31.608263
 20
10.0
 30
0.0
 11
32.046392
 21
10.0
 31
0.0
  0
LINE
  5
128C8
330
1289F
100
AcDbEntity
  8
0
 62
     7
370
    35
100
AcDbLine
 10
-69.0
 20
10.0
 30
0.0
 11
23.548112
 21
10.0
 31
0.0
  0
ARC
  5
128C9
330
1289F
100
AcDbEntity
  8
0
 62
     7
370
    35
100
AcDbCircle
 10
32.046392
 20
10.8
 30
0.0
 40
0.8
100
AcDbArc
 50
270.0
 51
329.833887
  0
LINE
  5
128CA
330
1289F
100
AcDbEntity
  8
0
 62
     7
370
    13
100
AcDbLine
 10
43.540447
 20
-10.0
 30
0.0
 11
32.191464
 21
10.013264
 31
0.0
  0
LINE
  5
128CB
330
1289F
100
AcDbEntity
  8
0
 62
     7
370
    35
100
AcDbLine
 10
23.548112
 20
10.0
 30
0.0
 11
33.708906
 21
-10.0
 31
0.0
  0
LINE
  5
128CC
330
1289F
100
AcDbEntity
  8
0
 62
     7
370
    35
100
AcDbLine
 10
-69.0
 20
10.0
 30
0.0
 11
-69.0
 21
-10.0
 31
0.0
  0
LINE
  5
128CD
330
1289F
100
AcDbEntity
  8
0
 62
     7
 48
0.035355
370
    35
100
AcDbLine
 10
-69.0
 20
-10.0
 30
0.0
 11
-70.0
 21
-9.0
 31
0.0
  0
LINE
  5
128CE
330
1289F
100
AcDbEntity
  8
0
 62
     7
370
    35
100
AcDbLine
 10
31.608263
 20
10.0
 30
0.0
 11
42.949725
 21
-10.0
 31
0.0
  0
LINE
  5
128CF
330
1289F
100
AcDbEntity
  8
0
 62
     7
 48
0.035355
370
    35
100
AcDbLine
 10
-69.0
 20
10.0
 30
0.0
 11
-70.0
 21
9.0
 31
0.0
  0
LINE
  5
128D0
330
1289F
100
AcDbEntity
  8
0
 62
     7
 48
0.45
370
    35
100
AcDbLine
 10
-70.0
 20
9.0
 30
0.0
 11
-70.0
 21
-9.0
 31
0.0
  0
ELLIPSE
  5
128D1
330
1289F
100
AcDbEntity
  8
0
 62
     7
370
    35
100
AcDbEllipse
 10
46.96726199999999
 20
10.015176
 30
0.0
 11
-0.3084830939769745
 21
2.077218770980834
 31
0.0
210
0.0
220
0.0
230
1.0
 40
0.9844799999999997
 41
1.514357022038674
 42
7.797542329188966
  0
LINE
  5
128D2
330
1289F
100
AcDbEntity
  8
0
 62
     7
 48
0.01079
370
    35
100
AcDbLine
 10
46.45768799999999
 20
1.972691
 30
0.0
 11
46.03078299999999
 21
1.909291999999999
 31
0.0
  0
LINE
  5
128D3
330
1289F
100
AcDbEntity
  8
0
 62
     7
 48
0.006362
370
    35
100
AcDbLine
 10
40.873015
 20
14.948318
 30
0.0
 11
40.621309
 21
14.910938
 31
0.0
  0
ARC
  5
128D4
330
1289F
100
AcDbEntity
  8
0
 62
     7
370
    35
100
AcDbCircle
 10
40.00995399999999
 20
-45.48701799999999
 30
0.0
 40
60.17285799999999
100
AcDbArc
 50
90.014438
 51
91.36165899999999
  0
LINE
  5
128D5
330
1289F
100
AcDbEntity
  8
0
 62
     7
 48
0.142218
370
    13
100
AcDbLine
 10
43.51292700000001
 20
6.492035999999999
 30
0.0
 11
48.41053699999999
 21
3.598087999999999
 31
0.0
  0
ELLIPSE
  5
128D6
330
1289F
100
AcDbEntity
  8
0
 62
     7
370
    35
100
AcDbEllipse
 10
48.709442
 20
3.853657
 30
0.0
 11
-0.5087170004844666
 21
-0.8609338402748107
 31
0.0
210
0.0
220
0.0
230
0.9999999999999998
 40
0.137176
 41
3.538203970210021
 42
5.09364403379516
  0
LINE
  5
128D7
330
1289F
100
AcDbEntity
  8
0
 62
     7
 48
0.194831
370
    35
100
AcDbLine
 10
42.423571
 20
8.639279999999999
 30
0.0
 11
49.13305
 21
4.674718
 31
0.0
  0
ELLIPSE
  5
128D8
330
1289F
100
AcDbEntity
  8
0
 62
     7
370
    35
100
AcDbEllipse
 10
43.417099
 20
6.980849
 30
0.0
 11
0.9895648956298829
 21
-1.734463572502136
 31
0.0
210
0.0
220
0.0
230
1.0
 40
0.081945
 41
3.395604452195927
 42
4.95104451472104
  0
LINE
  5
128D9
330
1289F
100
AcDbEntity
  8
0
 62
     7
 48
0.024001
370
    35
100
AcDbLine
 10
43.953357
 20
5.754618999999999
 30
0.0
 11
44.445642
 21
4.930380999999999
 31
0.0
  0
LINE
  5
128DA
330
1289F
100
AcDbEntity
  8
0
 62
     7
 48
0.003358
370
    35
100
AcDbLine
 10
44.56127999999999
 20
4.862051999999999
 30
0.0
 11
44.445642
 21
4.930380999999999
 31
0.0
  0
ARC
  5
128DB
330
1289F
100
AcDbEntity
  8
0
 62
     7
370
    35
100
AcDbCircle
 10
44.66306399999999
 20
5.030612999999999
 30
0.0
 40
0.196815
100
AcDbArc
 50
238.8747700000001
 51
277.805851
  0
ARC
  5
128DC
330
1289F
100
AcDbEntity
  8
0
 62
     7
370
    35
100
AcDbCircle
 10
44.665536
 20
5.005726999999999
 30
0.0
 40
0.171675
100
AcDbArc
 50
278.116471
 51
316.240883
  0
LINE
  5
128DD
330
1289F
100
AcDbEntity
  8
0
 62
     7
 48
0.009501
370
    35
100
AcDbLine
 10
44.789509
 20
4.887011
 30
0.0
 11
45.051513
 21
5.162303999999999
 31
0.0
  0
ARC
  5
128DE
330
1289F
100
AcDbEntity
  8
0
 62
     7
370
    35
100
AcDbCircle
 10
45.17771299999999
 20
5.016892999999999
 30
0.0
 40
0.198599
100
AcDbArc
 50
54.087329
 51
97.66882
  0
ARC
  5
128DF
330
1289F
100
AcDbEntity
  8
0
 62
     7
370
    35
100
AcDbCircle
 10
45.175381
 20
5.043752999999999
 30
0.0
 40
0.17148
100
AcDbArc
 50
98.09424200000002
 51
136.25663
  0
LINE
  5
128E0
330
1289F
100
AcDbEntity
  8
0
 62
     7
 48
0.02526
370
    35
100
AcDbLine
 10
45.294282
 20
5.177851
 30
0.0
 11
46.119478
 21
4.594786
 31
0.0
  0
ARC
  5
128E1
330
1289F
100
AcDbEntity
  8
0
 62
     7
370
    35
100
AcDbCircle
 10
46.058066
 20
4.507576999999999
 30
0.0
 40
0.106825
100
AcDbArc
 50
5.051153
 51
54.847064
  0
ARC
  5
128E2
330
1289F
100
AcDbEntity
  8
0
 62
     7
370
    35
100
AcDbCircle
 10
46.07528099999999
 20
4.508474999999999
 30
0.0
 40
0.089577
100
AcDbArc
 50
347.875393
 51
5.448743
  0
LINE
  5
128E3
330
1289F
100
AcDbEntity
  8
0
 62
     7
 48
0.037612
370
    35
100
AcDbLine
 10
45.856412
 20
3.016739999999999
 30
0.0
 11
46.162841
 21
4.489664
 31
0.0
  0
ARC
  5
128E4
330
1289F
100
AcDbEntity
  8
0
 62
     7
370
    35
100
AcDbCircle
 10
46.044307
 20
2.978061999999999
 30
0.0
 40
0.191841
100
AcDbArc
 50
168.368088
 51
184.771906
  0
ARC
  5
128E5
330
1289F
100
AcDbEntity
  8
0
 62
     7
370
    35
100
AcDbCircle
 10
46.066594
 20
2.981963
 30
0.0
 40
0.214509
100
AcDbArc
 50
185.31543
 51
239.496434
  0
LINE
  5
128E6
330
1289F
100
AcDbEntity
  8
0
 62
     7
 48
0.016274
370
    35
100
AcDbLine
 10
45.957677
 20
2.797086
 30
0.0
 11
46.518109
 21
2.465932
 31
0.0
  0
ARC
  5
128E7
330
1289F
100
AcDbEntity
  8
0
 62
     7
370
    35
100
AcDbCircle
 10
46.619893
 20
2.634493999999999
 30
0.0
 40
0.196815
100
AcDbArc
 50
238.874772
 51
277.805851
  0
ARC
  5
128E8
330
1289F
100
AcDbEntity
  8
0
 62
     7
370
    35
100
AcDbCircle
 10
46.622365
 20
2.609608
 30
0.0
 40
0.171674
100
AcDbArc
 50
278.11647
 51
316.240884
  0
LINE
  5
128E9
330
1289F
100
AcDbEntity
  8
0
 62
     7
 48
0.036537
370
    35
100
AcDbLine
 10
46.746338
 20
2.490891999999999
 30
0.0
 11
47.753882
 21
3.549533999999999
 31
0.0
  0
ARC
  5
128EA
330
1289F
100
AcDbEntity
  8
0
 62
     7
370
    35
100
AcDbCircle
 10
47.818329
 20
3.483732999999999
 30
0.0
 40
0.092538
100
AcDbArc
 50
62.94029399999999
 51
99.433523
  0
ARC
  5
128EB
330
1289F
100
AcDbEntity
  8
0
 62
     7
370
    35
100
AcDbCircle
 10
47.815852
 20
3.490038999999999
 30
0.0
 40
0.085967
100
AcDbArc
 50
98.49384100000001
 51
136.166814
  0
LINE
  5
128EC
330
1289F
100
AcDbEntity
  8
0
 62
     7
 48
0.011843
370
    35
100
AcDbLine
 10
47.860401
 20
3.566091999999999
 30
0.0
 11
48.286644
 21
3.35939
 31
0.0
  0
LINE
  5
128ED
330
1289F
100
AcDbEntity
  8
0
 62
     7
 48
0.006723
370
    35
100
AcDbLine
 10
48.41053699999999
 20
3.598087999999999
 30
0.0
 11
48.286644
 21
3.35939
 31
0.0
  0
LINE
  5
128EE
330
1289F
100
AcDbEntity
  8
0
 62
     7
 48
0.004235
370
    35
100
AcDbLine
 10
43.51292700000001
 20
6.492035999999999
 30
0.0
 11
43.599793
 21
6.346594
 31
0.0
  0
LINE
  5
128EF
330
1289F
100
AcDbEntity
  8
0
 62
     7
 48
0.008534
370
    35
100
AcDbLine
 10
43.893689
 20
6.172933999999999
 30
0.0
 11
43.599793
 21
6.346594
 31
0.0
  0
ARC
  5
128F0
330
1289F
100
AcDbEntity
  8
0
 62
     7
370
    35
100
AcDbCircle
 10
43.78497199999999
 20
5.988394
 30
0.0
 40
0.214117
100
AcDbArc
 50
5.315428999999999
 51
59.496435
  0
ARC
  5
128F1
330
1289F
100
AcDbEntity
  8
0
 62
     7
370
    35
100
AcDbCircle
 10
43.807217
 20
5.992288999999999
 30
0.0
 40
0.191491
100
AcDbArc
 50
348.368087
 51
4.771905
  0
LINE
  5
128F2
330
1289F
100
AcDbEntity
  8
0
 62
     7
 48
0.005083
370
    35
100
AcDbLine
 10
43.953357
 20
5.754618999999999
 30
0.0
 11
43.99477
 21
5.953680999999999
 31
0.0
  0
LINE
  5
128F3
330
1289F
100
AcDbEntity
  8
0
 62
     7
 48
0.004245
370
    35
100
AcDbLine
 10
51.637044
 20
9.253697
 30
0.0
 11
51.723958
 21
9.399549
 31
0.0
  0
ELLIPSE
  5
128F4
330
1289F
100
AcDbEntity
  8
0
 62
     7
370
    35
100
AcDbEllipse
 10
51.54108
 20
8.817113
 30
0.0
 11
-0.9931432604789732
 21
-1.725597262382506
 31
0.0
210
0.0
220
0.0
230
1.0
 40
0.069213
 41
4.49662471344676
 42
6.052042181880166
  0
LINE
  5
128F5
330
1289F
100
AcDbEntity
  8
0
 62
     7
 48
0.071335
370
    35
100
AcDbLine
 10
50.54699
 20
7.153154999999999
 30
0.0
 11
49.13305
 21
4.674718
 31
0.0
  0
LINE
  5
128F6
330
1289F
100
AcDbEntity
  8
0
 62
     7
 48
0.013253
370
    35
100
AcDbLine
 10
48.286644
 20
3.35939
 30
0.0
 11
47.762282
 21
3.281518
 31
0.0
  0
LINE
  5
128F7
330
1289F
100
AcDbEntity
  8
0
 62
     7
 48
0.071619
370
    35
100
AcDbLine
 10
41.01044799999999
 20
11.13124
 30
0.0
 11
42.423571
 21
8.639279999999999
 31
0.0
  0
LINE
  5
128F8
330
1289F
100
AcDbEntity
  8
0
 62
     7
 48
0.196623
370
    35
100
AcDbLine
 10
50.548282
 20
15.018084
 30
0.0
 11
50.54699
 21
7.153154999999999
 31
0.0
  0
LINE
  5
128F9
330
1289F
100
AcDbEntity
  8
0
 62
     7
 48
0.070677
370
    35
100
AcDbLine
 10
50.548282
 20
15.018084
 30
0.0
 11
47.721219
 21
15.031607
 31
0.0
  0
LINE
  5
128FA
330
1289F
100
AcDbEntity
  8
0
 62
     7
 48
0.194048
370
    35
100
AcDbLine
 10
41.01044799999999
 20
11.13124
 30
0.0
 11
47.721219
 21
15.031607
 31
0.0
  0
ELLIPSE
  5
128FB
330
1289F
100
AcDbEntity
  8
0
 62
     7
370
    35
100
AcDbEllipse
 10
40.587112
 20
11.97136
 30
0.0
 11
-0.5025007128715516
 21
0.8645768165588378
 31
0.0
210
0.0
220
0.0
230
1.0
 40
0.163381
 41
1.720747049952097
 42
2.790723672472512
  0
LINE
  5
128FC
330
1289F
100
AcDbEntity
  8
0
 62
     7
 48
0.00684
370
    35
100
AcDbLine
 10
40.288284
 20
12.178504
 30
0.0
 11
40.16447099999999
 21
12.422501
 31
0.0
  0
LINE
  5
128FD
330
1289F
100
AcDbEntity
  8
0
 62
     7
 48
0.000276
370
    35
100
AcDbLine
 10
40.16447099999999
 20
12.422501
 30
0.0
 11
40.15354099999999
 21
12.420878
 31
0.0
  0
LINE
  5
128FE
330
1289F
100
AcDbEntity
  8
0
 62
     7
 48
0.001167
370
    35
100
AcDbLine
 10
43.599793
 20
6.346594
 30
0.0
 11
43.553629
 21
6.339738999999999
 31
0.0
  0
LINE
  5
128FF
330
1289F
100
AcDbEntity
  8
0
 62
     7
 48
0.002427
370
    35
100
AcDbLine
 10
44.445642
 20
4.930380999999999
 30
0.0
 11
44.349604
 21
4.916117999999999
 31
0.0
  0
LINE
  5
12900
330
1289F
100
AcDbEntity
  8
0
 62
     7
 48
0.001694
370
    35
100
AcDbLine
 10
43.886345
 20
5.744666999999999
 30
0.0
 11
43.953357
 21
5.754618999999999
 31
0.0
  0
LINE
  5
12901
330
1289F
100
AcDbEntity
  8
0
 62
     7
 48
0.004234
370
    13
100
AcDbLine
 10
44.56127999999999
 20
4.862051999999999
 30
0.0
 11
44.393745
 21
4.837170999999999
 31
0.0
  0
LINE
  5
12902
330
1289F
100
AcDbEntity
  8
0
 62
     7
 48
0.00671
370
    13
100
AcDbLine
 10
45.294282
 20
5.177851
 30
0.0
 11
45.028788
 21
5.138423999999999
 31
0.0
  0
LINE
  5
12903
330
1289F
100
AcDbEntity
  8
0
 62
     7
 48
0.021152
370
    35
100
AcDbLine
 10
44.90355899999999
 20
5.006841
 30
0.0
 11
45.59317199999999
 21
4.516626
 31
0.0
  0
LINE
  5
12904
330
1289F
100
AcDbEntity
  8
0
 62
     7
 48
0.013302
370
    13
100
AcDbLine
 10
46.119478
 20
4.594786
 30
0.0
 11
45.59317199999999
 21
4.516626
 31
0.0
  0
ARC
  5
12905
330
1289F
100
AcDbEntity
  8
0
 62
     7
370
    35
100
AcDbCircle
 10
45.534696
 20
4.433707
 30
0.0
 40
0.101433
100
AcDbArc
 50
2.707195999999999
 51
54.807814
  0
LINE
  5
12906
330
1289F
100
AcDbEntity
  8
0
 62
     7
 48
0.000691
370
    35
100
AcDbLine
 10
45.635975
 20
4.438495999999999
 30
0.0
 11
45.633115
 21
4.410995999999999
 31
0.0
  0
LINE
  5
12907
330
1289F
100
AcDbEntity
  8
0
 62
     7
 48
0.013388
370
    13
100
AcDbLine
 10
46.162841
 20
4.489664
 30
0.0
 11
45.633115
 21
4.410995999999999
 31
0.0
  0
LINE
  5
12908
330
1289F
100
AcDbEntity
  8
0
 62
     7
 48
0.03174
370
    35
100
AcDbLine
 10
45.633115
 20
4.410995999999999
 30
0.0
 11
45.31994799999999
 21
3.180636999999999
 31
0.0
  0
LINE
  5
12909
330
1289F
100
AcDbEntity
  8
0
 62
     7
 48
0.010381
370
    13
100
AcDbLine
 10
45.856412
 20
3.016739999999999
 30
0.0
 11
45.445689
 21
2.955745
 31
0.0
  0
LINE
  5
1290A
330
1289F
100
AcDbEntity
  8
0
 62
     7
 48
0.009878
370
    13
100
AcDbLine
 10
45.957677
 20
2.797086
 30
0.0
 11
45.56685
 21
2.739044999999999
 31
0.0
  0
LINE
  5
1290B
330
1289F
100
AcDbEntity
  8
0
 62
     7
 48
0.006085
370
    35
100
AcDbLine
 10
45.700788
 20
2.499493999999999
 30
0.0
 11
45.910338
 21
2.375672999999999
 31
0.0
  0
LINE
  5
1290C
330
1289F
100
AcDbEntity
  8
0
 62
     7
 48
0.015361
370
    13
100
AcDbLine
 10
46.518109
 20
2.465932
 30
0.0
 11
45.910338
 21
2.375672999999999
 31
0.0
  0
ARC
  5
1290D
330
1289F
100
AcDbEntity
  8
0
 62
     7
370
    35
100
AcDbCircle
 10
46.012523
 20
2.547099
 30
0.0
 40
0.199536
100
AcDbArc
 50
239.201149
 51
278.195293
  0
LINE
  5
1290E
330
1289F
100
AcDbEntity
  8
0
 62
     7
 48
0.002672
370
    13
100
AcDbLine
 10
47.860401
 20
3.566091999999999
 30
0.0
 11
47.7547
 21
3.550394999999999
 31
0.0
  0
LINE
  5
1290F
330
1289F
100
AcDbEntity
  8
0
 62
     7
 48
0.005013
370
    35
100
AcDbLine
 10
47.581671
 20
3.368583999999999
 30
0.0
 11
47.762282
 21
3.281518
 31
0.0
  0
LINE
  5
12910
330
1289F
100
AcDbEntity
  8
0
 62
     7
 48
0.005759
370
    13
100
AcDbLine
 10
43.893689
 20
6.172933999999999
 30
0.0
 11
43.665814
 21
6.139092999999999
 31
0.0
  0
LINE
  5
12911
330
1289F
100
AcDbEntity
  8
0
 62
     7
 48
0.005257
370
    13
100
AcDbLine
 10
43.99477
 20
5.953680999999999
 30
0.0
 11
43.78675399999999
 21
5.922788999999999
 31
0.0
  0
LINE
  5
12912
330
1289F
100
AcDbEntity
  8
0
 62
     7
 48
0.008613
370
    35
100
AcDbLine
 10
51.724015
 20
9.744058
 30
0.0
 11
51.723958
 21
9.399549
 31
0.0
  0
LINE
  5
12913
330
1289F
100
AcDbEntity
  8
0
 62
     7
 48
0.024055
370
    35
100
AcDbLine
 10
52.077717
 20
9.993195
 30
0.0
 11
52.570273
 21
10.819758
 31
0.0
  0
LINE
  5
12914
330
1289F
100
AcDbEntity
  8
0
 62
     7
 48
0.003389
370
    35
100
AcDbLine
 10
52.57029499999999
 20
10.955309
 30
0.0
 11
52.570273
 21
10.819758
 31
0.0
  0
ARC
  5
12915
330
1289F
100
AcDbEntity
  8
0
 62
     7
370
    35
100
AcDbCircle
 10
52.371072
 20
10.955771
 30
0.0
 40
0.19918
100
AcDbArc
 50
359.867289
 51
74.95181399999999
  0
LINE
  5
12916
330
1289F
100
AcDbEntity
  8
0
 62
     7
 48
0.010274
370
    35
100
AcDbLine
 10
52.42277399999999
 20
11.14808
 30
0.0
 11
52.025692
 21
11.254001
 31
0.0
  0
ARC
  5
12917
330
1289F
100
AcDbEntity
  8
0
 62
     7
370
    35
100
AcDbCircle
 10
52.077391
 20
11.446308
 30
0.0
 40
0.199176
100
AcDbArc
 50
179.73147
 51
254.952634
  0
LINE
  5
12918
330
1289F
100
AcDbEntity
  8
0
 62
     7
 48
0.000424
370
    35
100
AcDbLine
 10
51.878931
 20
11.464198
 30
0.0
 11
51.878172
 21
11.447242
 31
0.0
  0
LINE
  5
12919
330
1289F
100
AcDbEntity
  8
0
 62
     7
 48
0.025395
370
    35
100
AcDbLine
 10
51.878931
 20
11.464198
 30
0.0
 11
51.96723699999999
 21
12.476161
 31
0.0
  0
ARC
  5
1291A
330
1289F
100
AcDbEntity
  8
0
 62
     7
370
    35
100
AcDbCircle
 10
52.067116
 20
12.467519
 30
0.0
 40
0.10024
100
AcDbArc
 50
105.313024
 51
175.054513
  0
LINE
  5
1291B
330
1289F
100
AcDbEntity
  8
0
 62
     7
 48
0.03956
370
    35
100
AcDbLine
 10
53.567774
 20
12.978714
 30
0.0
 11
52.040649
 21
12.564182
 31
0.0
  0
ARC
  5
1291C
330
1289F
100
AcDbEntity
  8
0
 62
     7
370
    35
100
AcDbCircle
 10
53.51488199999999
 20
13.172022
 30
0.0
 40
0.20045
100
AcDbArc
 50
285.302422
 51
359.911169
  0
LINE
  5
1291D
330
1289F
100
AcDbEntity
  8
0
 62
     7
 48
0.016424
370
    35
100
AcDbLine
 10
53.715358
 20
13.172181
 30
0.0
 11
53.71546600000001
 21
13.829126
 31
0.0
  0
ARC
  5
1291E
330
1289F
100
AcDbEntity
  8
0
 62
     7
370
    35
100
AcDbCircle
 10
53.516243
 20
13.829588
 30
0.0
 40
0.19918
100
AcDbArc
 50
359.867289
 51
74.95181399999999
  0
LINE
  5
1291F
330
1289F
100
AcDbEntity
  8
0
 62
     7
 48
0.03951
370
    35
100
AcDbLine
 10
53.56794499999999
 20
14.021897
 30
0.0
 11
52.040955
 21
14.429219
 31
0.0
  0
ARC
  5
12920
330
1289F
100
AcDbEntity
  8
0
 62
     7
370
    35
100
AcDbCircle
 10
52.067014
 20
14.52578
 30
0.0
 40
0.100058
100
AcDbArc
 50
185.107169
 51
254.897366
  0
LINE
  5
12921
330
1289F
100
AcDbEntity
  8
0
 62
     7
 48
0.012008
370
    35
100
AcDbLine
 10
51.967572
 20
14.516893
 30
0.0
 11
51.925955
 21
14.995414
 31
0.0
  0
LINE
  5
12922
330
1289F
100
AcDbEntity
  8
0
 62
     7
 48
0.007199
370
    35
100
AcDbLine
 10
51.637987
 20
14.994734
 30
0.0
 11
51.925955
 21
14.995414
 31
0.0
  0
LINE
  5
12923
330
1289F
100
AcDbEntity
  8
0
 62
     7
 48
0.143526
370
    13
100
AcDbLine
 10
51.637044
 20
9.253697
 30
0.0
 11
51.637987
 21
14.994734
 31
0.0
  0
ARC
  5
12924
330
1289F
100
AcDbEntity
  8
0
 62
     7
370
    35
100
AcDbCircle
 10
51.92412499999999
 20
9.744216999999999
 30
0.0
 40
0.200084
100
AcDbArc
 50
105.302422
 51
179.911169
  0
LINE
  5
12925
330
1289F
100
AcDbEntity
  8
0
 62
     7
 48
0.005346
370
    35
100
AcDbLine
 10
52.077717
 20
9.993195
 30
0.0
 11
51.87133
 21
9.937172
 31
0.0
  0
ELLIPSE
  5
12926
330
1289F
100
AcDbEntity
  8
0
 62
     7
370
    35
100
AcDbEllipse
 10
51.542084
 20
15.020835
 30
0.0
 11
1.0
 21
-0.000164318116731
 31
0.0
210
0.0
220
0.0
230
1.0
 40
0.026206
 41
3.253004930810254
 42
4.808444994407712
  0
ARC
  5
12927
330
1289F
100
AcDbEntity
  8
0
 62
     7
370
    35
100
AcDbCircle
 10
39.971615
 20
12.699219
 30
0.0
 40
0.099951
100
AcDbArc
 50
312.487723
 51
358.376268
  0
LINE
  5
12928
330
1289F
100
AcDbEntity
  8
0
 62
     7
 48
0.000651
370
    35
100
AcDbLine
 10
40.06859799999999
 20
12.722273
 30
0.0
 11
40.071503
 21
12.696387
 31
0.0
  0
LINE
  5
12929
330
1289F
100
AcDbEntity
  8
0
 62
     7
 48
0.038354
370
    35
100
AcDbLine
 10
40.06859799999999
 20
12.722273
 30
0.0
 11
39.691489
 21
14.209376
 31
0.0
  0
ARC
  5
1292A
330
1289F
100
AcDbEntity
  8
0
 62
     7
370
    35
100
AcDbCircle
 10
39.877531
 20
14.256451
 30
0.0
 40
0.191907
100
AcDbArc
 50
178.597405
 51
194.199633
  0
ARC
  5
1292B
330
1289F
100
AcDbEntity
  8
0
 62
     7
370
    35
100
AcDbCircle
 10
39.886385
 20
14.255113
 30
0.0
 40
0.200878
100
AcDbArc
 50
119.988774
 51
178.27753
  0
LINE
  5
1292C
330
1289F
100
AcDbEntity
  8
0
 62
     7
 48
0.016209
370
    35
100
AcDbLine
 10
40.34649
 20
14.754941
 30
0.0
 11
39.78595
 21
14.429149
 31
0.0
  0
ARC
  5
1292D
330
1289F
100
AcDbEntity
  8
0
 62
     7
370
    35
100
AcDbCircle
 10
40.447423
 20
14.581562
 30
0.0
 40
0.200615
100
AcDbArc
 50
98.484765
 51
120.205836
  0
LINE
  5
1292E
330
1289F
100
AcDbEntity
  8
0
 62
     7
 48
0.015229
370
    35
100
AcDbLine
 10
42.67516599999999
 20
14.056741
 30
0.0
 11
42.124367
 21
13.796531
 31
0.0
  0
ARC
  5
1292F
330
1289F
100
AcDbEntity
  8
0
 62
     7
370
    35
100
AcDbCircle
 10
42.58966899999999
 20
14.238907
 30
0.0
 40
0.201172
100
AcDbArc
 50
295.142457
 51
358.244233
  0
LINE
  5
12930
330
1289F
100
AcDbEntity
  8
0
 62
     7
 48
0.000535
370
    35
100
AcDbLine
 10
42.789993
 20
14.254137
 30
0.0
 11
42.790657
 21
14.232746
 31
0.0
  0
LINE
  5
12931
330
1289F
100
AcDbEntity
  8
0
 62
     7
 48
0.00077
370
    35
100
AcDbLine
 10
42.784857
 20
14.284517
 30
0.0
 11
42.789993
 21
14.254137
 31
0.0
  0
LINE
  5
12932
330
1289F
100
AcDbEntity
  8
0
 62
     7
 48
0.009974
370
    35
100
AcDbLine
 10
42.784857
 20
14.284517
 30
0.0
 11
42.686792
 21
14.671228
 31
0.0
  0
ARC
  5
12933
330
1289F
100
AcDbEntity
  8
0
 62
     7
370
    35
100
AcDbCircle
 10
42.87265099999999
 20
14.718132
 30
0.0
 40
0.19169
100
AcDbArc
 50
178.545095
 51
194.163633
  0
ARC
  5
12934
330
1289F
100
AcDbEntity
  8
0
 62
     7
370
    35
100
AcDbCircle
 10
42.881719
 20
14.71697
 30
0.0
 40
0.200889
100
AcDbArc
 50
119.997349
 51
178.279427
  0
LINE
  5
12935
330
1289F
100
AcDbEntity
  8
0
 62
     7
 48
0.003344
370
    35
100
AcDbLine
 10
42.78125399999999
 20
14.891001
 30
0.0
 11
42.896913
 21
14.958223
 31
0.0
  0
LINE
  5
12936
330
1289F
100
AcDbEntity
  8
0
 62
     7
 48
0.00126
370
    35
100
AcDbLine
 10
44.466637
 20
14.925179
 30
0.0
 11
44.51021400000001
 21
14.950506
 31
0.0
  0
LINE
  5
12937
330
1289F
100
AcDbEntity
  8
0
 62
     7
 48
0.013016
370
    35
100
AcDbLine
 10
45.025205
 20
15.026986
 30
0.0
 11
44.51021400000001
 21
14.950506
 31
0.0
  0
LINE
  5
12938
330
1289F
100
AcDbEntity
  8
0
 62
     7
 48
0.004041
370
    35
100
AcDbLine
 10
45.186838
 20
15.025592
 30
0.0
 11
45.025205
 21
15.026986
 31
0.0
  0
SPLINE
  5
12939
330
1289F
100
AcDbEntity
  8
0
 62
     7
370
    35
100
AcDbSpline
210
0.0
220
0.0
230
1.0
 70
     8
 71
     5
 72
    18
 73
    12
 74
     0
 42
0.0000000001
 43
0.0000000001
 40
0.0
 40
0.0
 40
0.0
 40
0.0
 40
0.0
 40
0.0
 40
0.8604540657137556
 40
0.8604540657137556
 40
0.8604540657137556
 40
2.733549336863028
 40
2.733549336863028
 40
2.733549336863028
 40
4.593039497679021
 40
4.593039497679021
 40
4.593039497679021
 40
4.593039497679021
 40
4.593039497679021
 40
4.593039497679021
 10
47.72121877455611
 20
15.03160739749917
 30
0.0
 10
47.64959048711236
 20
15.02941722024414
 30
0.0
 10
47.56405285651701
 20
15.02769608042815
 30
0.0
 10
47.47683909884489
 20
15.02650340774252
 30
0.0
 10
47.18281373540236
 20
15.02281047800906
 30
0.0
 10
46.86897918730879
 20
15.02084195211902
 30
0.0
 10
46.67777432922139
 20
15.02049654649449
 30
0.0
 10
46.24671961108122
 20
15.02013785659185
 30
0.0
 10
45.81737402429006
 20
15.02142141559176
 30
0.0
 10
45.60491815580552
 20
15.02243000586888
 30
0.0
 10
45.3941721546925
 20
15.02380438127046
 30
0.0
 10
45.18683800738884
 20
15.02559242385664
 30
0.0
  0
LINE
  5
1293A
330
1289F
100
AcDbEntity
  8
0
 62
     7
 48
0.141646
370
    13
100
AcDbLine
 10
45.186838
 20
15.025592
 30
0.0
 11
40.288284
 21
12.178504
 31
0.0
  0
LINE
  5
1293B
330
1289F
100
AcDbEntity
  8
0
 62
     7
 48
0.022901
370
    35
100
AcDbLine
 10
44.36732999999999
 20
15.03266
 30
0.0
 11
43.45133599999999
 21
15.040559
 31
0.0
  0
LINE
  5
1293C
330
1289F
100
AcDbEntity
  8
0
 62
     7
 48
0.003344
370
    35
100
AcDbLine
 10
43.335676
 20
14.973337
 30
0.0
 11
43.45133599999999
 21
15.040559
 31
0.0
  0
ARC
  5
1293D
330
1289F
100
AcDbEntity
  8
0
 62
     7
370
    35
100
AcDbCircle
 10
43.443178
 20
14.789518
 30
0.0
 40
0.212942
100
AcDbArc
 50
120.320243
 51
175.922268
  0
ARC
  5
1293E
330
1289F
100
AcDbEntity
  8
0
 62
     7
370
    35
100
AcDbCircle
 10
43.42759899999999
 20
14.7917
 30
0.0
 40
0.197192
100
AcDbArc
 50
176.232728
 51
191.453822
  0
LINE
  5
1293F
330
1289F
100
AcDbEntity
  8
0
 62
     7
 48
0.009938
370
    35
100
AcDbLine
 10
43.234338
 20
14.752543
 30
0.0
 11
43.313896
 21
14.363084
 31
0.0
  0
ARC
  5
12940
330
1289F
100
AcDbEntity
  8
0
 62
     7
370
    35
100
AcDbCircle
 10
43.120542
 20
14.323922
 30
0.0
 40
0.197285
100
AcDbArc
 50
356.235897
 51
11.449782
  0
ARC
  5
12941
330
1289F
100
AcDbEntity
  8
0
 62
     7
370
    35
100
AcDbCircle
 10
43.105206
 20
14.326042
 30
0.0
 40
0.212778
100
AcDbArc
 50
295.669616
 51
355.937501
  0
LINE
  5
12942
330
1289F
100
AcDbEntity
  8
0
 62
     7
 48
0.024931
370
    35
100
AcDbLine
 10
43.197364
 20
14.134291
 30
0.0
 11
42.296186
 21
13.707224
 31
0.0
  0
ARC
  5
12943
330
1289F
100
AcDbEntity
  8
0
 62
     7
370
    35
100
AcDbCircle
 10
42.258065
 20
13.779739
 30
0.0
 40
0.081885
100
AcDbArc
 50
276.899718
 51
297.73051
  0
ARC
  5
12944
330
1289F
100
AcDbEntity
  8
0
 62
     7
370
    35
100
AcDbCircle
 10
42.254792
 20
13.787305
 30
0.0
 40
0.089663
100
AcDbArc
 50
223.342487
 51
278.393413
  0
LINE
  5
12945
330
1289F
100
AcDbEntity
  8
0
 62
     7
 48
0.037104
370
    35
100
AcDbLine
 10
41.182482
 20
14.815948
 30
0.0
 11
42.189673
 21
13.725849
 31
0.0
  0
ARC
  5
12946
330
1289F
100
AcDbEntity
  8
0
 62
     7
370
    35
100
AcDbCircle
 10
41.05497800000001
 20
14.672298
 30
0.0
 40
0.200093
100
AcDbArc
 50
98.59813100000001
 51
120.22127
  0
ARC
  5
12947
330
1289F
100
AcDbEntity
  8
0
 62
     7
370
    35
100
AcDbCircle
 10
41.05298
 20
14.694806
 30
0.0
 40
0.177426
100
AcDbArc
 50
43.089564
 51
99.04634200000002
  0
LINE
  5
12948
330
1289F
100
AcDbEntity
  8
0
 62
     7
 48
0.016209
370
    35
100
AcDbLine
 10
40.954262
 20
14.845199
 30
0.0
 11
40.393721
 21
14.519408
 31
0.0
  0
ARC
  5
12949
330
1289F
100
AcDbEntity
  8
0
 62
     7
370
    35
100
AcDbCircle
 10
40.501224
 20
14.335589
 30
0.0
 40
0.212942
100
AcDbArc
 50
120.320245
 51
175.922267
  0
ARC
  5
1294A
330
1289F
100
AcDbEntity
  8
0
 62
     7
370
    35
100
AcDbCircle
 10
40.485644
 20
14.337771
 30
0.0
 40
0.197192
100
AcDbArc
 50
176.232728
 51
191.453822
  0
LINE
  5
1294B
330
1289F
100
AcDbEntity
  8
0
 62
     7
 48
0.038215
370
    35
100
AcDbLine
 10
40.292383
 20
14.298614
 30
0.0
 11
40.598325
 21
12.800942
 31
0.0
  0
LINE
  5
1294C
330
1289F
100
AcDbEntity
  8
0
 62
     7
 48
0.000653
370
    35
100
AcDbLine
 10
40.600079
 20
12.774885
 30
0.0
 11
40.598325
 21
12.800942
 31
0.0
  0
ARC
  5
1294D
330
1289F
100
AcDbEntity
  8
0
 62
     7
370
    35
100
AcDbCircle
 10
40.493961
 20
12.782067
 30
0.0
 40
0.10633
100
AcDbArc
 50
305.058181
 51
356.1281259999999
  0
LINE
  5
1294E
330
1289F
100
AcDbEntity
  8
0
 62
     7
 48
0.011906
370
    35
100
AcDbLine
 10
40.554927
 20
12.695186
 30
0.0
 11
40.16447099999999
 21
12.422501
 31
0.0
  0
LINE
  5
1294F
330
1289F
100
AcDbEntity
  8
0
 62
     7
 48
0.0085
370
    35
100
AcDbLine
 10
44.731253
 20
14.856138
 30
0.0
 11
45.025205
 21
15.026986
 31
0.0
  0
ARC
  5
12950
330
1289F
100
AcDbEntity
  8
0
 62
     7
370
    35
100
AcDbCircle
 10
44.63072
 20
15.028723
 30
0.0
 40
0.199728
100
AcDbArc
 50
278.598132
 51
300.22127
  0
ARC
  5
12951
330
1289F
100
AcDbEntity
  8
0
 62
     7
370
    35
100
AcDbCircle
 10
44.632715
 20
15.006257
 30
0.0
 40
0.177102
100
AcDbArc
 50
223.089563
 51
279.046342
  0
LINE
  5
12952
330
1289F
100
AcDbEntity
  8
0
 62
     7
 48
0.005015
370
    35
100
AcDbLine
 10
44.36732999999999
 20
15.03266
 30
0.0
 11
44.503449
 21
14.885336
 31
0.0
  0
LINE
  5
12953
330
1289F
100
AcDbEntity
  8
0
 62
     7
 48
0.012946
370
    13
100
AcDbLine
 10
40.554927
 20
12.695186
 30
0.0
 11
40.04270199999999
 21
12.619117
 31
0.0
  0
LINE
  5
12954
330
1289F
100
AcDbEntity
  8
0
 62
     7
 48
0.013388
370
    13
100
AcDbLine
 10
40.598325
 20
12.800942
 30
0.0
 11
40.06859799999999
 21
12.722273
 31
0.0
  0
LINE
  5
12955
330
1289F
100
AcDbEntity
  8
0
 62
     7
 48
0.015187
370
    13
100
AcDbLine
 10
40.292383
 20
14.298614
 30
0.0
 11
39.691489
 21
14.209376
 31
0.0
  0
LINE
  5
12956
330
1289F
100
AcDbEntity
  8
0
 62
     7
 48
0.015361
370
    13
100
AcDbLine
 10
40.393721
 20
14.519408
 30
0.0
 11
39.78595
 21
14.429149
 31
0.0
  0
LINE
  5
12957
330
1289F
100
AcDbEntity
  8
0
 62
     7
 48
0.015361
370
    13
100
AcDbLine
 10
40.954262
 20
14.845199
 30
0.0
 11
40.34649
 21
14.754941
 31
0.0
  0
LINE
  5
12958
330
1289F
100
AcDbEntity
  8
0
 62
     7
 48
0.001416
370
    13
100
AcDbLine
 10
42.296186
 20
13.707224
 30
0.0
 11
42.24014799999999
 21
13.698902
 31
0.0
  0
LINE
  5
12959
330
1289F
100
AcDbEntity
  8
0
 62
     7
 48
0.013198
370
    13
100
AcDbLine
 10
43.197364
 20
14.134291
 30
0.0
 11
42.67516599999999
 21
14.056741
 31
0.0
  0
LINE
  5
1295A
330
1289F
100
AcDbEntity
  8
0
 62
     7
 48
0.013371
370
    13
100
AcDbLine
 10
43.313896
 20
14.363084
 30
0.0
 11
42.784857
 21
14.284517
 31
0.0
  0
LINE
  5
1295B
330
1289F
100
AcDbEntity
  8
0
 62
     7
 48
0.013839
370
    13
100
AcDbLine
 10
43.234338
 20
14.752543
 30
0.0
 11
42.686792
 21
14.671228
 31
0.0
  0
LINE
  5
1295C
330
1289F
100
AcDbEntity
  8
0
 62
     7
 48
0.014013
370
    13
100
AcDbLine
 10
43.335676
 20
14.973337
 30
0.0
 11
42.78125399999999
 21
14.891001
 31
0.0
  0
LINE
  5
1295D
330
1289F
100
AcDbEntity
  8
0
 62
     7
 48
0.014013
370
    35
100
AcDbLine
 10
43.45133599999999
 20
15.040559
 30
0.0
 11
42.896913
 21
14.958223
 31
0.0
  0
LINE
  5
1295E
330
1289F
100
AcDbEntity
  8
0
 62
     7
 48
0.003616
370
    13
100
AcDbLine
 10
44.731253
 20
14.856138
 30
0.0
 11
44.588172
 21
14.83489
 31
0.0
  0
LINE
  5
1295F
330
1289F
100
AcDbEntity
  8
0
 62
     7
 48
0.006888
370
    35
100
AcDbLine
 10
44.689749
 20
4.835694
 30
0.0
 11
44.417202
 21
4.795219
 31
0.0
  0
LINE
  5
12960
330
1289F
100
AcDbEntity
  8
0
 62
     7
 48
0.015306
370
    35
100
AcDbLine
 10
46.646578
 20
2.439575
 30
0.0
 11
46.04096199999999
 21
2.349636
 31
0.0
  0
LINE
  5
12961
330
1289F
100
AcDbEntity
  8
0
 62
     7
 48
0.015344
370
    35
100
AcDbLine
 10
41.02491699999999
 20
14.870136
 30
0.0
 11
40.417823
 21
14.779978
 31
0.0
  0
ENDBLK
  5
12962
330
1289F
100
AcDbEntity
  8
0
100
AcDbBlockEnd
  0
BLOCK
  5
12964
330
12963
100
AcDbEntity
  8
0
370
     0
100
AcDbBlockBegin
  2
BLOCK4
 70
     0
 10
0.0
 20
0.0
 30
0.0
  3
BLOCK4
  1

  0
ELLIPSE
  5
12965
330
12963
100
AcDbEntity
  8
0
 62
     7
370
    35
100
AcDbEllipse
 10
40.180813
 20
25.961287
 30
0.0
 11
2.699946880340576
 21
-0.0169235914945602
 31
0.0
210
0.0
220
0.0
230
0.9999999999999998
 40
0.9996569999999998
 41
3.141755317421211
 42
4.403876589542051
  0
ELLIPSE
  5
12966
330
12963
100
AcDbEntity
  8
0
 62
     7
370
    35
100
AcDbEllipse
 10
40.180813
 20
25.961287
 30
0.0
 11
2.699946880340576
 21
-0.0169235914945602
 31
0.0
210
0.0
220
0.0
230
0.9999999999999998
 40
0.9996569999999998
 41
5.548867059255775
 42
6.283206435181749
  0
ELLIPSE
  5
12967
330
12963
100
AcDbEntity
  8
0
 62
     7
370
    35
100
AcDbEllipse
 10
40.180721
 20
25.946804
 30
0.0
 11
2.999941110610961
 21
-0.0188039913773537
 31
0.0
210
0.0
220
0.0
230
0.9999999999999998
 40
0.999657
 41
0.0158646210554217
 42
0.680740211966492
  0
ELLIPSE
  5
12968
330
12963
100
AcDbEntity
  8
0
 62
     7
370
    35
100
AcDbEllipse
 10
40.180721
 20
25.946804
 30
0.0
 11
2.999941110610961
 21
-0.0188039913773537
 31
0.0
210
0.0
220
0.0
230
0.9999999999999998
 40
0.999657
 41
0.6807402111948563
 42
3.125789887811256
  0
ARC
  5
12969
330
12963
100
AcDbEntity
  8
0
 62
     7
370
    35
100
AcDbCircle
 10
40.18116099999999
 20
25.963125
 30
0.0
 40
2.700572
100
AcDbArc
 50
286.095396
 51
317.543534
  0
ARC
  5
1296A
330
12963
100
AcDbEntity
  8
0
 62
     7
370
    35
100
AcDbCircle
 10
40.18061699999999
 20
25.964485
 30
0.0
 40
2.702033999999999
100
AcDbArc
 50
251.92435
 51
286.0984919999999
  0
LINE
  5
1296B
330
12963
100
AcDbEntity
  8
0
 62
     7
 48
0.027751
370
    35
100
AcDbLine
 10
39.52406
 20
22.300769
 30
0.0
 11
39.34225
 21
23.395804
 31
0.0
  0
LINE
  5
1296C
330
12963
100
AcDbEntity
  8
0
 62
     7
 48
0.030986
370
    35
100
AcDbLine
 10
42.856836
 20
24.60553
 30
0.0
 11
44.077488
 21
24.820611
 31
0.0
  0
LINE
  5
1296D
330
12963
100
AcDbEntity
  8
0
 62
     7
 48
0.009691
370
    35
100
AcDbLine
 10
42.47507399999999
 20
24.538263
 30
0.0
 11
42.856836
 21
24.60553
 31
0.0
  0
ELLIPSE
  5
1296E
330
12963
100
AcDbEntity
  8
0
 62
     7
370
    35
100
AcDbEllipse
 10
40.181171
 20
26.01894
 30
0.0
 11
2.699946880340576
 21
-0.0169235914945602
 31
0.0
210
0.0
220
0.0
230
0.9999999999999998
 40
0.9996569999999998
 41
3.087494524237511
 42
3.141569804909759
  0
ELLIPSE
  5
1296F
330
12963
100
AcDbEntity
  8
0
 62
     7
370
    13
100
AcDbEllipse
 10
40.181171
 20
26.01894
 30
0.0
 11
2.699946880340576
 21
-0.0169235914945602
 31
0.0
210
0.0
220
0.0
230
0.9999999999999998
 40
0.9996569999999998
 41
3.141569804909759
 42
6.283162458475593
  0
ARC
  5
12970
330
12963
100
AcDbEntity
  8
0
 62
     7
370
    35
100
AcDbCircle
 10
40.057578
 20
26.046406
 30
0.0
 40
3.12338
100
AcDbArc
 50
333.682306
 51
353.204955
  0
ARC
  5
12971
330
12963
100
AcDbEntity
  8
0
 62
     7
370
    35
100
AcDbCircle
 10
40.17954399999999
 20
26.041751
 30
0.0
 40
3.001768
100
AcDbArc
 50
353.017736
 51
359.636536
  0
ARC
  5
12972
330
12963
100
AcDbEntity
  8
0
 62
     7
370
    35
100
AcDbCircle
 10
40.179664
 20
26.041869
 30
0.0
 40
3.001643
100
AcDbArc
 50
359.634271
 51
38.63306400000001
  0
LINE
  5
12973
330
12963
100
AcDbEntity
  8
0
 62
     7
 48
0.001404
370
    35
100
AcDbLine
 10
42.856836
 20
24.60553
 30
0.0
 11
42.857188
 21
24.661677
 31
0.0
  0
ARC
  5
12974
330
12963
100
AcDbEntity
  8
0
 62
     7
370
    35
100
AcDbCircle
 10
40.181314
 20
26.042973
 30
0.0
 40
2.999758
100
AcDbArc
 50
38.636266
 51
179.536723
  0
ARC
  5
12975
330
12963
100
AcDbEntity
  8
0
 62
     7
370
    35
100
AcDbCircle
 10
40.18299299999999
 20
26.041706
 30
0.0
 40
3.001673999999999
100
AcDbArc
 50
179.512798
 51
218.632884
  0
ARC
  5
12976
330
12963
100
AcDbEntity
  8
0
 62
     7
370
    35
100
AcDbCircle
 10
40.18211299999999
 20
26.041122
 30
0.0
 40
3.000616999999999
100
AcDbArc
 50
218.634671
 51
226.856492
  0
LINE
  5
12977
330
12963
100
AcDbEntity
  8
0
 62
     7
 48
0.000827
370
    35
100
AcDbLine
 10
38.129999
 20
23.818674
 30
0.0
 11
38.130206
 21
23.851742
 31
0.0
  0
ARC
  5
12978
330
12963
100
AcDbEntity
  8
0
 62
     7
370
    35
100
AcDbCircle
 10
40.30603499999999
 20
26.079147
 30
0.0
 40
3.137653999999999
100
AcDbArc
 50
226.090332
 51
236.901385
  0
ARC
  5
12979
330
12963
100
AcDbEntity
  8
0
 62
     7
370
    35
100
AcDbCircle
 10
40.347765
 20
26.089463
 30
0.0
 40
3.169195
100
AcDbArc
 50
236.371219
 51
252.541423
  0
LINE
  5
1297A
330
12963
100
AcDbEntity
  8
0
 62
     7
 48
0.144187
370
    35
100
AcDbLine
 10
39.59413
 20
17.770796
 30
0.0
 11
38.592621
 21
23.450635
 31
0.0
  0
LINE
  5
1297B
330
12963
100
AcDbEntity
  8
0
 62
     7
 48
0.014289
370
    35
100
AcDbLine
 10
40.160944
 20
17.844194
 30
0.0
 11
39.59413
 21
17.770796
 31
0.0
  0
ELLIPSE
  5
1297C
330
12963
100
AcDbEntity
  8
0
 62
     7
370
    35
100
AcDbEllipse
 10
40.87819699999999
 20
22.511038
 30
0.0
 11
1.723413586616515
 21
0.3038842976093292
 31
0.0
210
0.0
220
0.0
230
1.0
 40
0.02578
 41
1.56608393845697
 42
3.141643997508188
  0
LINE
  5
1297D
330
12963
100
AcDbEntity
  8
0
 62
     7
 48
0.029591
370
    35
100
AcDbLine
 10
40.87848499999999
 20
22.556899
 30
0.0
 11
42.04416499999999
 21
22.762294
 31
0.0
  0
ELLIPSE
  5
1297E
330
12963
100
AcDbEntity
  8
0
 62
     7
370
    35
100
AcDbEllipse
 10
41.61018799999999
 20
25.223495
 30
0.0
 11
-2.499950885772704
 21
0.0156699921935797
 31
0.0
210
0.0
220
0.0
230
1.0
 40
0.999657
 41
1.751536538189773
 42
3.01764021095438
  0
LINE
  5
1297F
330
12963
100
AcDbEntity
  8
0
 62
     7
 48
0.031268
370
    35
100
AcDbLine
 10
44.08889600000001
 20
24.87886
 30
0.0
 11
42.857188
 21
24.661677
 31
0.0
  0
ELLIPSE
  5
12980
330
12963
100
AcDbEntity
  8
0
 62
     7
370
    35
100
AcDbEllipse
 10
49.62795999999999
 20
22.621489
 30
0.0
 11
0.1969615519046783
 21
0.0347296372056007
 31
0.0
210
0.0
220
0.0
230
0.9999999999999998
 40
0.02578
 41
1.042485162399363
 42
1.566083937814526
  0
LINE
  5
12981
330
12963
100
AcDbEntity
  8
0
 62
     7
 48
0.215718
370
    35
100
AcDbLine
 10
41.13019099999999
 20
21.129402
 30
0.0
 11
49.62799099999999
 21
22.626729
 31
0.0
  0
ELLIPSE
  5
12982
330
12963
100
AcDbEntity
  8
0
 62
     7
370
    35
100
AcDbEllipse
 10
41.129902
 20
21.083542
 30
0.0
 11
1.723413586616515
 21
0.3038842976093292
 31
0.0
210
0.0
220
0.0
230
1.0
 40
0.02578
 41
3.141643997355477
 42
3.66047904019414
  0
ELLIPSE
  5
12983
330
12963
100
AcDbEntity
  8
0
 62
     7
370
    35
100
AcDbEllipse
 10
41.129902
 20
21.083542
 30
0.0
 11
1.723413586616515
 21
0.3038842976093292
 31
0.0
210
0.0
220
0.0
230
1.0
 40
0.02578
 41
2.524952919661295
 42
3.141643997355477
  0
ELLIPSE
  5
12984
330
12963
100
AcDbEntity
  8
0
 62
     7
370
    35
100
AcDbEllipse
 10
41.129902
 20
21.083542
 30
0.0
 11
1.723413586616515
 21
0.3038842976093292
 31
0.0
210
0.0
220
0.0
230
1.0
 40
0.02578
 41
1.566083937861992
 42
2.254454752599916
  0
LINE
  5
12985
330
12963
100
AcDbEntity
  8
0
 62
     7
 48
0.036238
370
    13
100
AcDbLine
 10
41.13019099999999
 20
21.129402
 30
0.0
 11
40.87848499999999
 21
22.556899
 31
0.0
  0
ELLIPSE
  5
12986
330
12963
100
AcDbEntity
  8
0
 62
     7
370
    13
100
AcDbEllipse
 10
40.181255
 20
26.032043
 30
0.0
 11
2.199956893920898
 21
-0.0137895932421088
 31
0.0
210
0.0
220
0.0
230
0.9999999999999998
 40
0.999657
 41
1.858175659787064
 42
8.141360966908504
  0
LINE
  5
12987
330
12963
100
AcDbEntity
  8
0
 62
     7
 48
0.152788
370
    35
100
AcDbLine
 10
49.177742
 20
26.738108
 30
0.0
 11
43.159051
 21
25.67685
 31
0.0
  0
LINE
  5
12988
330
12963
100
AcDbEntity
  8
0
 62
     7
 48
0.032935
370
    35
100
AcDbLine
 10
50.24379899999999
 20
25.964136
 30
0.0
 11
49.177742
 21
26.738108
 31
0.0
  0
LINE
  5
12989
330
12963
100
AcDbEntity
  8
0
 62
     7
 48
0.332939
370
    35
100
AcDbLine
 10
49.177742
 20
26.738108
 30
0.0
 11
46.53099199999999
 21
39.79
 31
0.0
  0
LINE
  5
1298A
330
12963
100
AcDbEntity
  8
0
 62
     7
 48
0.313275
370
    35
100
AcDbLine
 10
46.53099199999999
 20
39.79
 30
0.0
 11
34.0
 21
39.79
 31
0.0
  0
LINE
  5
1298B
330
12963
100
AcDbEntity
  8
0
 62
     7
370
    35
100
AcDbLine
 10
34.0
 20
39.79
 30
0.0
 11
34.0
 21
16.419432
 31
0.0
  0
LINE
  5
1298C
330
12963
100
AcDbEntity
  8
0
 62
     7
 48
0.107936
370
    35
100
AcDbLine
 10
38.251832
 20
17.169144
 30
0.0
 11
34.0
 21
16.419432
 31
0.0
  0
LINE
  5
1298D
330
12963
100
AcDbEntity
  8
0
 62
     7
 48
0.01052
370
    35
100
AcDbLine
 10
38.251832
 20
17.169144
 30
0.0
 11
38.310566
 21
17.585806
 31
0.0
  0
LINE
  5
1298E
330
12963
100
AcDbEntity
  8
0
 62
     7
 48
0.155086
370
    35
100
AcDbLine
 10
37.104345
 20
23.670855
 30
0.0
 11
38.310566
 21
17.585806
 31
0.0
  0
LINE
  5
1298F
330
12963
100
AcDbEntity
  8
0
 62
     7
 48
0.026042
370
    35
100
AcDbLine
 10
38.130206
 20
23.851742
 30
0.0
 11
37.104345
 21
23.670855
 31
0.0
  0
LINE
  5
12990
330
12963
100
AcDbEntity
  8
0
 62
     7
 48
0.025906
370
    35
100
AcDbLine
 10
38.129999
 20
23.818674
 30
0.0
 11
37.104345
 21
23.670855
 31
0.0
  0
LINE
  5
12991
330
12963
100
AcDbEntity
  8
0
 62
     7
 48
0.032421
370
    35
100
AcDbLine
 10
38.310566
 20
17.585806
 30
0.0
 11
39.59413
 21
17.770796
 31
0.0
  0
LINE
  5
12992
330
12963
100
AcDbEntity
  8
0
 62
     7
 48
0.008107
370
    35
100
AcDbLine
 10
50.60384299999999
 20
19.145673
 30
0.0
 11
50.92035
 21
19.216247
 31
0.0
  0
LINE
  5
12993
330
12963
100
AcDbEntity
  8
0
 62
     7
 48
0.008351
370
    35
100
AcDbLine
 10
50.92035
 20
19.216247
 30
0.0
 11
50.862341
 21
19.545232
 31
0.0
  0
LINE
  5
12994
330
12963
100
AcDbEntity
  8
0
 62
     7
 48
0.017885
370
    35
100
AcDbLine
 10
39.576392
 20
17.360043
 30
0.0
 11
40.28586899999999
 21
17.451915
 31
0.0
  0
LINE
  5
12995
330
12963
100
AcDbEntity
  8
0
 62
     7
 48
0.010278
370
    35
100
AcDbLine
 10
39.576392
 20
17.360043
 30
0.0
 11
39.59413
 21
17.770796
 31
0.0
  0
LINE
  5
12996
330
12963
100
AcDbEntity
  8
0
 62
     7
 48
0.079973
370
    13
100
AcDbLine
 10
49.62799099999999
 20
22.626729
 30
0.0
 11
49.072502
 21
25.777067
 31
0.0
  0
LINE
  5
12997
330
12963
100
AcDbEntity
  8
0
 62
     7
 48
0.126506
370
    35
100
AcDbLine
 10
44.08902199999999
 20
24.898969
 30
0.0
 11
49.072502
 21
25.777067
 31
0.0
  0
ELLIPSE
  5
12998
330
12963
100
AcDbEntity
  8
0
 62
     7
370
    35
100
AcDbEllipse
 10
49.072468
 20
25.771826
 30
0.0
 11
-0.1969615370035172
 21
-0.0347296334803104
 31
0.0
210
0.0
220
0.0
230
1.0
 40
0.02578
 41
4.184077818372024
 42
4.707676612383902
  0
LINE
  5
12999
330
12963
100
AcDbEntity
  8
0
 62
     7
 48
0.055766
370
    35
100
AcDbLine
 10
51.373312
 20
26.147971
 30
0.0
 11
49.17097899999999
 21
25.793717
 31
0.0
  0
ELLIPSE
  5
1299A
330
12963
100
AcDbEntity
  8
0
 62
     7
370
    35
100
AcDbEllipse
 10
51.28465300000001
 20
26.128269
 30
0.0
 11
-0.1772654056549072
 21
-0.0312566719949245
 31
0.0
210
0.0
220
0.0
230
0.9999999999999998
 40
0.02578
 41
3.136880287368154
 42
4.184077788530551
  0
LINE
  5
1299B
330
12963
100
AcDbEntity
  8
0
 62
     7
 48
0.07948
370
    35
100
AcDbLine
 10
52.01398300000001
 20
23.028595
 30
0.0
 11
51.46192
 21
26.159503
 31
0.0
  0
LINE
  5
1299C
330
12963
100
AcDbEntity
  8
0
 62
     7
 48
0.079565
370
    13
100
AcDbLine
 10
51.925962
 20
23.013736
 30
0.0
 11
51.373312
 21
26.147971
 31
0.0
  0
LINE
  5
1299D
330
12963
100
AcDbEntity
  8
0
 62
     7
 48
0.079973
370
    13
100
AcDbLine
 10
49.726469
 20
22.64338
 30
0.0
 11
49.17097899999999
 21
25.793717
 31
0.0
  0
LINE
  5
1299E
330
12963
100
AcDbEntity
  8
0
 62
     7
 48
0.3508900000000001
370
    35
100
AcDbLine
 10
47.83003499999999
 20
39.79
 30
0.0
 11
50.267288
 21
25.96765
 31
0.0
  0
LINE
  5
1299F
330
12963
100
AcDbEntity
  8
0
 62
     7
 48
0.032476
370
    35
100
AcDbLine
 10
47.83003499999999
 20
39.79
 30
0.0
 11
46.53099199999999
 21
39.79
 31
0.0
  0
LINE
  5
129A0
330
12963
100
AcDbEntity
  8
0
 62
     7
 48
0.228245
370
    35
100
AcDbLine
 10
32.046392
 20
39.79
 30
0.0
 11
22.916576
 21
39.79
 31
0.0
  0
LINE
  5
129A1
330
12963
100
AcDbEntity
  8
0
 62
     7
 48
0.019319
370
    35
100
AcDbLine
 10
32.046392
 20
39.79
 30
0.0
 11
32.819133
 21
39.79
 31
0.0
  0
LINE
  5
129A2
330
12963
100
AcDbEntity
  8
0
 62
     7
 48
0.029522
370
    35
100
AcDbLine
 10
32.819133
 20
39.79
 30
0.0
 11
34.0
 21
39.79
 31
0.0
  0
LINE
  5
129A3
330
12963
100
AcDbEntity
  8
0
 62
     7
 48
0.03061
370
    35
100
AcDbLine
 10
32.819133
 20
16.09581
 30
0.0
 11
34.0
 21
16.419432
 31
0.0
  0
LINE
  5
129A4
330
12963
100
AcDbEntity
  8
0
 62
     7
370
    13
100
AcDbLine
 10
32.819133
 20
39.79
 30
0.0
 11
32.819133
 21
16.09581
 31
0.0
  0
LINE
  5
129A5
330
12963
100
AcDbEntity
  8
0
 62
     7
 48
0.002084
370
    35
100
AcDbLine
 10
32.819133
 20
16.09581
 30
0.0
 11
32.73805
 21
16.07640799999999
 31
0.0
  0
LINE
  5
129A6
330
12963
100
AcDbEntity
  8
0
 62
     7
 48
0.291618
370
    13
100
AcDbLine
 10
32.73805
 20
16.07640799999999
 30
0.0
 11
44.305203
 21
17.581869
 31
0.0
  0
LINE
  5
129A7
330
12963
100
AcDbEntity
  8
0
 62
     7
 48
0.010475
370
    35
100
AcDbLine
 10
44.717836
 20
17.654627
 30
0.0
 11
44.305203
 21
17.581869
 31
0.0
  0
LINE
  5
129A8
330
12963
100
AcDbEntity
  8
0
 62
     7
 48
0.056257
370
    35
100
AcDbLine
 10
51.412985
 20
18.96608
 30
0.0
 11
49.21603799999999
 21
18.479032
 31
0.0
  0
LINE
  5
129A9
330
12963
100
AcDbEntity
  8
0
 62
     7
 48
0.008238
370
    35
100
AcDbLine
 10
51.412985
 20
18.96608
 30
0.0
 11
51.412985
 21
19.295611
 31
0.0
  0
LINE
  5
129AA
330
12963
100
AcDbEntity
  8
0
 62
     7
 48
0.012475
370
    35
100
AcDbLine
 10
50.92035
 20
19.216247
 30
0.0
 11
51.412985
 21
19.295611
 31
0.0
  0
LINE
  5
129AB
330
12963
100
AcDbEntity
  8
0
 62
     7
 48
0.033456
370
    35
100
AcDbLine
 10
38.251832
 20
17.169144
 30
0.0
 11
39.576392
 21
17.360043
 31
0.0
  0
LINE
  5
129AC
330
12963
100
AcDbEntity
  8
0
 62
     7
 48
0.01303
370
    35
100
AcDbLine
 10
51.412985
 20
19.295611
 30
0.0
 11
51.322478
 21
19.8089
 31
0.0
  0
ELLIPSE
  5
129AD
330
12963
100
AcDbEntity
  8
0
 62
     7
370
    35
100
AcDbEllipse
 10
44.455769
 20
16.795807
 30
0.0
 11
-0.9138630628585817
 21
-0.1189389526844025
 31
0.0
210
0.0
220
0.0
230
1.0
 40
0.868083
 41
4.764343395372739
 42
6.073340334861361
  0
LINE
  5
129AE
330
12963
100
AcDbEntity
  8
0
 62
     7
 48
0.133115
370
    35
100
AcDbLine
 10
43.540447
 20
16.84473
 30
0.0
 11
42.949725
 21
11.553005
 31
0.0
  0
LINE
  5
129AF
330
12963
100
AcDbEntity
  8
0
 62
     7
 48
0.369852
370
    35
100
AcDbLine
 10
42.949725
 20
11.553005
 30
0.0
 11
33.708906
 21
0.0
 31
0.0
  0
LINE
  5
129B0
330
12963
100
AcDbEntity
  8
0
 62
     7
 48
0.496856
370
    35
100
AcDbLine
 10
17.772741
 20
20.592945
 30
0.0
 11
22.916576
 21
39.79
 31
0.0
  0
LINE
  5
129B1
330
12963
100
AcDbEntity
  8
0
 62
     7
 48
0.322597
370
    35
100
AcDbLine
 10
31.608263
 20
10.076918
 30
0.0
 11
23.548112
 21
0.0
 31
0.0
  0
LINE
  5
129B2
330
12963
100
AcDbEntity
  8
0
 62
     7
 48
0.098729
370
    35
100
AcDbLine
 10
31.608263
 20
10.076918
 30
0.0
 11
32.046392
 21
14.001706
 31
0.0
  0
LINE
  5
129B3
330
12963
100
AcDbEntity
  8
0
 62
     7
370
    13
100
AcDbLine
 10
32.046392
 20
39.79
 30
0.0
 11
32.046392
 21
14.001706
 31
0.0
  0
ARC
  5
129B4
330
12963
100
AcDbEntity
  8
0
 62
     7
370
    35
100
AcDbCircle
 10
17.0
 20
20.8
 30
0.0
 40
0.8
100
AcDbArc
 50
270.0
 51
345.0
  0
LINE
  5
129B5
330
12963
100
AcDbEntity
  8
0
 62
     7
370
    35
100
AcDbLine
 10
-69.0
 20
20.0
 30
0.0
 11
17.0
 21
20.0
 31
0.0
  0
LINE
  5
129B6
330
12963
100
AcDbEntity
  8
0
 62
     7
370
    35
100
AcDbLine
 10
-69.0
 20
20.0
 30
0.0
 11
-69.0
 21
0.0
 31
0.0
  0
LINE
  5
129B7
330
12963
100
AcDbEntity
  8
0
 62
     7
370
    35
100
AcDbLine
 10
-69.0
 20
0.0
 30
0.0
 11
23.548112
 21
0.0
 31
0.0
  0
ARC
  5
129B8
330
12963
100
AcDbEntity
  8
0
 62
     7
370
    35
100
AcDbCircle
 10
-100.373695
 20
28.752636
 30
0.0
 40
133.239161
100
AcDbArc
 50
353.643744
 51
354.234442
  0
SPLINE
  5
129B9
330
12963
100
AcDbEntity
  8
0
 62
     7
370
    35
100
AcDbSpline
210
0.0
220
0.0
230
1.0
 70
     8
 71
     5
 72
    18
 73
    12
 74
     0
 42
0.0000000001
 43
0.0000000001
 40
0.0
 40
0.0
 40
0.0
 40
0.0
 40
0.0
 40
0.0
 40
0.941506402580871
 40
0.941506402580871
 40
0.941506402580871
 40
1.667632017068288
 40
1.667632017068288
 40
1.667632017068288
 40
1.823421250267831
 40
1.823421250267831
 40
1.823421250267831
 40
1.823421250267831
 40
1.823421250267831
 40
1.823421250267831
 10
32.19146395089907
 20
15.36766347378492
 30
0.0
 10
32.20219869512757
 20
15.47373521944815
 30
0.0
 10
32.23082219933961
 20
15.57754688251678
 30
0.0
 10
32.27643937551412
 20
15.67675574668316
 30
0.0
 10
32.37926394229639
 20
15.83674148422535
 30
0.0
 10
32.50971761997423
 20
15.95973706069545
 30
0.0
 10
32.56918625240825
 20
16.00421094666591
 30
0.0
 10
32.64245617640212
 20
16.0452565734006
 30
0.0
 10
32.7064531456713
 20
16.06793109998737
 30
0.0
 10
32.71742529330277
 20
16.07135500513411
 30
0.0
 10
32.72796425340781
 20
16.07417510890656
 30
0.0
 10
32.7380501698097
 20
16.07640793077647
 30
0.0
  0
LINE
  5
129BA
330
12963
100
AcDbEntity
  8
0
 62
     7
 48
0.286117
370
    13
100
AcDbLine
 10
43.540447
 20
16.84473
 30
0.0
 11
32.191464
 21
15.367663
 31
0.0
  0
LINE
  5
129BB
330
12963
100
AcDbEntity
  8
0
 62
     7
 48
0.25402
370
    35
100
AcDbLine
 10
23.548112
 20
0.0
 30
0.0
 11
33.708906
 21
0.0
 31
0.0
  0
LINE
  5
129BC
330
12963
100
AcDbEntity
  8
0
 62
     7
 48
0.285928
370
    35
100
AcDbLine
 10
31.608263
 20
10.076918
 30
0.0
 11
42.949725
 21
11.553005
 31
0.0
  0
LINE
  5
129BD
330
12963
100
AcDbEntity
  8
0
 62
     7
 48
0.035355
370
    35
100
AcDbLine
 10
-69.0
 20
20.0
 30
0.0
 11
-70.0
 21
19.0
 31
0.0
  0
LINE
  5
129BE
330
12963
100
AcDbEntity
  8
0
 62
     7
 48
0.45
370
    35
100
AcDbLine
 10
-70.0
 20
19.0
 30
0.0
 11
-70.0
 21
1.0
 31
0.0
  0
LINE
  5
129BF
330
12963
100
AcDbEntity
  8
0
 62
     7
 48
0.035355
370
    35
100
AcDbLine
 10
-69.0
 20
0.0
 30
0.0
 11
-70.0
 21
1.0
 31
0.0
  0
ELLIPSE
  5
129C0
330
12963
100
AcDbEntity
  8
0
 62
     7
370
    35
100
AcDbEllipse
 10
46.96726199999999
 20
17.936943
 30
0.0
 11
2.06809639930725
 21
0.3646611869335175
 31
0.0
210
0.0
220
0.0
230
0.9999999999999998
 40
0.02578
 41
3.178806786639612
 42
6.245927284375991
  0
ELLIPSE
  5
129C1
330
12963
100
AcDbEntity
  8
0
 62
     7
370
    35
100
AcDbEllipse
 10
46.96726199999999
 20
17.936943
 30
0.0
 11
2.06809639930725
 21
0.3646611869335175
 31
0.0
210
0.0
220
0.0
230
0.9999999999999998
 40
0.02578
 41
6.245927284391915
 42
6.371920419089212
  0
ELLIPSE
  5
129C2
330
12963
100
AcDbEntity
  8
0
 62
     7
370
    35
100
AcDbEllipse
 10
46.96726199999999
 20
17.936943
 30
0.0
 11
2.06809639930725
 21
0.3646611869335175
 31
0.0
210
0.0
220
0.0
230
0.9999999999999998
 40
0.02578
 41
0.0887351119229957
 42
3.178806786639612
  0
LINE
  5
129C3
330
12963
100
AcDbEntity
  8
0
 62
     7
 48
0.001454
370
    35
100
AcDbLine
 10
37.480862
 20
25.977771
 30
0.0
 11
37.481226
 21
26.035925
 31
0.0
  0
LINE
  5
129C4
330
12963
100
AcDbEntity
  8
0
 62
     7
 48
0.001438
370
    35
100
AcDbLine
 10
42.880759
 20
25.94442
 30
0.0
 11
42.88111899999999
 21
26.001954
 31
0.0
  0
LINE
  5
129C5
330
12963
100
AcDbEntity
  8
0
 62
     7
 48
0.036238
370
    35
100
AcDbLine
 10
39.40649
 20
20.779655
 30
0.0
 11
39.154784
 21
22.207152
 31
0.0
  0
ARC
  5
129C6
330
12963
100
AcDbEntity
  8
0
 62
     7
370
    35
100
AcDbCircle
 10
40.18051599999999
 20
26.018632
 30
0.0
 40
2.699387999999999
100
AcDbArc
 50
106.094652
 51
176.534982
  0
ARC
  5
129C7
330
12963
100
AcDbEntity
  8
0
 62
     7
370
    35
100
AcDbCircle
 10
40.181393
 20
26.018322
 30
0.0
 40
2.699878
100
AcDbArc
 50
359.652648
 51
106.110704
  0
LINE
  5
129C8
330
12963
100
AcDbEntity
  8
0
 62
     7
 48
0.019744
370
    35
100
AcDbLine
 10
49.034275
 20
18.299365
 30
0.0
 11
49.59594899999999
 21
18.854559
 31
0.0
  0
LINE
  5
129C9
330
12963
100
AcDbEntity
  8
0
 62
     7
 48
0.019744
370
    35
100
AcDbLine
 10
44.90094899999999
 20
17.57055
 30
0.0
 11
44.18325999999999
 21
17.900159
 31
0.0
  0
LINE
  5
129CA
330
12963
100
AcDbEntity
  8
0
 62
     7
 48
0.048946
370
    35
100
AcDbLine
 10
42.423571
 20
17.509626
 30
0.0
 11
44.356578
 21
17.820558
 31
0.0
  0
LINE
  5
129CB
330
12963
100
AcDbEntity
  8
0
 62
     7
 48
0.002176
370
    35
100
AcDbLine
 10
51.637044
 20
19.842671
 30
0.0
 11
51.723958
 21
19.83812
 31
0.0
  0
ELLIPSE
  5
129CC
330
12963
100
AcDbEntity
  8
0
 62
     7
370
    35
100
AcDbEllipse
 10
51.54108
 20
18.835474
 30
0.0
 11
-0.6566763520240784
 21
-0.7894065976142884
 31
0.0
210
0.0
220
0.0
230
0.9999999999999998
 40
0.955868
 41
3.761655036618511
 42
5.317072504508691
  0
LINE
  5
129CD
330
12963
100
AcDbEntity
  8
0
 62
     7
 48
0.029798
370
    35
100
AcDbLine
 10
50.54699
 20
18.903088
 30
0.0
 11
49.383458
 21
18.64452
 31
0.0
  0
LINE
  5
129CE
330
12963
100
AcDbEntity
  8
0
 62
     7
 48
0.035626
370
    35
100
AcDbLine
 10
41.01044799999999
 20
17.325709
 30
0.0
 11
42.423571
 21
17.509626
 31
0.0
  0
LINE
  5
129CF
330
12963
100
AcDbEntity
  8
0
 62
     7
 48
0.005155
370
    35
100
AcDbLine
 10
50.548282
 20
19.109267
 30
0.0
 11
50.54699
 21
18.903088
 31
0.0
  0
LINE
  5
129D0
330
12963
100
AcDbEntity
  8
0
 62
     7
 48
0.071765
370
    35
100
AcDbLine
 10
50.548282
 20
19.109267
 30
0.0
 11
47.721219
 21
18.611133
 31
0.0
  0
LINE
  5
129D1
330
12963
100
AcDbEntity
  8
0
 62
     7
 48
0.170819
370
    35
100
AcDbLine
 10
41.01044799999999
 20
17.325709
 30
0.0
 11
47.721219
 21
18.611133
 31
0.0
  0
ELLIPSE
  5
129D2
330
12963
100
AcDbEntity
  8
0
 62
     7
370
    35
100
AcDbEllipse
 10
40.587112
 20
16.986612
 30
0.0
 11
-0.1881264001131057
 21
0.9821448326110841
 31
0.0
210
0.0
220
0.0
230
0.9999999999999998
 40
0.495749
 41
4.968582938493186
 42
5.205405094813972
  0
LINE
  5
129D3
330
12963
100
AcDbEntity
  8
0
 62
     7
 48
0.075492
370
    35
100
AcDbLine
 10
40.16447099999999
 20
17.824193
 30
0.0
 11
39.640108
 21
20.798
 31
0.0
  0
LINE
  5
129D4
330
12963
100
AcDbEntity
  8
0
 62
     7
 48
0.000226
370
    35
100
AcDbLine
 10
51.724015
 20
19.847151
 30
0.0
 11
51.723958
 21
19.83812
 31
0.0
  0
LINE
  5
129D5
330
12963
100
AcDbEntity
  8
0
 62
     7
 48
0.012331
370
    35
100
AcDbLine
 10
52.077717
 20
19.819596
 30
0.0
 11
52.570273
 21
19.793804
 31
0.0
  0
LINE
  5
129D6
330
12963
100
AcDbEntity
  8
0
 62
     7
 48
0.000089
370
    35
100
AcDbLine
 10
52.57029499999999
 20
19.797357
 30
0.0
 11
52.570273
 21
19.793804
 31
0.0
  0
ARC
  5
129D7
330
12963
100
AcDbEntity
  8
0
 62
     7
370
    35
100
AcDbCircle
 10
52.321735
 20
18.380414
 30
0.0
 40
1.439139999999999
100
AcDbArc
 50
80.05039299999999
 51
85.97581600000001
  0
LINE
  5
129D8
330
12963
100
AcDbEntity
  8
0
 62
     7
 48
0.00998
370
    35
100
AcDbLine
 10
52.42277399999999
 20
19.816632
 30
0.0
 11
52.025692
 21
19.857682
 31
0.0
  0
ARC
  5
129D9
330
12963
100
AcDbEntity
  8
0
 62
     7
370
    35
100
AcDbCircle
 10
52.12673399999999
 20
21.292932
 30
0.0
 40
1.43818
100
AcDbArc
 50
260.043601
 51
265.972995
  0
LINE
  5
129DA
330
12963
100
AcDbEntity
  8
0
 62
     7
 48
0.002253
370
    35
100
AcDbLine
 10
51.878931
 20
19.87734
 30
0.0
 11
51.96723699999999
 21
19.895374
 31
0.0
  0
LINE
  5
129DB
330
12963
100
AcDbEntity
  8
0
 62
     7
 48
0.001839
370
    35
100
AcDbLine
 10
51.96723699999999
 20
19.895374
 30
0.0
 11
52.040649
 21
19.890607
 31
0.0
  0
LINE
  5
129DC
330
12963
100
AcDbEntity
  8
0
 62
     7
 48
0.03833
370
    35
100
AcDbLine
 10
53.567774
 20
19.754294
 30
0.0
 11
52.040649
 21
19.890607
 31
0.0
  0
ARC
  5
129DD
330
12963
100
AcDbEntity
  8
0
 62
     7
370
    35
100
AcDbCircle
 10
53.744379
 20
21.223593
 30
0.0
 40
1.479295
100
AcDbArc
 50
263.146082
 51
268.875445
  0
LINE
  5
129DE
330
12963
100
AcDbEntity
  8
0
 62
     7
 48
0.000431
370
    35
100
AcDbLine
 10
53.715358
 20
19.745145
 30
0.0
 11
53.71546600000001
 21
19.762366
 31
0.0
  0
ARC
  5
129DF
330
12963
100
AcDbEntity
  8
0
 62
     7
370
    35
100
AcDbCircle
 10
53.46690600000001
 20
18.345423
 30
0.0
 40
1.439139999999999
100
AcDbArc
 50
80.05039299999999
 51
85.97581600000001
  0
LINE
  5
129E0
330
12963
100
AcDbEntity
  8
0
 62
     7
 48
0.038378
370
    35
100
AcDbLine
 10
53.56794499999999
 20
19.781641
 30
0.0
 11
52.040955
 21
19.939499
 31
0.0
  0
LINE
  5
129E1
330
12963
100
AcDbEntity
  8
0
 62
     7
 48
0.001849
370
    35
100
AcDbLine
 10
51.967572
 20
19.948871
 30
0.0
 11
52.040955
 21
19.939499
 31
0.0
  0
LINE
  5
129E2
330
12963
100
AcDbEntity
  8
0
 62
     7
 48
0.00112
370
    35
100
AcDbLine
 10
51.967572
 20
19.948871
 30
0.0
 11
51.925955
 21
19.965434
 31
0.0
  0
LINE
  5
129E3
330
12963
100
AcDbEntity
  8
0
 62
     7
 48
0.007233
370
    35
100
AcDbLine
 10
51.637987
 20
19.993171
 30
0.0
 11
51.925955
 21
19.965434
 31
0.0
  0
LINE
  5
129E4
330
12963
100
AcDbEntity
  8
0
 62
     7
 48
0.003763
370
    13
100
AcDbLine
 10
51.637044
 20
19.842671
 30
0.0
 11
51.637987
 21
19.993171
 31
0.0
  0
ARC
  5
129E5
330
12963
100
AcDbEntity
  8
0
 62
     7
370
    35
100
AcDbCircle
 10
51.695046
 20
18.371401
 30
0.0
 40
1.476593999999999
100
AcDbArc
 50
83.146082
 51
88.87544399999999
  0
LINE
  5
129E6
330
12963
100
AcDbEntity
  8
0
 62
     7
 48
0.00518
370
    35
100
AcDbLine
 10
52.077717
 20
19.819596
 30
0.0
 11
51.87133
 21
19.838018
 31
0.0
  0
ELLIPSE
  5
129E7
330
12963
100
AcDbEntity
  8
0
 62
     7
370
    35
100
AcDbEllipse
 10
51.542084
 20
18.998123
 30
0.0
 11
0.9999803304672239
 21
-0.0062679969705641
 31
0.0
210
0.0
220
0.0
230
0.9999999999999998
 40
0.999657
 41
1.481010504196315
 42
3.036450567793772
  0
LINE
  5
129E8
330
12963
100
AcDbEntity
  8
0
 62
     7
 48
0.001373
370
    35
100
AcDbLine
 10
39.694013
 20
20.808494
 30
0.0
 11
39.640108
 21
20.798
 31
0.0
  0
ARC
  5
129E9
330
12963
100
AcDbEntity
  8
0
 62
     7
370
    35
100
AcDbCircle
 10
39.936915
 20
19.918438
 30
0.0
 40
0.971232
100
AcDbArc
 50
98.93811900000001
 51
104.997536
  0
LINE
  5
129EA
330
12963
100
AcDbEntity
  8
0
 62
     7
 48
0.014268
370
    35
100
AcDbLine
 10
40.34649
 20
20.98567
 30
0.0
 11
39.78595
 21
20.878301
 31
0.0
  0
ARC
  5
129EB
330
12963
100
AcDbEntity
  8
0
 62
     7
370
    35
100
AcDbCircle
 10
41.631895
 20
14.275072
 30
0.0
 40
6.832578999999999
100
AcDbArc
 50
98.842672
 51
100.84357
  0
LINE
  5
129EC
330
12963
100
AcDbEntity
  8
0
 62
     7
 48
0.027261
370
    35
100
AcDbLine
 10
41.659946
 20
21.18826
 30
0.0
 11
40.581586
 21
21.026385
 31
0.0
  0
LINE
  5
129ED
330
12963
100
AcDbEntity
  8
0
 62
     7
 48
0.002789
370
    35
100
AcDbLine
 10
41.76988
 20
21.20717
 30
0.0
 11
41.659946
 21
21.18826
 31
0.0
  0
LINE
  5
129EE
330
12963
100
AcDbEntity
  8
0
 62
     7
 48
0.023032
370
    35
100
AcDbLine
 10
42.67516599999999
 20
21.377996
 30
0.0
 11
41.76988
 21
21.20717
 31
0.0
  0
LINE
  5
129EF
330
12963
100
AcDbEntity
  8
0
 62
     7
 48
0.000236
370
    35
100
AcDbLine
 10
42.68444
 20
21.379753
 30
0.0
 11
42.67516599999999
 21
21.377996
 31
0.0
  0
ARC
  5
129F0
330
12963
100
AcDbEntity
  8
0
 62
     7
370
    35
100
AcDbCircle
 10
42.932224
 20
20.458657
 30
0.0
 40
0.971259
100
AcDbArc
 50
98.93817099999999
 51
104.995325
  0
LINE
  5
129F1
330
12963
100
AcDbEntity
  8
0
 62
     7
 48
0.002944
370
    35
100
AcDbLine
 10
42.78125399999999
 20
21.418547
 30
0.0
 11
42.896913
 21
21.440702
 31
0.0
  0
LINE
  5
129F2
330
12963
100
AcDbEntity
  8
0
 62
     7
 48
0.023835
370
    35
100
AcDbLine
 10
42.896913
 20
21.440702
 30
0.0
 11
43.835857
 21
21.606145
 31
0.0
  0
LINE
  5
129F3
330
12963
100
AcDbEntity
  8
0
 62
     7
 48
0.003684
370
    35
100
AcDbLine
 10
43.835857
 20
21.606145
 30
0.0
 11
43.98159399999999
 21
21.628022
 31
0.0
  0
ARC
  5
129F4
330
12963
100
AcDbEntity
  8
0
 62
     7
370
    35
100
AcDbCircle
 10
42.932715
 20
28.369831
 30
0.0
 40
6.822969
100
AcDbArc
 50
278.843087
 51
280.843145
  0
LINE
  5
129F5
330
12963
100
AcDbEntity
  8
0
 62
     7
 48
0.007482
370
    35
100
AcDbLine
 10
44.216262
 20
21.668662
 30
0.0
 11
44.51021400000001
 21
21.724968
 31
0.0
  0
LINE
  5
129F6
330
12963
100
AcDbEntity
  8
0
 62
     7
 48
0.174938
370
    35
100
AcDbLine
 10
44.51021400000001
 20
21.724968
 30
0.0
 11
51.401593
 21
22.939241
 31
0.0
  0
LINE
  5
129F7
330
12963
100
AcDbEntity
  8
0
 62
     7
 48
0.001001
370
    35
100
AcDbLine
 10
51.44126599999999
 20
22.933698
 30
0.0
 11
51.401593
 21
22.939241
 31
0.0
  0
LINE
  5
129F8
330
12963
100
AcDbEntity
  8
0
 62
     7
 48
0.001767
370
    35
100
AcDbLine
 10
51.511229
 20
22.943725
 30
0.0
 11
51.44126599999999
 21
22.933698
 31
0.0
  0
LINE
  5
129F9
330
12963
100
AcDbEntity
  8
0
 62
     7
 48
0.03691
370
    35
100
AcDbLine
 10
51.511229
 20
22.943725
 30
0.0
 11
52.967051
 21
23.189483
 31
0.0
  0
ARC
  5
129FA
330
12963
100
AcDbEntity
  8
0
 62
     7
370
    35
100
AcDbCircle
 10
53.23364599999999
 20
21.878593
 30
0.0
 40
1.337117
100
AcDbArc
 50
95.40730000000001
 51
101.495469
  0
LINE
  5
129FB
330
12963
100
AcDbEntity
  8
0
 62
     7
 48
0.074143
370
    35
100
AcDbLine
 10
45.025205
 20
18.804308
 30
0.0
 11
44.51021400000001
 21
21.724968
 31
0.0
  0
LINE
  5
129FC
330
12963
100
AcDbEntity
  8
0
 62
     7
 48
0.004246
370
    35
100
AcDbLine
 10
45.186838
 20
18.856468
 30
0.0
 11
45.025205
 21
18.804308
 31
0.0
  0
ELLIPSE
  5
129FD
330
12963
100
AcDbEntity
  8
0
 62
     7
370
    35
100
AcDbEllipse
 10
45.880478
 20
18.000538
 30
0.0
 11
-1.969649910926818
 21
-0.3469735383987427
 31
0.0
210
0.0
220
0.0
230
1.0
 40
0.4998390000000001
 41
3.427555896777608
 42
4.742158260361664
  0
ARC
  5
129FE
330
12963
100
AcDbEntity
  8
0
 62
     7
370
    35
100
AcDbCircle
 10
46.377322
 20
15.153518
 30
0.0
 40
3.889635999999999
100
AcDbArc
 50
100.799637
 51
107.822391
  0
LINE
  5
129FF
330
12963
100
AcDbEntity
  8
0
 62
     7
 48
0.075492
370
    35
100
AcDbLine
 10
51.925955
 20
19.965434
 30
0.0
 11
51.401593
 21
22.939241
 31
0.0
  0
LINE
  5
12A00
330
12963
100
AcDbEntity
  8
0
 62
     7
 48
0.024063
370
    35
100
AcDbLine
 10
44.36732999999999
 20
18.592009
 30
0.0
 11
43.45133599999999
 21
18.296415
 31
0.0
  0
LINE
  5
12A01
330
12963
100
AcDbEntity
  8
0
 62
     7
 48
0.002944
370
    35
100
AcDbLine
 10
43.335676
 20
18.27426
 30
0.0
 11
43.45133599999999
 21
18.296415
 31
0.0
  0
SPLINE
  5
12A02
330
12963
100
AcDbEntity
  8
0
 62
     7
370
    35
100
AcDbSpline
210
0.0
220
0.0
230
1.0
 70
     8
 71
     5
 72
    15
 73
     9
 74
     0
 42
0.0000000001
 43
0.0000000001
 40
0.0
 40
0.0
 40
0.0
 40
0.0
 40
0.0
 40
0.0
 40
0.1476795561462213
 40
0.1476795561462213
 40
0.1476795561462213
 40
0.2928832342480273
 40
0.2928832342480273
 40
0.2928832342480273
 40
0.2928832342480273
 40
0.2928832342480273
 40
0.2928832342480273
 10
43.33567627764966
 20
18.27426040839092
 30
0.0
 10
43.31794897505744
 20
18.27086480560511
 30
0.0
 10
43.3013774960799
 20
18.26834626043016
 30
0.0
 10
43.2857496335219
 20
18.26673171023094
 30
0.0
 10
43.25986436604258
 20
18.26565675762153
 30
0.0
 10
43.2424536722903
 20
18.26843745253545
 30
0.0
 10
43.23591890362591
 20
18.27086683646203
 30
0.0
 10
43.2321232709826
 20
18.27410451374644
 30
0.0
 10
43.23082960827463
 20
18.27813529945472
 30
0.0
  0
LINE
  5
12A03
330
12963
100
AcDbEntity
  8
0
 62
     7
 48
0.000235
370
    35
100
AcDbLine
 10
43.197364
 20
18.416465
 30
0.0
 11
43.20655399999999
 21
18.41838
 31
0.0
  0
LINE
  5
12A04
330
12963
100
AcDbEntity
  8
0
 62
     7
 48
0.023046
370
    35
100
AcDbLine
 10
43.197364
 20
18.416465
 30
0.0
 11
42.296186
 21
18.222343
 31
0.0
  0
ARC
  5
12A05
330
12963
100
AcDbEntity
  8
0
 62
     7
370
    35
100
AcDbCircle
 10
42.385723
 20
17.803744
 30
0.0
 40
0.428046
100
AcDbArc
 50
102.073493
 51
117.272433
  0
LINE
  5
12A06
330
12963
100
AcDbEntity
  8
0
 62
     7
 48
0.028877
370
    35
100
AcDbLine
 10
41.182482
 20
17.618543
 30
0.0
 11
42.189673
 21
18.184034
 31
0.0
  0
ARC
  5
12A07
330
12963
100
AcDbEntity
  8
0
 62
     7
370
    35
100
AcDbCircle
 10
40.79025099999999
 20
18.380064
 30
0.0
 40
0.856986
100
AcDbArc
 50
281.032196
 51
297.251269
  0
LINE
  5
12A08
330
12963
100
AcDbEntity
  8
0
 62
     7
 48
0.014268
370
    35
100
AcDbLine
 10
40.954262
 20
17.538828
 30
0.0
 11
40.393721
 21
17.431459
 31
0.0
  0
SPLINE
  5
12A09
330
12963
100
AcDbEntity
  8
0
 62
     7
370
    35
100
AcDbSpline
210
0.0
220
0.0
230
1.0
 70
     8
 71
     5
 72
    15
 73
     9
 74
     0
 42
0.0000000001
 43
0.0000000001
 40
0.0
 40
0.0
 40
0.0
 40
0.0
 40
0.0
 40
0.0
 40
0.1476795552094108
 40
0.1476795552094108
 40
0.1476795552094108
 40
0.292883233039533
 40
0.292883233039533
 40
0.292883233039533
 40
0.292883233039533
 40
0.292883233039533
 40
0.292883233039533
 10
40.39372149676303
 20
17.43145900341047
 30
0.0
 10
40.37599419422695
 20
17.42806340062506
 30
0.0
 10
40.3594227153929
 20
17.42554485547695
 30
0.0
 10
40.34379485485788
 20
17.42393030615306
 30
0.0
 10
40.31790958750985
 20
17.42285535356016
 30
0.0
 10
40.30049889382037
 20
17.42563604845944
 30
0.0
 10
40.29396412416209
 20
17.42806543185811
 30
0.0
 10
40.2901684915853
 20
17.43130310914431
 30
0.0
 10
40.28887482894541
 20
17.43533389487011
 30
0.0
  0
LINE
  5
12A0A
330
12963
100
AcDbEntity
  8
0
 62
     7
 48
0.001373
370
    35
100
AcDbLine
 10
40.218645
 20
17.833159
 30
0.0
 11
40.16447099999999
 21
17.824193
 31
0.0
  0
LINE
  5
12A0B
330
12963
100
AcDbEntity
  8
0
 62
     7
 48
0.007482
370
    35
100
AcDbLine
 10
44.731253
 20
18.748003
 30
0.0
 11
45.025205
 21
18.804308
 31
0.0
  0
ARC
  5
12A0C
330
12963
100
AcDbEntity
  8
0
 62
     7
370
    35
100
AcDbCircle
 10
44.89496299999999
 20
17.908303
 30
0.0
 40
0.8554209999999999
100
AcDbArc
 50
101.032195
 51
117.251269
  0
LINE
  5
12A0D
330
12963
100
AcDbEntity
  8
0
 62
     7
 48
0.003903
370
    35
100
AcDbLine
 10
44.36732999999999
 20
18.592009
 30
0.0
 11
44.503449
 21
18.668434
 31
0.0
  0
LINE
  5
12A0E
330
12963
100
AcDbEntity
  8
0
 62
     7
 48
0.001186
370
    35
100
AcDbLine
 10
52.57029499999999
 20
19.797357
 30
0.0
 11
52.56205999999999
 21
19.844064
 31
0.0
  0
LINE
  5
12A0F
330
12963
100
AcDbEntity
  8
0
 62
     7
 48
0.001028
370
    13
100
AcDbLine
 10
52.42277399999999
 20
19.816632
 30
0.0
 11
52.415632
 21
19.857135
 31
0.0
  0
LINE
  5
12A10
330
12963
100
AcDbEntity
  8
0
 62
     7
 48
0.000881
370
    13
100
AcDbLine
 10
52.025692
 20
19.857682
 30
0.0
 11
52.019571
 21
19.892394
 31
0.0
  0
LINE
  5
12A11
330
12963
100
AcDbEntity
  8
0
 62
     7
 48
0.0875
370
    35
100
AcDbLine
 10
53.71546600000001
 20
19.762366
 30
0.0
 11
53.10769499999999
 21
23.209208
 31
0.0
  0
LINE
  5
12A12
330
12963
100
AcDbEntity
  8
0
 62
     7
 48
0.08651
370
    13
100
AcDbLine
 10
53.56794499999999
 20
19.781641
 30
0.0
 11
52.967051
 21
23.189483
 31
0.0
  0
LINE
  5
12A13
330
12963
100
AcDbEntity
  8
0
 62
     7
 48
0.004707
370
    13
100
AcDbLine
 10
51.543923
 20
22.758309
 30
0.0
 11
51.511229
 21
22.943725
 31
0.0
  0
LINE
  5
12A14
330
12963
100
AcDbEntity
  8
0
 62
     7
 48
0.071557
370
    13
100
AcDbLine
 10
52.040955
 20
19.939499
 30
0.0
 11
51.543923
 21
22.758309
 31
0.0
  0
ARC
  5
12A15
330
12963
100
AcDbEntity
  8
0
 62
     7
370
    13
100
AcDbCircle
 10
51.585221
 20
22.671163
 30
0.0
 40
0.096457
100
AcDbArc
 50
115.3562909999999
 51
185.588496
  0
LINE
  5
12A16
330
12963
100
AcDbEntity
  8
0
 62
     7
 48
0.068869
370
    13
100
AcDbLine
 10
51.967572
 20
19.948871
 30
0.0
 11
51.489215
 21
22.661769
 31
0.0
  0
LINE
  5
12A17
330
12963
100
AcDbEntity
  8
0
 62
     7
 48
0.006903
370
    13
100
AcDbLine
 10
51.489215
 20
22.661769
 30
0.0
 11
51.44126599999999
 21
22.933698
 31
0.0
  0
LINE
  5
12A18
330
12963
100
AcDbEntity
  8
0
 62
     7
 48
0.0875
370
    13
100
AcDbLine
 10
40.393721
 20
17.431459
 30
0.0
 11
39.78595
 21
20.878301
 31
0.0
  0
LINE
  5
12A19
330
12963
100
AcDbEntity
  8
0
 62
     7
 48
0.0875
370
    13
100
AcDbLine
 10
40.954262
 20
17.538828
 30
0.0
 11
40.34649
 21
20.98567
 31
0.0
  0
LINE
  5
12A1A
330
12963
100
AcDbEntity
  8
0
 62
     7
 48
0.08651
370
    13
100
AcDbLine
 10
41.182482
 20
17.618543
 30
0.0
 11
40.581586
 21
21.026385
 31
0.0
  0
LINE
  5
12A1B
330
12963
100
AcDbEntity
  8
0
 62
     7
 48
0.076264
370
    13
100
AcDbLine
 10
42.189673
 20
18.184034
 30
0.0
 11
41.659946
 21
21.18826
 31
0.0
  0
LINE
  5
12A1C
330
12963
100
AcDbEntity
  8
0
 62
     7
 48
0.075772
370
    13
100
AcDbLine
 10
42.296186
 20
18.222343
 30
0.0
 11
41.76988
 21
21.20717
 31
0.0
  0
LINE
  5
12A1D
330
12963
100
AcDbEntity
  8
0
 62
     7
 48
0.07518
370
    13
100
AcDbLine
 10
43.197364
 20
18.416465
 30
0.0
 11
42.67516599999999
 21
21.377996
 31
0.0
  0
LINE
  5
12A1E
330
12963
100
AcDbEntity
  8
0
 62
     7
 48
0.07982
370
    13
100
AcDbLine
 10
43.335676
 20
18.27426
 30
0.0
 11
42.78125399999999
 21
21.418547
 31
0.0
  0
LINE
  5
12A1F
330
12963
100
AcDbEntity
  8
0
 62
     7
 48
0.07982
370
    35
100
AcDbLine
 10
43.45133599999999
 20
18.296415
 30
0.0
 11
42.896913
 21
21.440702
 31
0.0
  0
LINE
  5
12A20
330
12963
100
AcDbEntity
  8
0
 62
     7
 48
0.076516
370
    35
100
AcDbLine
 10
44.36732999999999
 20
18.592009
 30
0.0
 11
43.835857
 21
21.606145
 31
0.0
  0
LINE
  5
12A21
330
12963
100
AcDbEntity
  8
0
 62
     7
 48
0.075131
370
    13
100
AcDbLine
 10
44.503449
 20
18.668434
 30
0.0
 11
43.98159399999999
 21
21.628022
 31
0.0
  0
LINE
  5
12A22
330
12963
100
AcDbEntity
  8
0
 62
     7
 48
0.074143
370
    13
100
AcDbLine
 10
44.731253
 20
18.748003
 30
0.0
 11
44.216262
 21
21.668662
 31
0.0
  0
LINE
  5
12A23
330
12963
100
AcDbEntity
  8
0
 62
     7
 48
0.086809
370
    35
100
AcDbLine
 10
40.28859299999999
 20
17.436477
 30
0.0
 11
39.68562700000001
 21
20.856067
 31
0.0
  0
LINE
  5
12A24
330
12963
100
AcDbEntity
  8
0
 62
     7
 48
0.079128
370
    35
100
AcDbLine
 10
43.23054699999999
 20
18.279278
 30
0.0
 11
42.68092999999999
 21
21.396314
 31
0.0
  0
ENDBLK
  5
12A25
330
12963
100
AcDbEntity
  8
0
100
AcDbBlockEnd
  0
BLOCK
  5
12C37
330
12C36
100
AcDbEntity
  8
0
100
AcDbBlockBegin
  2
*D21
 70
     1
 10
0.0
 20
0.0
 30
0.0
  3
*D21
  1

  0
LINE
  5
12CEC
330
12C36
100
AcDbEntity
  8
SKVIEW2
 62
     0
370
    -2
100
AcDbLine
 10
3.627942879967683
 20
-52.65146762337253
 30
0.0
 11
3.627942879967684
 21
-23.60764117863979
 31
0.0
  0
LINE
  5
12CED
330
12C36
100
AcDbEntity
  8
SKVIEW2
 62
     0
370
    -2
100
AcDbLine
 10
41.62794287996768
 20
-52.93846314504666
 30
0.0
 11
41.62794287996768
 21
-23.60764117863979
 31
0.0
  0
LINE
  5
12CEE
330
12C36
100
AcDbEntity
  8
SKVIEW2
 62
     0
370
    -2
100
AcDbLine
 10
6.127942879967685
 20
-24.85764117863979
 30
0.0
 11
39.12794287996769
 21
-24.85764117863979
 31
0.0
  0
SOLID
  5
12CEF
330
12C36
100
AcDbEntity
  8
SKVIEW2
 62
     0
100
AcDbTrace
 10
6.127942879967685
 20
-24.44097451197313
 30
0.0
 11
6.127942879967685
 21
-25.27430784530646
 31
0.0
 12
3.627942879967684
 22
-24.85764117863979
 32
0.0
 13
3.627942879967684
 23
-24.85764117863979
 33
0.0
  0
SOLID
  5
12CF0
330
12C36
100
AcDbEntity
  8
SKVIEW2
 62
     0
100
AcDbTrace
 10
39.12794287996769
 20
-24.44097451197313
 30
0.0
 11
39.12794287996769
 21
-25.27430784530646
 31
0.0
 12
41.62794287996768
 22
-24.85764117863979
 32
0.0
 13
41.62794287996768
 23
-24.85764117863979
 33
0.0
  0
MTEXT
  5
12CF1
330
12C36
100
AcDbEntity
  8
SKVIEW2
 62
     0
100
AcDbMText
 10
22.62794287996769
 20
-22.42115136837978
 30
0.0
 40
3.5
 41
0.0
 71
     5
 72
     1
  1
38
 73
     1
 44
1.0
1001
ACAD
1000
MTEXTBEGIN
1070
    73
1070
     1
1070
    44
1040
1.0
1070
    74
1070
     0
1000
MTEXTEND
  0
POINT
  5
12CF2
330
12C36
100
AcDbEntity
  8
DEFPOINTS
 62
     0
100
AcDbPoint
 10
3.627942879967683
 20
-52.65146762337253
 30
0.0
  0
POINT
  5
12CF3
330
12C36
100
AcDbEntity
  8
DEFPOINTS
 62
     0
100
AcDbPoint
 10
41.62794287996768
 20
-52.93846314504666
 30
0.0
  0
POINT
  5
12CF4
330
12C36
100
AcDbEntity
  8
DEFPOINTS
 62
     0
100
AcDbPoint
 10
41.62794287996768
 20
-24.85764117863979
 30
0.0
  0
ENDBLK
  5
12C38
330
12C36
100
AcDbEntity
  8
0
100
AcDbBlockEnd
  0
BLOCK
  5
12C6D
330
12C6C
100
AcDbEntity
  8
0
100
AcDbBlockBegin
  2
*D22
 70
     1
 10
0.0
 20
0.0
 30
0.0
  3
*D22
  1

  0
LINE
  5
12CF5
330
12C6C
100
AcDbEntity
  8
SKVIEW2
 62
     0
370
    -2
100
AcDbLine
 10
19.7229870020036
 20
-72.93846314504666
 30
0.0
 11
50.99826800912899
 21
-72.93846314504667
 31
0.0
  0
LINE
  5
12CF6
330
12C6C
100
AcDbEntity
  8
SKVIEW2
 62
     0
370
    -2
100
AcDbLine
 10
41.62794287996768
 20
-52.93846314504666
 30
0.0
 11
50.99826800912899
 21
-52.93846314504666
 31
0.0
  0
LINE
  5
12CF7
330
12C6C
100
AcDbEntity
  8
SKVIEW2
 62
     0
370
    -2
100
AcDbLine
 10
49.74826800912899
 20
-70.43846314504667
 30
0.0
 11
49.74826800912899
 21
-55.43846314504666
 31
0.0
  0
SOLID
  5
12CF8
330
12C6C
100
AcDbEntity
  8
SKVIEW2
 62
     0
100
AcDbTrace
 10
49.33160134246232
 20
-70.43846314504667
 30
0.0
 11
50.16493467579565
 21
-70.43846314504667
 31
0.0
 12
49.74826800912899
 22
-72.93846314504667
 32
0.0
 13
49.74826800912899
 23
-72.93846314504667
 33
0.0
  0
SOLID
  5
12CF9
330
12C6C
100
AcDbEntity
  8
SKVIEW2
 62
     0
100
AcDbTrace
 10
49.33160134246232
 20
-55.43846314504666
 30
0.0
 11
50.16493467579565
 21
-55.43846314504666
 31
0.0
 12
49.74826800912899
 22
-52.93846314504666
 32
0.0
 13
49.74826800912899
 23
-52.93846314504666
 33
0.0
  0
MTEXT
  5
12CFA
330
12C6C
100
AcDbEntity
  8
SKVIEW2
 62
     0
100
AcDbMText
 10
47.31177819886898
 20
-62.93846314504666
 30
0.0
 40
3.5
 41
0.0
 71
     5
 72
     1
  1
20
 11
0.0000000000000001
 21
1.0
 31
0.0
 73
     1
 44
1.0
1001
ACAD
1000
MTEXTBEGIN
1070
    73
1070
     1
1070
    44
1040
1.0
1070
    74
1070
     0
1000
MTEXTEND
  0
POINT
  5
12CFB
330
12C6C
100
AcDbEntity
  8
DEFPOINTS
 62
     0
100
AcDbPoint
 10
19.7229870020036
 20
-72.93846314504666
 30
0.0
  0
POINT
  5
12CFC
330
12C6C
100
AcDbEntity
  8
DEFPOINTS
 62
     0
100
AcDbPoint
 10
41.62794287996768
 20
-52.93846314504666
 30
0.0
  0
POINT
  5
12CFD
330
12C6C
100
AcDbEntity
  8
DEFPOINTS
 62
     0
100
AcDbPoint
 10
49.74826800912899
 20
-52.93846314504666
 30
0.0
  0
ENDBLK
  5
12C6E
330
12C6C
100
AcDbEntity
  8
0
100
AcDbBlockEnd
  0
BLOCK
  5
12C8E
330
12C8D
100
AcDbEntity
  8
0
100
AcDbBlockBegin
  2
*D23
 70
     1
 10
0.0
 20
0.0
 30
0.0
  3
*D23
  1

  0
LINE
  5
12CFE
330
12C8D
100
AcDbEntity
  8
SKVIEW2
 62
     0
370
    -2
100
AcDbLine
 10
-82.98591899799641
 20
-72.93846314504666
 30
0.0
 11
-97.95581916869616
 21
-72.93846314504664
 31
0.0
  0
LINE
  5
12CFF
330
12C8D
100
AcDbEntity
  8
SKVIEW2
 62
     0
370
    -2
100
AcDbLine
 10
-82.98591899799641
 20
-52.93846314504666
 30
0.0
 11
-97.95581916869616
 21
-52.93846314504666
 31
0.0
  0
LINE
  5
12D00
330
12C8D
100
AcDbEntity
  8
SKVIEW2
 62
     0
370
    -2
100
AcDbLine
 10
-96.70581916869616
 20
-70.43846314504664
 30
0.0
 11
-96.70581916869616
 21
-55.43846314504666
 31
0.0
  0
SOLID
  5
12D01
330
12C8D
100
AcDbEntity
  8
SKVIEW2
 62
     0
100
AcDbTrace
 10
-97.12248583536284
 20
-70.43846314504664
 30
0.0
 11
-96.2891525020295
 21
-70.43846314504664
 31
0.0
 12
-96.70581916869616
 22
-72.93846314504664
 32
0.0
 13
-96.70581916869616
 23
-72.93846314504664
 33
0.0
  0
SOLID
  5
12D02
330
12C8D
100
AcDbEntity
  8
SKVIEW2
 62
     0
100
AcDbTrace
 10
-97.12248583536284
 20
-55.43846314504666
 30
0.0
 11
-96.2891525020295
 21
-55.43846314504666
 31
0.0
 12
-96.70581916869616
 22
-52.93846314504666
 32
0.0
 13
-96.70581916869616
 23
-52.93846314504666
 33
0.0
  0
MTEXT
  5
12D03
330
12C8D
100
AcDbEntity
  8
SKVIEW2
 62
     0
100
AcDbMText
 10
-99.14230897895617
 20
-62.93846314504666
 30
0.0
 40
3.5
 41
0.0
 71
     5
 72
     1
  1
20
 11
0.0000000000000001
 21
1.0
 31
0.0
 73
     1
 44
1.0
1001
ACAD
1000
MTEXTBEGIN
1070
    73
1070
     1
1070
    44
1040
1.0
1070
    74
1070
     0
1000
MTEXTEND
  0
POINT
  5
12D04
330
12C8D
100
AcDbEntity
  8
DEFPOINTS
 62
     0
100
AcDbPoint
 10
-82.98591899799641
 20
-72.93846314504666
 30
0.0
  0
POINT
  5
12D05
330
12C8D
100
AcDbEntity
  8
DEFPOINTS
 62
     0
100
AcDbPoint
 10
-82.98591899799641
 20
-52.93846314504666
 30
0.0
  0
POINT
  5
12D06
330
12C8D
100
AcDbEntity
  8
DEFPOINTS
 62
     0
100
AcDbPoint
 10
-96.70581916869616
 20
-52.93846314504666
 30
0.0
  0
ENDBLK
  5
12C8F
330
12C8D
100
AcDbEntity
  8
0
100
AcDbBlockEnd
  0
BLOCK
  5
12CA6
330
12CA5
100
AcDbEntity
  8
0
100
AcDbBlockBegin
  2
*D24
 70
     1
 10
0.0
 20
0.0
 30
0.0
  3
*D24
  1

  0
LINE
  5
12CB2
330
12CA5
100
AcDbEntity
  8
2
 62
     0
370
    -2
100
AcDbLine
 10
41.45188799999999
 20
15.0
 30
0.0
 11
54.7828855028572
 21
15.0
 31
0.0
  0
LINE
  5
12CB3
330
12CA5
100
AcDbEntity
  8
2
 62
     0
370
    -2
100
AcDbLine
 10
34.97908100000001
 20
-10.0
 30
0.0
 11
54.7828855028572
 21
-10.0
 31
0.0
  0
LINE
  5
12CB4
330
12CA5
100
AcDbEntity
  8
2
 62
     0
370
    -2
100
AcDbLine
 10
53.5328855028572
 20
12.5
 30
0.0
 11
53.5328855028572
 21
-7.500000000000006
 31
0.0
  0
SOLID
  5
12CB5
330
12CA5
100
AcDbEntity
  8
2
 62
     0
100
AcDbTrace
 10
53.11621883619054
 20
12.5
 30
0.0
 11
53.94955216952386
 21
12.5
 31
0.0
 12
53.5328855028572
 22
15.0
 32
0.0
 13
53.5328855028572
 23
15.0
 33
0.0
  0
SOLID
  5
12CB6
330
12CA5
100
AcDbEntity
  8
2
 62
     0
100
AcDbTrace
 10
53.11621883619054
 20
-7.500000000000006
 30
0.0
 11
53.94955216952386
 21
-7.500000000000006
 31
0.0
 12
53.5328855028572
 22
-10.0
 32
0.0
 13
53.5328855028572
 23
-10.0
 33
0.0
  0
MTEXT
  5
12CB7
330
12CA5
100
AcDbEntity
  8
2
 62
     0
100
AcDbMText
 10
51.09639569259718
 20
2.500000000000003
 30
0.0
 40
3.5
 41
0.0
 71
     5
 72
     1
  1
25
 11
0.0000000000000001
 21
1.0
 31
0.0
 73
     1
 44
1.0
1001
ACAD
1000
MTEXTBEGIN
1070
    73
1070
     1
1070
    44
1040
1.0
1070
    74
1070
     0
1000
MTEXTEND
  0
POINT
  5
12CB8
330
12CA5
100
AcDbEntity
  8
DEFPOINTS
 62
     0
100
AcDbPoint
 10
41.45188799999999
 20
15.0
 30
0.0
  0
POINT
  5
12CB9
330
12CA5
100
AcDbEntity
  8
DEFPOINTS
 62
     0
100
AcDbPoint
 10
34.97908100000001
 20
-10.0
 30
0.0
  0
POINT
  5
12CBA
330
12CA5
100
AcDbEntity
  8
DEFPOINTS
 62
     0
100
AcDbPoint
 10
53.5328855028572
 20
-10.0
 30
0.0
  0
ENDBLK
  5
12CA7
330
12CA5
100
AcDbEntity
  8
0
100
AcDbBlockEnd
  0
BLOCK
  5
12CBE
330
12CBD
100
AcDbEntity
  8
0
100
AcDbBlockBegin
  2
*D25
 70
     1
 10
0.0
 20
0.0
 30
0.0
  3
*D25
  1

  0
LINE
  5
12CCA
330
12CBD
100
AcDbEntity
  8
2
 62
     0
370
    -2
100
AcDbLine
 10
41.45188799999999
 20
15.0
 30
0.0
 11
41.45188799999999
 21
27.16670050305211
 31
0.0
  0
LINE
  5
12CCB
330
12CBD
100
AcDbEntity
  8
2
 62
     0
370
    -2
100
AcDbLine
 10
-83.548112
 20
9.0
 30
0.0
 11
-83.548112
 21
27.16670050305211
 31
0.0
  0
LINE
  5
12CCC
330
12CBD
100
AcDbEntity
  8
2
 62
     0
370
    -2
100
AcDbLine
 10
38.951888
 20
25.91670050305211
 30
0.0
 11
-81.048112
 21
25.91670050305211
 31
0.0
  0
SOLID
  5
12CCD
330
12CBD
100
AcDbEntity
  8
2
 62
     0
100
AcDbTrace
 10
38.951888
 20
26.33336716971878
 30
0.0
 11
38.951888
 21
25.50003383638545
 31
0.0
 12
41.45188799999999
 22
25.91670050305211
 32
0.0
 13
41.45188799999999
 23
25.91670050305211
 33
0.0
  0
SOLID
  5
12CCE
330
12CBD
100
AcDbEntity
  8
2
 62
     0
100
AcDbTrace
 10
-81.048112
 20
26.33336716971878
 30
0.0
 11
-81.048112
 21
25.50003383638545
 31
0.0
 12
-83.548112
 22
25.91670050305211
 32
0.0
 13
-83.548112
 23
25.91670050305211
 33
0.0
  0
MTEXT
  5
12CCF
330
12CBD
100
AcDbEntity
  8
2
 62
     0
100
AcDbMText
 10
-21.048112
 20
28.35319031331213
 30
0.0
 40
3.5
 41
0.0
 71
     5
 72
     1
  1
125
 73
     1
 44
1.0
1001
ACAD
1000
MTEXTBEGIN
1070
    73
1070
     1
1070
    44
1040
1.0
1070
    74
1070
     0
1000
MTEXTEND
  0
POINT
  5
12CD0
330
12CBD
100
AcDbEntity
  8
DEFPOINTS
 62
     0
100
AcDbPoint
 10
41.45188799999999
 20
15.0
 30
0.0
  0
POINT
  5
12CD1
330
12CBD
100
AcDbEntity
  8
DEFPOINTS
 62
     0
100
AcDbPoint
 10
-83.548112
 20
9.0
 30
0.0
  0
POINT
  5
12CD2
330
12CBD
100
AcDbEntity
  8
DEFPOINTS
 62
     0
100
AcDbPoint
 10
-83.548112
 20
25.91670050305211
 30
0.0
  0
ENDBLK
  5
12CBF
330
12CBD
100
AcDbEntity
  8
0
100
AcDbBlockEnd
  0
BLOCK
  5
12CD6
330
12CD5
100
AcDbEntity
  8
0
100
AcDbBlockBegin
  2
*D26
 70
     1
 10
0.0
 20
0.0
 30
0.0
  3
*D26
  1

  0
LINE
  5
12CE2
330
12CD5
100
AcDbEntity
  8
2
 62
     0
370
    -2
100
AcDbLine
 10
-82.548112
 20
10.0
 30
0.0
 11
-97.3310704135364
 21
10.0
 31
0.0
  0
LINE
  5
12CE3
330
12CD5
100
AcDbEntity
  8
2
 62
     0
370
    -2
100
AcDbLine
 10
-82.548112
 20
-10.0
 30
0.0
 11
-97.3310704135364
 21
-9.999999999999994
 31
0.0
  0
LINE
  5
12CE4
330
12CD5
100
AcDbEntity
  8
2
 62
     0
370
    -2
100
AcDbLine
 10
-96.0810704135364
 20
7.500000000000003
 30
0.0
 11
-96.0810704135364
 21
-7.499999999999996
 31
0.0
  0
SOLID
  5
12CE5
330
12CD5
100
AcDbEntity
  8
2
 62
     0
100
AcDbTrace
 10
-96.49773708020306
 20
7.500000000000003
 30
0.0
 11
-95.66440374686973
 21
7.500000000000003
 31
0.0
 12
-96.0810704135364
 22
10.0
 32
0.0
 13
-96.0810704135364
 23
10.0
 33
0.0
  0
SOLID
  5
12CE6
330
12CD5
100
AcDbEntity
  8
2
 62
     0
100
AcDbTrace
 10
-96.49773708020306
 20
-7.499999999999996
 30
0.0
 11
-95.66440374686973
 21
-7.499999999999996
 31
0.0
 12
-96.0810704135364
 22
-9.999999999999996
 32
0.0
 13
-96.0810704135364
 23
-9.999999999999996
 33
0.0
  0
MTEXT
  5
12CE7
330
12CD5
100
AcDbEntity
  8
2
 62
     0
100
AcDbMText
 10
-98.51756022379641
 20
-0.0000000000000116
 30
0.0
 40
3.5
 41
0.0
 71
     5
 72
     1
  1
20
 11
0.0000000000000001
 21
1.0
 31
0.0
 73
     1
 44
1.0
1001
ACAD
1000
MTEXTBEGIN
1070
    73
1070
     1
1070
    44
1040
1.0
1070
    74
1070
     0
1000
MTEXTEND
  0
POINT
  5
12CE8
330
12CD5
100
AcDbEntity
  8
DEFPOINTS
 62
     0
100
AcDbPoint
 10
-82.548112
 20
10.0
 30
0.0
  0
POINT
  5
12CE9
330
12CD5
100
AcDbEntity
  8
DEFPOINTS
 62
     0
100
AcDbPoint
 10
-82.548112
 20
-10.0
 30
0.0
  0
POINT
  5
12CEA
330
12CD5
100
AcDbEntity
  8
DEFPOINTS
 62
     0
100
AcDbPoint
 10
-96.0810704135364
 20
-9.999999999999996
 30
0.0
  0
ENDBLK
  5
12CD7
330
12CD5
100
AcDbEntity
  8
0
100
AcDbBlockEnd
  0
ENDSEC
  0
SECTION
  2
ENTITIES
  0
LINE
  5
F17
330
18
100
AcDbEntity
  8
INFTOTAL
100
AcDbLine
 10
-114.9045820202926
 20
47.8406280238997
 30
0.0
 11
-64.9045820202927
 21
47.8406280238997
 31
0.0
  0
LINE
  5
F18
102
{ACAD_REACTORS
330
6D2D
102
}
330
18
100
AcDbEntity
  8
INFTOTAL
100
AcDbLine
 10
65.79312795220665
 20
-51.08814923143754
 30
0.0
 11
65.79312795220665
 21
-101.0881492314375
 31
0.0
  0
LINE
  5
F19
102
{ACAD_REACTORS
330
6D2D
102
}
330
18
100
AcDbEntity
  8
INFTOTAL
100
AcDbLine
 10
65.79312795220665
 20
-101.0881492314375
 30
0.0
 11
15.79312795220653
 21
-101.0881492314375
 31
0.0
  0
LINE
  5
F1A
330
18
100
AcDbEntity
  8
INFTOTAL
100
AcDbLine
 10
-114.9045820202926
 20
-2.159371976100349
 30
0.0
 11
-114.9045820202926
 21
47.8406280238997
 31
0.0
  0
MTEXT
  5
117BA
330
18
100
AcDbEntity
  8
SK6
100
AcDbMText
 10
-20.23163403719377
 20
-82.89144216383588
 30
0.0
 40
5.0
 41
100.4217935383306
 71
     2
 72
     5
  1
\P{\H0.7x; SER 2020 K16D }
 73
     1
 44
1.0
1001
ACAD
1000
MTEXTBEGIN
1070
    73
1070
     1
1070
    44
1040
1.0
1070
    74
1070
     0
1000
MTEXTEND
  0
ELLIPSE
  5
12A33
330
18
100
AcDbEntity
  8
1
100
AcDbEllipse
 10
26.63305900000001
 20
14.12859199999999
 30
0.0
 11
2.700000047683715
 21
-0.0004436589078978
 31
0.0
210
0.0
220
0.0
230
1.0
 40
0.026206
 41
1.83679734090672
 42
2.036992593018221
  0
LINE
  5
12A34
330
18
100
AcDbEntity
  8
1
 48
0.016365
100
AcDbLine
 10
29.63090499999998
 20
15.0
 30
0.0
 11
28.97631799999999
 21
15.0
 31
0.0
  0
LINE
  5
12A35
330
18
100
AcDbEntity
  8
1
 48
0.105346
100
AcDbLine
 10
28.97631799999999
 20
15.0
 30
0.0
 11
24.762461
 21
14.999992
 31
0.0
  0
LINE
  5
12A36
330
18
100
AcDbEntity
  8
1
 48
0.367567
100
AcDbLine
 10
33.221193
 20
0.5884240000000034
 30
0.0
 11
26.04601800000001
 21
13.42139799999999
 31
0.0
  0
LINE
  5
12A37
330
18
100
AcDbEntity
  8
1
 48
0.015088
100
AcDbLine
 10
33.02428800000001
 20
1.995193
 30
0.0
 11
32.72888799999999
 21
1.468927999999998
 31
0.0
  0
ELLIPSE
  5
12A38
330
18
100
AcDbEntity
  8
1
100
AcDbEllipse
 10
27.330085
 20
13.179895
 30
0.0
 11
-0.2570692300796509
 21
1.731015682220458
 31
0.0
210
0.0
220
0.0
230
1.0
 40
0.9844799999999999
 41
6.283079006291702
 42
7.334816397374572
  0
ELLIPSE
  5
12A39
330
18
100
AcDbEntity
  8
1
100
AcDbEllipse
 10
32.71874500000001
 20
3.258608000000002
 30
0.0
 11
-0.1909657120704651
 21
1.285897374153137
 31
0.0
210
0.0
220
0.0
230
1.0
 40
0.9844799999999999
 41
3.141486352127976
 42
4.038903399138552
  0
ELLIPSE
  5
12A3A
330
18
100
AcDbEntity
  8
1
100
AcDbEllipse
 10
32.71874500000001
 20
3.258608000000002
 30
0.0
 11
-0.1909657120704651
 21
1.285897374153137
 31
0.0
210
0.0
220
0.0
230
1.0
 40
0.9844799999999999
 41
2.769394153961671
 42
3.141486352127976
  0
LINE
  5
12A3B
330
18
100
AcDbEntity
  8
1
 48
0.044169
100
AcDbLine
 10
27.58207899999999
 20
14.96667399999999
 30
0.0
 11
29.34880099999998
 21
14.958223
 31
0.0
  0
LINE
  5
12A3C
330
18
100
AcDbEntity
  8
INSERT
 48
0.017496
100
AcDbLine
 10
30.894826
 20
14.950828
 30
0.0
 11
30.96210200000002
 21
14.950506
 31
0.0
  0
ELLIPSE
  5
12A3D
330
18
100
AcDbEntity
  8
1
100
AcDbEllipse
 10
27.58179000000001
 20
13.217276
 30
0.0
 11
-0.2570692300796509
 21
1.731015682220458
 31
0.0
210
0.0
220
0.0
230
1.0
 40
0.9844799999999999
 41
0.8334267844126797
 42
1.203668873387117
  0
ELLIPSE
  5
12A3E
330
18
100
AcDbEntity
  8
1
100
AcDbEllipse
 10
27.58179000000001
 20
13.217276
 30
0.0
 11
-0.2570692300796509
 21
1.731015682220458
 31
0.0
210
0.0
220
0.0
230
1.0
 40
0.9844799999999999
 41
6.283079005717953
 42
6.82003272601906
  0
ELLIPSE
  5
12A3F
330
18
100
AcDbEntity
  8
1
100
AcDbEllipse
 10
27.58179000000001
 20
13.217276
 30
0.0
 11
-0.2570692300796509
 21
1.731015682220458
 31
0.0
210
0.0
220
0.0
230
1.0
 40
0.9844799999999999
 41
6.133298501580835
 42
6.283079005717953
  0
LINE
  5
12A40
330
18
100
AcDbEntity
  8
1
 48
0.019514
100
AcDbLine
 10
34.21417
 20
3.281517999999998
 30
0.0
 11
33.82737900000001
 21
2.603527999999997
 31
0.0
  0
LINE
  5
12A41
330
18
100
AcDbEntity
  8
1
 48
0.00048
100
AcDbLine
 10
29.63014300000001
 20
15.0
 30
0.0
 11
29.610939
 21
15.0
 31
0.0
  0
LINE
  5
12A42
330
18
100
AcDbEntity
  8
1
 48
0.01115
100
AcDbLine
 10
31.29540900000001
 20
15.0
 30
0.0
 11
30.84939499999999
 21
15.0
 31
0.0
  0
LINE
  5
12A43
330
18
100
AcDbEntity
  8
1
 48
0.106296
100
AcDbLine
 10
24.70372000000001
 20
15.0
 30
0.0
 11
20.451888
 21
15.0
 31
0.0
  0
LINE
  5
12A44
330
18
100
AcDbEntity
  8
1
 48
0.001468
100
AcDbLine
 10
24.70372000000001
 20
15.0
 30
0.0
 11
24.76245399999999
 21
15.0
 31
0.0
  0
LINE
  5
12A45
330
18
100
AcDbEntity
  8
1
 48
0.050865
100
AcDbLine
 10
24.76245399999999
 20
15.0
 30
0.0
 11
26.04601800000001
 21
13.42139799999999
 31
0.0
  0
LINE
  5
12A46
330
18
100
AcDbEntity
  8
1
 48
0.119615
100
AcDbLine
 10
33.22994599999999
 20
0.4906250000000015
 30
0.0
 11
35.57188700000001
 21
4.662875999999997
 31
0.0
  0
LINE
  5
12A47
330
18
100
AcDbEntity
  8
1
 48
0.016826
100
AcDbLine
 10
37.04280299999999
 20
7.283365000000003
 30
0.0
 11
37.37223799999998
 21
7.870265000000003
 31
0.0
  0
LINE
  5
12A48
330
18
100
AcDbEntity
  8
1
 48
0.001467
100
AcDbLine
 10
37.37223799999998
 20
7.870265000000003
 30
0.0
 11
37.31418500000001
 21
7.861643999999998
 31
0.0
  0
LINE
  5
12A49
330
18
100
AcDbEntity
  8
1
 48
0.002455
100
AcDbLine
 10
33.22994599999999
 20
0.4906250000000015
 30
0.0
 11
33.221193
 21
0.5884240000000034
 31
0.0
  0
LINE
  5
12A4A
330
18
100
AcDbEntity
  8
1
 48
0.368924
100
AcDbLine
 10
26.02828
 20
13.37097699999999
 30
0.0
 11
33.22994599999999
 21
0.4906250000000015
 31
0.0
  0
LINE
  5
12A4B
330
18
100
AcDbEntity
  8
1
 48
0.001336
100
AcDbLine
 10
26.02828
 20
13.37097699999999
 30
0.0
 11
26.04601800000001
 21
13.42139799999999
 31
0.0
  0
LINE
  5
12A4C
330
18
100
AcDbEntity
  8
1
 48
0.114063
100
AcDbLine
 10
19.27102099999999
 20
10.592945
 30
0.0
 11
20.451888
 21
15.0
 31
0.0
  0
ARC
  5
12A4D
330
18
100
AcDbEntity
  8
1
100
AcDbCircle
 10
18.49827999999999
 20
10.8
 30
0.0
 40
0.8
100
AcDbArc
 50
329.833887
 51
345.0
  0
LINE
  5
12A4E
330
18
100
AcDbEntity
  8
1
100
AcDbLine
 10
19.18993799999998
 20
10.397993
 30
0.0
 11
30.757091
 21
-10.0
 31
0.0
  0
LINE
  5
12A4F
330
18
100
AcDbEntity
  8
1
 48
0.10555
100
AcDbLine
 10
34.97908100000001
 20
-10.0
 30
0.0
 11
30.757091
 21
-10.0
 31
0.0
  0
LINE
  5
12A50
102
{ACAD_REACTORS
330
12CBB
102
}
330
18
100
AcDbEntity
  8
1
 48
0.144316
100
AcDbLine
 10
37.86487299999999
 20
-5.000461000000001
 30
0.0
 11
34.97908100000001
 21
-10.0
 31
0.0
  0
LINE
  5
12A51
330
18
100
AcDbEntity
  8
1
 48
0.314607
100
AcDbLine
 10
37.86487299999999
 20
-5.000461000000001
 30
0.0
 11
37.86487299999999
 21
7.583809000000002
 31
0.0
  0
LINE
  5
12A52
330
18
100
AcDbEntity
  8
1
 48
0.014247
100
AcDbLine
 10
37.37223799999998
 20
7.870265000000003
 30
0.0
 11
37.86487299999999
 21
7.583809000000002
 31
0.0
  0
LINE
  5
12A53
330
18
100
AcDbEntity
  8
1
 48
0.052489
100
AcDbLine
 10
24.70372000000001
 20
15.0
 30
0.0
 11
26.02828
 21
13.37097699999999
 31
0.0
  0
LINE
  5
12A54
330
18
100
AcDbEntity
  8
SK1
100
AcDbLine
 10
-82.548112
 20
-10.0
 30
0.0
 11
0.0
 21
-10.0
 31
0.0
  0
LINE
  5
12A55
330
18
100
AcDbEntity
  8
1
 48
0.019119
100
AcDbLine
 10
29.992335
 20
-10.0
 30
0.0
 11
30.757091
 21
-10.0
 31
0.0
  0
LINE
  5
12A56
330
18
100
AcDbEntity
  8
1
 48
0.014768
100
AcDbLine
 10
29.992335
 20
-10.0
 30
0.0
 11
29.401613
 21
-10.0
 31
0.0
  0
LINE
  5
12A57
330
18
100
AcDbEntity
  8
1
 48
0.23102
100
AcDbLine
 10
29.401613
 20
-10.0
 30
0.0
 11
20.16079400000001
 21
-10.0
 31
0.0
  0
LINE
  5
12A58
330
18
100
AcDbEntity
  8
1
 48
0.201504
100
AcDbLine
 10
18.06015099999999
 20
10.0
 30
0.0
 11
10.0
 21
10.0
 31
0.0
  0
LINE
  5
12A59
330
18
100
AcDbEntity
  8
1
 48
0.010953
100
AcDbLine
 10
18.06015099999999
 20
10.0
 30
0.0
 11
18.49827999999999
 21
10.0
 31
0.0
  0
LINE
  5
12A5A
330
18
100
AcDbEntity
  8
SK1
100
AcDbLine
 10
-82.548112
 20
10.0
 30
0.0
 11
0.0
 21
10.0
 31
0.0
  0
ARC
  5
12A5B
330
18
100
AcDbEntity
  8
1
100
AcDbCircle
 10
18.49827999999999
 20
10.8
 30
0.0
 40
0.8
100
AcDbArc
 50
270.0
 51
329.833887
  0
LINE
  5
12A5C
330
18
100
AcDbEntity
  8
1
100
AcDbLine
 10
29.992335
 20
-10.0
 30
0.0
 11
18.64335199999999
 21
10.01326399999999
 31
0.0
  0
LINE
  5
12A5D
330
18
100
AcDbEntity
  8
1
100
AcDbLine
 10
10.0
 20
10.0
 30
0.0
 11
20.16079400000001
 21
-10.0
 31
0.0
  0
LINE
  5
12A5E
330
18
100
AcDbEntity
  8
SK1
100
AcDbLine
 10
-82.548112
 20
10.0
 30
0.0
 11
-82.548112
 21
-10.0
 31
0.0
  0
LINE
  5
12A5F
102
{ACAD_REACTORS
330
12CEB
102
}
330
18
100
AcDbEntity
  8
SK1
100
AcDbLine
 10
-82.548112
 20
-10.0
 30
0.0
 11
-83.548112
 21
-9.0
 31
0.0
  0
LINE
  5
12A60
330
18
100
AcDbEntity
  8
1
100
AcDbLine
 10
18.06015099999999
 20
10.0
 30
0.0
 11
29.401613
 21
-10.0
 31
0.0
  0
LINE
  5
12A61
102
{ACAD_REACTORS
330
12CEB
102
}
330
18
100
AcDbEntity
  8
SK1
100
AcDbLine
 10
-82.548112
 20
10.0
 30
0.0
 11
-83.548112
 21
9.0
 31
0.0
  0
LINE
  5
12A62
102
{ACAD_REACTORS
330
12CD3
102
}
330
18
100
AcDbEntity
  8
SK1
100
AcDbLine
 10
-83.548112
 20
9.0
 30
0.0
 11
-83.548112
 21
-9.0
 31
0.0
  0
ELLIPSE
  5
12A63
330
18
100
AcDbEntity
  8
INSERT
 48
0.017496
100
AcDbEllipse
 10
33.41915
 20
10.01517599999999
 30
0.0
 11
-0.3084830939769745
 21
2.077218770980834
 31
0.0
210
0.0
220
0.0
230
1.0
 40
0.9844799999999997
 41
1.514357022038674
 42
7.797542329188966
  0
LINE
  5
12A64
330
18
100
AcDbEntity
  8
1
 48
0.01079
100
AcDbLine
 10
32.90957599999999
 20
1.972690999999997
 30
0.0
 11
32.48267099999998
 21
1.909292
 31
0.0
  0
LINE
  5
12A65
330
18
100
AcDbEntity
  8
1
 48
0.006362
100
AcDbLine
 10
27.32490300000001
 20
14.948318
 30
0.0
 11
27.07319699999999
 21
14.910938
 31
0.0
  0
ARC
  5
12A66
330
18
100
AcDbEntity
  8
1
100
AcDbCircle
 10
26.46184199999999
 20
-45.48701799999999
 30
0.0
 40
60.17285799999999
100
AcDbArc
 50
90.01443799999925
 51
91.36165900000056
  0
ELLIPSE
  5
12A68
330
18
100
AcDbEntity
  8
INSERT
 48
0.017496
100
AcDbEllipse
 10
35.16132999999999
 20
3.853656999999998
 30
0.0
 11
-0.5087170004844666
 21
-0.8609338402748106
 31
0.0
210
0.0
220
0.0
230
1.0
 40
0.137176
 41
3.538203970210021
 42
5.09364403379516
  0
ELLIPSE
  5
12A6A
330
18
100
AcDbEntity
  8
INSERT
 48
0.017496
100
AcDbEllipse
 10
29.86898700000001
 20
6.980848999999999
 30
0.0
 11
0.9895648956298829
 21
-1.734463572502136
 31
0.0
210
0.0
220
0.0
230
1.0
 40
0.081945
 41
3.395604452195927
 42
4.95104451472104
  0
LINE
  5
12A6B
330
18
100
AcDbEntity
  8
INSERT
 48
0.017496
100
AcDbLine
 10
30.40524500000001
 20
5.754618999999998
 30
0.0
 11
30.89752999999999
 21
4.930380999999997
 31
0.0
  0
LINE
  5
12A6C
330
18
100
AcDbEntity
  8
INSERT
 48
0.017496
100
AcDbLine
 10
31.01316800000001
 20
4.862051999999998
 30
0.0
 11
30.89752999999999
 21
4.930380999999997
 31
0.0
  0
ARC
  5
12A6D
330
18
100
AcDbEntity
  8
INSERT
 48
0.017496
100
AcDbCircle
 10
31.11495199999999
 20
5.030613000000002
 30
0.0
 40
0.196815
100
AcDbArc
 50
238.8747700000006
 51
277.8058510000008
  0
ARC
  5
12A6E
330
18
100
AcDbEntity
  8
INSERT
 48
0.017496
100
AcDbCircle
 10
31.117424
 20
5.005727
 30
0.0
 40
0.171675
100
AcDbArc
 50
278.116471
 51
316.240883
  0
LINE
  5
12A6F
330
18
100
AcDbEntity
  8
INSERT
 48
0.017496
100
AcDbLine
 10
31.24139700000001
 20
4.887011000000001
 30
0.0
 11
31.503401
 21
5.162303999999998
 31
0.0
  0
ARC
  5
12A70
330
18
100
AcDbEntity
  8
INSERT
 48
0.017496
100
AcDbCircle
 10
31.62960099999998
 20
5.016892999999996
 30
0.0
 40
0.198599
100
AcDbArc
 50
54.08732899999991
 51
97.66882000000036
  0
ARC
  5
12A71
330
18
100
AcDbEntity
  8
INSERT
 48
0.017496
100
AcDbCircle
 10
31.62726900000001
 20
5.043753000000002
 30
0.0
 40
0.17148
100
AcDbArc
 50
98.09424200000041
 51
136.2566299999999
  0
LINE
  5
12A72
330
18
100
AcDbEntity
  8
INSERT
 48
0.017496
100
AcDbLine
 10
31.74617000000001
 20
5.177851000000003
 30
0.0
 11
32.57136600000001
 21
4.594785999999999
 31
0.0
  0
ARC
  5
12A73
330
18
100
AcDbEntity
  8
INSERT
 48
0.017496
100
AcDbCircle
 10
32.50995399999999
 20
4.507576999999997
 30
0.0
 40
0.106825
100
AcDbArc
 50
5.051153000000161
 51
54.84706400000098
  0
ARC
  5
12A74
330
18
100
AcDbEntity
  8
INSERT
 48
0.017496
100
AcDbCircle
 10
32.52716899999999
 20
4.508474999999997
 30
0.0
 40
0.089577
100
AcDbArc
 50
347.875393
 51
5.448743000000169
  0
LINE
  5
12A75
330
18
100
AcDbEntity
  8
INSERT
 48
0.017496
100
AcDbLine
 10
32.3083
 20
3.016739999999998
 30
0.0
 11
32.61472900000001
 21
4.489663999999997
 31
0.0
  0
ARC
  5
12A76
330
18
100
AcDbEntity
  8
INSERT
 48
0.017496
100
AcDbCircle
 10
32.496195
 20
2.978062000000001
 30
0.0
 40
0.191841
100
AcDbArc
 50
168.3680880000002
 51
184.771906
  0
ARC
  5
12A77
330
18
100
AcDbEntity
  8
INSERT
 48
0.017496
100
AcDbCircle
 10
32.51848200000001
 20
2.981963
 30
0.0
 40
0.214509
100
AcDbArc
 50
185.31543
 51
239.4964340000003
  0
LINE
  5
12A78
330
18
100
AcDbEntity
  8
INSERT
 48
0.017496
100
AcDbLine
 10
32.40956499999999
 20
2.797086
 30
0.0
 11
32.96999700000001
 21
2.465932000000002
 31
0.0
  0
ARC
  5
12A79
330
18
100
AcDbEntity
  8
INSERT
 48
0.017496
100
AcDbCircle
 10
33.07178099999999
 20
2.634493999999996
 30
0.0
 40
0.196815
100
AcDbArc
 50
238.8747720000009
 51
277.8058510000008
  0
ARC
  5
12A7A
330
18
100
AcDbEntity
  8
INSERT
 48
0.017496
100
AcDbCircle
 10
33.074253
 20
2.609608000000001
 30
0.0
 40
0.171674
100
AcDbArc
 50
278.1164699999999
 51
316.2408839999999
  0
LINE
  5
12A7B
330
18
100
AcDbEntity
  8
INSERT
 48
0.017496
100
AcDbLine
 10
33.19822600000001
 20
2.490892000000002
 30
0.0
 11
34.20577
 21
3.549534000000001
 31
0.0
  0
ARC
  5
12A7C
330
18
100
AcDbEntity
  8
INSERT
 48
0.017496
100
AcDbCircle
 10
34.270217
 20
3.483733
 30
0.0
 40
0.092538
100
AcDbArc
 50
62.94029400000012
 51
99.43352300000029
  0
ARC
  5
12A7D
330
18
100
AcDbEntity
  8
INSERT
 48
0.017496
100
AcDbCircle
 10
34.26774
 20
3.490039000000002
 30
0.0
 40
0.085967
100
AcDbArc
 50
98.4938410000003
 51
136.1668140000003
  0
LINE
  5
12A7E
330
18
100
AcDbEntity
  8
INSERT
 48
0.017496
100
AcDbLine
 10
34.31228899999999
 20
3.566091999999997
 30
0.0
 11
34.73853199999999
 21
3.359389999999997
 31
0.0
  0
LINE
  5
12A7F
330
18
100
AcDbEntity
  8
INSERT
 48
0.017496
100
AcDbLine
 10
34.862425
 20
3.598087999999997
 30
0.0
 11
34.73853199999999
 21
3.359389999999997
 31
0.0
  0
LINE
  5
12A80
330
18
100
AcDbEntity
  8
INSERT
 48
0.017496
100
AcDbLine
 10
29.96481499999999
 20
6.492035999999998
 30
0.0
 11
30.05168100000001
 21
6.346594000000003
 31
0.0
  0
LINE
  5
12A81
330
18
100
AcDbEntity
  8
INSERT
 48
0.017496
100
AcDbLine
 10
30.34557699999999
 20
6.172933999999997
 30
0.0
 11
30.05168100000001
 21
6.346594000000003
 31
0.0
  0
ARC
  5
12A82
330
18
100
AcDbEntity
  8
INSERT
 48
0.017496
100
AcDbCircle
 10
30.23685999999998
 20
5.988393999999999
 30
0.0
 40
0.214117
100
AcDbArc
 50
5.315428999999956
 51
59.4964349999994
  0
ARC
  5
12A83
330
18
100
AcDbEntity
  8
INSERT
 48
0.017496
100
AcDbCircle
 10
30.25910500000001
 20
5.992288999999999
 30
0.0
 40
0.191491
100
AcDbArc
 50
348.3680870000001
 51
4.771905000000135
  0
LINE
  5
12A84
330
18
100
AcDbEntity
  8
INSERT
 48
0.017496
100
AcDbLine
 10
30.40524500000001
 20
5.754618999999998
 30
0.0
 11
30.44665800000001
 21
5.953681000000003
 31
0.0
  0
LINE
  5
12A85
330
18
100
AcDbEntity
  8
INSERT
 48
0.017496
100
AcDbLine
 10
38.088932
 20
9.253697000000002
 30
0.0
 11
38.17584600000001
 21
9.399549000000007
 31
0.0
  0
ELLIPSE
  5
12A86
330
18
100
AcDbEntity
  8
INSERT
 48
0.017496
100
AcDbEllipse
 10
37.99296799999999
 20
8.817113000000006
 30
0.0
 11
-0.9931432604789732
 21
-1.725597262382506
 31
0.0
210
0.0
220
0.0
230
1.0
 40
0.069213
 41
4.49662471344676
 42
6.052042181880166
  0
LINE
  5
12A87
330
18
100
AcDbEntity
  8
INSERT
 48
0.017496
100
AcDbLine
 10
36.99887799999999
 20
7.153154999999998
 30
0.0
 11
35.58493799999999
 21
4.674717999999998
 31
0.0
  0
LINE
  5
12A88
330
18
100
AcDbEntity
  8
INSERT
 48
0.017496
100
AcDbLine
 10
34.73853199999999
 20
3.359389999999997
 30
0.0
 11
34.21417
 21
3.281517999999998
 31
0.0
  0
LINE
  5
12A89
330
18
100
AcDbEntity
  8
INSERT
 48
0.017496
100
AcDbLine
 10
27.462336
 20
11.13124
 30
0.0
 11
28.87545900000001
 21
8.639279999999999
 31
0.0
  0
LINE
  5
12A8B
330
18
100
AcDbEntity
  8
INSERT
 48
0.017496
100
AcDbLine
 10
37.00017
 20
15.018084
 30
0.0
 11
34.17310699999999
 21
15.03160700000001
 31
0.0
  0
ELLIPSE
  5
12A8D
330
18
100
AcDbEntity
  8
INSERT
 48
0.017496
100
AcDbEllipse
 10
27.03899999999999
 20
11.97136
 30
0.0
 11
-0.5025007128715516
 21
0.8645768165588378
 31
0.0
210
0.0
220
0.0
230
1.0
 40
0.163381
 41
1.720747049952097
 42
2.790723672472512
  0
LINE
  5
12A8E
330
18
100
AcDbEntity
  8
INSERT
 48
0.017496
100
AcDbLine
 10
26.740172
 20
12.178504
 30
0.0
 11
26.61635899999999
 21
12.42250099999999
 31
0.0
  0
LINE
  5
12A8F
330
18
100
AcDbEntity
  8
INSERT
 48
0.017496
100
AcDbLine
 10
26.61635899999999
 20
12.42250099999999
 30
0.0
 11
26.60542899999999
 21
12.420878
 31
0.0
  0
LINE
  5
12A90
330
18
100
AcDbEntity
  8
INSERT
 48
0.017496
100
AcDbLine
 10
30.05168100000001
 20
6.346594000000003
 30
0.0
 11
30.005517
 21
6.339739000000001
 31
0.0
  0
LINE
  5
12A92
330
18
100
AcDbEntity
  8
INSERT
 48
0.017496
100
AcDbLine
 10
30.338233
 20
5.744666999999999
 30
0.0
 11
30.40524500000001
 21
5.754618999999998
 31
0.0
  0
LINE
  5
12A95
330
18
100
AcDbEntity
  8
INSERT
 48
0.017496
100
AcDbLine
 10
31.355447
 20
5.006841000000001
 30
0.0
 11
32.04505999999998
 21
4.516626000000002
 31
0.0
  0
ARC
  5
12A97
330
18
100
AcDbEntity
  8
INSERT
 48
0.017496
100
AcDbCircle
 10
31.98658399999999
 20
4.433706999999998
 30
0.0
 40
0.101433
100
AcDbArc
 50
2.707195999999874
 51
54.80781400000012
  0
LINE
  5
12A98
330
18
100
AcDbEntity
  8
INSERT
 48
0.017496
100
AcDbLine
 10
32.087863
 20
4.438496
 30
0.0
 11
32.085003
 21
4.410995999999997
 31
0.0
  0
LINE
  5
12A9A
330
18
100
AcDbEntity
  8
INSERT
 48
0.017496
100
AcDbLine
 10
32.085003
 20
4.410995999999997
 30
0.0
 11
31.77183600000001
 21
3.180636999999997
 31
0.0
  0
LINE
  5
12A9D
330
18
100
AcDbEntity
  8
INSERT
 48
0.017496
100
AcDbLine
 10
32.15267599999999
 20
2.499493999999998
 30
0.0
 11
32.362226
 21
2.375672999999999
 31
0.0
  0
ARC
  5
12A9F
330
18
100
AcDbEntity
  8
INSERT
 48
0.017496
100
AcDbCircle
 10
32.46441099999998
 20
2.547099000000002
 30
0.0
 40
0.199536
100
AcDbArc
 50
239.2011490000007
 51
278.1952930000002
  0
LINE
  5
12AA0
330
18
100
AcDbEntity
  8
INSERT
 48
0.017496
100
AcDbLine
 10
34.31228899999999
 20
3.566091999999997
 30
0.0
 11
34.20658800000001
 21
3.550395000000001
 31
0.0
  0
LINE
  5
12AA1
330
18
100
AcDbEntity
  8
INSERT
 48
0.017496
100
AcDbLine
 10
34.033559
 20
3.368583999999998
 30
0.0
 11
34.21417
 21
3.281517999999998
 31
0.0
  0
LINE
  5
12AA4
330
18
100
AcDbEntity
  8
INSERT
 48
0.017496
100
AcDbLine
 10
38.17590300000001
 20
9.744057999999995
 30
0.0
 11
38.17584600000001
 21
9.399549000000007
 31
0.0
  0
LINE
  5
12AA5
330
18
100
AcDbEntity
  8
INSERT
 48
0.017496
100
AcDbLine
 10
38.529605
 20
9.993195
 30
0.0
 11
39.02216099999998
 21
10.81975800000001
 31
0.0
  0
LINE
  5
12AA6
330
18
100
AcDbEntity
  8
INSERT
 48
0.017496
100
AcDbLine
 10
39.02218299999999
 20
10.955309
 30
0.0
 11
39.02216099999998
 21
10.81975800000001
 31
0.0
  0
ARC
  5
12AA7
330
18
100
AcDbEntity
  8
INSERT
 48
0.017496
100
AcDbCircle
 10
38.82296
 20
10.955771
 30
0.0
 40
0.19918
100
AcDbArc
 50
359.8672890000001
 51
74.95181400000044
  0
LINE
  5
12AA8
330
18
100
AcDbEntity
  8
INSERT
 48
0.017496
100
AcDbLine
 10
38.874662
 20
11.14807999999999
 30
0.0
 11
38.47757999999999
 21
11.254001
 31
0.0
  0
ARC
  5
12AA9
330
18
100
AcDbEntity
  8
INSERT
 48
0.017496
100
AcDbCircle
 10
38.529279
 20
11.446308
 30
0.0
 40
0.199176
100
AcDbArc
 50
179.7314699999999
 51
254.9526339999993
  0
LINE
  5
12AAA
330
18
100
AcDbEntity
  8
INSERT
 48
0.017496
100
AcDbLine
 10
38.33081899999999
 20
11.46419799999999
 30
0.0
 11
38.33006000000001
 21
11.447242
 31
0.0
  0
LINE
  5
12AAB
330
18
100
AcDbEntity
  8
INSERT
 48
0.017496
100
AcDbLine
 10
38.33081899999999
 20
11.46419799999999
 30
0.0
 11
38.41912500000001
 21
12.476161
 31
0.0
  0
ARC
  5
12AAC
330
18
100
AcDbEntity
  8
INSERT
 48
0.017496
100
AcDbCircle
 10
38.519004
 20
12.46751899999999
 30
0.0
 40
0.10024
100
AcDbArc
 50
105.3130239999999
 51
175.0545130000001
  0
LINE
  5
12AAD
330
18
100
AcDbEntity
  8
INSERT
 48
0.017496
100
AcDbLine
 10
40.01966199999998
 20
12.978714
 30
0.0
 11
38.492537
 21
12.564182
 31
0.0
  0
ARC
  5
12AAE
330
18
100
AcDbEntity
  8
INSERT
 48
0.017496
100
AcDbCircle
 10
39.96677
 20
13.172022
 30
0.0
 40
0.20045
100
AcDbArc
 50
285.3024220000007
 51
359.911169
  0
LINE
  5
12AAF
330
18
100
AcDbEntity
  8
INSERT
 48
0.017496
100
AcDbLine
 10
40.16724599999998
 20
13.17218099999999
 30
0.0
 11
40.16735399999999
 21
13.829126
 31
0.0
  0
ARC
  5
12AB0
330
18
100
AcDbEntity
  8
INSERT
 48
0.017496
100
AcDbCircle
 10
39.968131
 20
13.829588
 30
0.0
 40
0.19918
100
AcDbArc
 50
359.8672890000001
 51
74.95181400000044
  0
LINE
  5
12AB1
330
18
100
AcDbEntity
  8
INSERT
 48
0.017496
100
AcDbLine
 10
40.019833
 20
14.02189699999999
 30
0.0
 11
38.49284299999999
 21
14.429219
 31
0.0
  0
ARC
  5
12AB2
330
18
100
AcDbEntity
  8
INSERT
 48
0.017496
100
AcDbCircle
 10
38.518902
 20
14.52578
 30
0.0
 40
0.100058
100
AcDbArc
 50
185.107169
 51
254.8973659999997
  0
LINE
  5
12AB3
330
18
100
AcDbEntity
  8
INSERT
 48
0.017496
100
AcDbLine
 10
38.41945999999999
 20
14.51689299999999
 30
0.0
 11
38.37784299999999
 21
14.995414
 31
0.0
  0
LINE
  5
12AB4
330
18
100
AcDbEntity
  8
INSERT
 48
0.017496
100
AcDbLine
 10
38.089875
 20
14.99473399999999
 30
0.0
 11
38.37784299999999
 21
14.995414
 31
0.0
  0
ARC
  5
12AB6
330
18
100
AcDbEntity
  8
INSERT
 48
0.017496
100
AcDbCircle
 10
38.376013
 20
9.744216999999991
 30
0.0
 40
0.200084
100
AcDbArc
 50
105.3024220000006
 51
179.911169
  0
LINE
  5
12AB7
330
18
100
AcDbEntity
  8
INSERT
 48
0.017496
100
AcDbLine
 10
38.529605
 20
9.993195
 30
0.0
 11
38.323218
 21
9.937172000000003
 31
0.0
  0
ELLIPSE
  5
12AB8
330
18
100
AcDbEntity
  8
INSERT
 48
0.017496
100
AcDbEllipse
 10
37.99397199999999
 20
15.020835
 30
0.0
 11
1.0
 21
-0.000164318116731
 31
0.0
210
0.0
220
0.0
230
1.0
 40
0.026206
 41
3.253004930810254
 42
4.808444994407712
  0
ARC
  5
12AB9
330
18
100
AcDbEntity
  8
INSERT
 48
0.017496
100
AcDbCircle
 10
26.42350299999999
 20
12.699219
 30
0.0
 40
0.099951
100
AcDbArc
 50
312.4877229999993
 51
358.3762680000001
  0
LINE
  5
12ABA
330
18
100
AcDbEntity
  8
INSERT
 48
0.017496
100
AcDbLine
 10
26.520486
 20
12.722273
 30
0.0
 11
26.52339100000001
 21
12.696387
 31
0.0
  0
LINE
  5
12ABB
330
18
100
AcDbEntity
  8
INSERT
 48
0.017496
100
AcDbLine
 10
26.520486
 20
12.722273
 30
0.0
 11
26.14337699999999
 21
14.209376
 31
0.0
  0
ARC
  5
12ABC
330
18
100
AcDbEntity
  8
INSERT
 48
0.017496
100
AcDbCircle
 10
26.329419
 20
14.256451
 30
0.0
 40
0.191907
100
AcDbArc
 50
178.597405
 51
194.1996330000001
  0
ARC
  5
12ABD
330
18
100
AcDbEntity
  8
INSERT
 48
0.017496
100
AcDbCircle
 10
26.33827299999999
 20
14.25511299999999
 30
0.0
 40
0.200878
100
AcDbArc
 50
119.9887740000006
 51
178.2775299999998
  0
LINE
  5
12ABE
330
18
100
AcDbEntity
  8
INSERT
 48
0.017496
100
AcDbLine
 10
26.79837800000001
 20
14.754941
 30
0.0
 11
26.23783800000001
 21
14.42914899999999
 31
0.0
  0
ARC
  5
12ABF
330
18
100
AcDbEntity
  8
INSERT
 48
0.017496
100
AcDbCircle
 10
26.89931100000001
 20
14.581562
 30
0.0
 40
0.200615
100
AcDbArc
 50
98.48476500000002
 51
120.2058360000009
  0
LINE
  5
12AC0
330
18
100
AcDbEntity
  8
INSERT
 48
0.017496
100
AcDbLine
 10
29.12705399999999
 20
14.056741
 30
0.0
 11
28.57625500000001
 21
13.796531
 31
0.0
  0
ARC
  5
12AC1
330
18
100
AcDbEntity
  8
INSERT
 48
0.017496
100
AcDbCircle
 10
29.04155700000001
 20
14.238907
 30
0.0
 40
0.201172
100
AcDbArc
 50
295.1424569999996
 51
358.244233
  0
LINE
  5
12AC2
330
18
100
AcDbEntity
  8
INSERT
 48
0.017496
100
AcDbLine
 10
29.24188100000001
 20
14.254137
 30
0.0
 11
29.24254500000001
 21
14.23274599999999
 31
0.0
  0
LINE
  5
12AC3
330
18
100
AcDbEntity
  8
INSERT
 48
0.017496
100
AcDbLine
 10
29.23674499999999
 20
14.28451699999999
 30
0.0
 11
29.24188100000001
 21
14.254137
 31
0.0
  0
LINE
  5
12AC4
330
18
100
AcDbEntity
  8
INSERT
 48
0.017496
100
AcDbLine
 10
29.23674499999999
 20
14.28451699999999
 30
0.0
 11
29.13867999999999
 21
14.671228
 31
0.0
  0
ARC
  5
12AC5
330
18
100
AcDbEntity
  8
INSERT
 48
0.017496
100
AcDbCircle
 10
29.32453899999999
 20
14.71813199999999
 30
0.0
 40
0.19169
100
AcDbArc
 50
178.5450950000001
 51
194.1636330000003
  0
ARC
  5
12AC6
330
18
100
AcDbEntity
  8
INSERT
 48
0.017496
100
AcDbCircle
 10
29.333607
 20
14.71697
 30
0.0
 40
0.200889
100
AcDbArc
 50
119.9973489999992
 51
178.2794270000001
  0
LINE
  5
12AC7
330
18
100
AcDbEntity
  8
INSERT
 48
0.017496
100
AcDbLine
 10
29.23314199999999
 20
14.891001
 30
0.0
 11
29.34880099999998
 21
14.958223
 31
0.0
  0
LINE
  5
12AC8
330
18
100
AcDbEntity
  8
INSERT
 48
0.017496
100
AcDbLine
 10
30.91852499999999
 20
14.925179
 30
0.0
 11
30.96210200000002
 21
14.950506
 31
0.0
  0
LINE
  5
12AC9
330
18
100
AcDbEntity
  8
INSERT
 48
0.017496
100
AcDbLine
 10
31.477093
 20
15.02698599999999
 30
0.0
 11
30.96210200000002
 21
14.950506
 31
0.0
  0
LINE
  5
12ACA
330
18
100
AcDbEntity
  8
INSERT
 48
0.017496
100
AcDbLine
 10
31.63872599999999
 20
15.025592
 30
0.0
 11
31.477093
 21
15.02698599999999
 31
0.0
  0
SPLINE
  5
12ACB
330
18
100
AcDbEntity
  8
INSERT
 48
0.017496
100
AcDbSpline
210
0.0
220
0.0
230
1.0
 70
     8
 71
     5
 72
    18
 73
    12
 74
     0
 42
0.0000000001
 43
0.0000000001
 40
0.0
 40
0.0
 40
0.0
 40
0.0
 40
0.0
 40
0.0
 40
0.8604540657137556
 40
0.8604540657137556
 40
0.8604540657137556
 40
2.733549336863028
 40
2.733549336863028
 40
2.733549336863028
 40
4.593039497679021
 40
4.593039497679021
 40
4.593039497679021
 40
4.593039497679021
 40
4.593039497679021
 40
4.593039497679021
 10
34.17310677455612
 20
15.03160739749917
 30
0.0
 10
34.10147848711236
 20
15.02941722024414
 30
0.0
 10
34.01594085651701
 20
15.02769608042816
 30
0.0
 10
33.92872709884489
 20
15.02650340774252
 30
0.0
 10
33.63470173540236
 20
15.02281047800906
 30
0.0
 10
33.32086718730881
 20
15.02084195211903
 30
0.0
 10
33.12966232922139
 20
15.02049654649448
 30
0.0
 10
32.69860761108123
 20
15.02013785659186
 30
0.0
 10
32.26926202429007
 20
15.02142141559176
 30
0.0
 10
32.05680615580553
 20
15.02243000586888
 30
0.0
 10
31.84606015469251
 20
15.02380438127046
 30
0.0
 10
31.63872600738884
 20
15.02559242385664
 30
0.0
  0
LINE
  5
12ACD
330
18
100
AcDbEntity
  8
INSERT
 48
0.017496
100
AcDbLine
 10
30.81921799999998
 20
15.03265999999999
 30
0.0
 11
29.903224
 21
15.040559
 31
0.0
  0
LINE
  5
12ACE
330
18
100
AcDbEntity
  8
INSERT
 48
0.017496
100
AcDbLine
 10
29.787564
 20
14.973337
 30
0.0
 11
29.903224
 21
15.040559
 31
0.0
  0
ARC
  5
12ACF
330
18
100
AcDbEntity
  8
INSERT
 48
0.017496
100
AcDbCircle
 10
29.89506599999998
 20
14.789518
 30
0.0
 40
0.212942
100
AcDbArc
 50
120.3202430000005
 51
175.9222680000002
  0
ARC
  5
12AD0
330
18
100
AcDbEntity
  8
INSERT
 48
0.017496
100
AcDbCircle
 10
29.87948699999999
 20
14.7917
 30
0.0
 40
0.197192
100
AcDbArc
 50
176.232728
 51
191.4538220000001
  0
LINE
  5
12AD1
330
18
100
AcDbEntity
  8
INSERT
 48
0.017496
100
AcDbLine
 10
29.68622600000001
 20
14.752543
 30
0.0
 11
29.765784
 21
14.363084
 31
0.0
  0
ARC
  5
12AD2
330
18
100
AcDbEntity
  8
INSERT
 48
0.017496
100
AcDbCircle
 10
29.57243
 20
14.32392199999999
 30
0.0
 40
0.197285
100
AcDbArc
 50
356.2358969999999
 51
11.44978200000017
  0
ARC
  5
12AD3
330
18
100
AcDbEntity
  8
INSERT
 48
0.017496
100
AcDbCircle
 10
29.55709400000001
 20
14.326042
 30
0.0
 40
0.212778
100
AcDbArc
 50
295.6696160000005
 51
355.937501
  0
LINE
  5
12AD4
330
18
100
AcDbEntity
  8
INSERT
 48
0.017496
100
AcDbLine
 10
29.64925199999999
 20
14.134291
 30
0.0
 11
28.748074
 21
13.707224
 31
0.0
  0
ARC
  5
12AD5
330
18
100
AcDbEntity
  8
INSERT
 48
0.017496
100
AcDbCircle
 10
28.70995299999999
 20
13.779739
 30
0.0
 40
0.081885
100
AcDbArc
 50
276.8997180000005
 51
297.7305100000007
  0
ARC
  5
12AD6
330
18
100
AcDbEntity
  8
INSERT
 48
0.017496
100
AcDbCircle
 10
28.70668000000001
 20
13.787305
 30
0.0
 40
0.089663
100
AcDbArc
 50
223.3424870000002
 51
278.3934130000001
  0
LINE
  5
12AD7
330
18
100
AcDbEntity
  8
INSERT
 48
0.017496
100
AcDbLine
 10
27.63436999999999
 20
14.815948
 30
0.0
 11
28.641561
 21
13.72584899999999
 31
0.0
  0
ARC
  5
12AD8
330
18
100
AcDbEntity
  8
INSERT
 48
0.017496
100
AcDbCircle
 10
27.506866
 20
14.672298
 30
0.0
 40
0.200093
100
AcDbArc
 50
98.59813099999938
 51
120.2212700000001
  0
ARC
  5
12AD9
330
18
100
AcDbEntity
  8
INSERT
 48
0.017496
100
AcDbCircle
 10
27.50486799999999
 20
14.694806
 30
0.0
 40
0.177426
100
AcDbArc
 50
43.089564
 51
99.0463419999997
  0
LINE
  5
12ADA
330
18
100
AcDbEntity
  8
INSERT
 48
0.017496
100
AcDbLine
 10
27.40615
 20
14.84519899999999
 30
0.0
 11
26.845609
 21
14.519408
 31
0.0
  0
ARC
  5
12ADB
330
18
100
AcDbEntity
  8
INSERT
 48
0.017496
100
AcDbCircle
 10
26.95311200000001
 20
14.335589
 30
0.0
 40
0.212942
100
AcDbArc
 50
120.3202450000001
 51
175.9222669999998
  0
ARC
  5
12ADC
330
18
100
AcDbEntity
  8
INSERT
 48
0.017496
100
AcDbCircle
 10
26.93753200000001
 20
14.337771
 30
0.0
 40
0.197192
100
AcDbArc
 50
176.232728
 51
191.4538220000001
  0
LINE
  5
12ADD
330
18
100
AcDbEntity
  8
INSERT
 48
0.017496
100
AcDbLine
 10
26.744271
 20
14.298614
 30
0.0
 11
27.05021299999998
 21
12.80094199999999
 31
0.0
  0
LINE
  5
12ADE
330
18
100
AcDbEntity
  8
INSERT
 48
0.017496
100
AcDbLine
 10
27.05196699999999
 20
12.774885
 30
0.0
 11
27.05021299999998
 21
12.80094199999999
 31
0.0
  0
ARC
  5
12ADF
330
18
100
AcDbEntity
  8
INSERT
 48
0.017496
100
AcDbCircle
 10
26.94584900000001
 20
12.782067
 30
0.0
 40
0.10633
100
AcDbArc
 50
305.0581809999999
 51
356.1281259999999
  0
LINE
  5
12AE0
330
18
100
AcDbEntity
  8
INSERT
 48
0.017496
100
AcDbLine
 10
27.00681499999999
 20
12.695186
 30
0.0
 11
26.61635899999999
 21
12.42250099999999
 31
0.0
  0
LINE
  5
12AE1
330
18
100
AcDbEntity
  8
INSERT
 48
0.017496
100
AcDbLine
 10
31.18314100000001
 20
14.856138
 30
0.0
 11
31.477093
 21
15.02698599999999
 31
0.0
  0
ARC
  5
12AE2
330
18
100
AcDbEntity
  8
INSERT
 48
0.017496
100
AcDbCircle
 10
31.082608
 20
15.028723
 30
0.0
 40
0.199728
100
AcDbArc
 50
278.598132
 51
300.2212700000001
  0
ARC
  5
12AE3
330
18
100
AcDbEntity
  8
INSERT
 48
0.017496
100
AcDbCircle
 10
31.08460300000002
 20
15.006257
 30
0.0
 40
0.177102
100
AcDbArc
 50
223.0895630000006
 51
279.0463419999997
  0
LINE
  5
12AE4
330
18
100
AcDbEntity
  8
INSERT
 48
0.017496
100
AcDbLine
 10
30.81921799999998
 20
15.03265999999999
 30
0.0
 11
30.95533699999999
 21
14.88533599999999
 31
0.0
  0
LINE
  5
12AEA
330
18
100
AcDbEntity
  8
INSERT
 48
0.017496
100
AcDbLine
 10
28.748074
 20
13.707224
 30
0.0
 11
28.692036
 21
13.698902
 31
0.0
  0
LINE
  5
12AEF
330
18
100
AcDbEntity
  8
INSERT
 48
0.017496
100
AcDbLine
 10
29.903224
 20
15.040559
 30
0.0
 11
29.34880099999998
 21
14.958223
 31
0.0
  0
LINE
  5
12AF0
330
18
100
AcDbEntity
  8
INSERT
 48
0.017496
100
AcDbLine
 10
31.18314100000001
 20
14.856138
 30
0.0
 11
31.04005999999998
 21
14.83489
 31
0.0
  0
LINE
  5
12AF1
330
18
100
AcDbEntity
  8
INSERT
 48
0.017496
100
AcDbLine
 10
31.14163700000001
 20
4.835694000000003
 30
0.0
 11
30.86909
 21
4.795219000000003
 31
0.0
  0
LINE
  5
12AF2
330
18
100
AcDbEntity
  8
INSERT
 48
0.017496
100
AcDbLine
 10
33.098466
 20
2.439574999999997
 30
0.0
 11
32.49285
 21
2.349636000000003
 31
0.0
  0
LINE
  5
12AF3
330
18
100
AcDbEntity
  8
INSERT
 48
0.017496
100
AcDbLine
 10
27.47680499999999
 20
14.870136
 30
0.0
 11
26.869711
 21
14.779978
 31
0.0
  0
ELLIPSE
  5
12AF4
330
18
100
AcDbEntity
  8
SKVIEW1
100
AcDbEllipse
 10
26.1948940020036
 20
-46.97717614504665
 30
0.0
 11
2.699946880340576
 21
-0.0169235914945602
 31
0.0
210
0.0
220
0.0
230
1.0
 40
0.9996569999999998
 41
3.141755317421211
 42
4.403876589542051
  0
ELLIPSE
  5
12AF5
330
18
100
AcDbEntity
  8
SKVIEW1
100
AcDbEllipse
 10
26.1948940020036
 20
-46.97717614504665
 30
0.0
 11
2.699946880340576
 21
-0.0169235914945602
 31
0.0
210
0.0
220
0.0
230
1.0
 40
0.9996569999999998
 41
5.548867059255775
 42
6.283206435181749
  0
ELLIPSE
  5
12AF6
330
18
100
AcDbEntity
  8
SKVIEW1
100
AcDbEllipse
 10
26.1948020020036
 20
-46.99165914504665
 30
0.0
 11
2.999941110610961
 21
-0.0188039913773537
 31
0.0
210
0.0
220
0.0
230
1.0
 40
0.999657
 41
0.0158646210554217
 42
0.680740211966492
  0
ELLIPSE
  5
12AF7
330
18
100
AcDbEntity
  8
SKVIEW1
100
AcDbEllipse
 10
26.1948020020036
 20
-46.99165914504665
 30
0.0
 11
2.999941110610961
 21
-0.0188039913773537
 31
0.0
210
0.0
220
0.0
230
1.0
 40
0.999657
 41
0.6807402111948563
 42
3.125789887811256
  0
ARC
  5
12AF8
330
18
100
AcDbEntity
  8
SKVIEW1
100
AcDbCircle
 10
26.1952420020036
 20
-46.97533814504665
 30
0.0
 40
2.700572
100
AcDbArc
 50
286.0953959999994
 51
317.5435339999998
  0
ARC
  5
12AF9
330
18
100
AcDbEntity
  8
SKVIEW1
100
AcDbCircle
 10
26.19469800200358
 20
-46.97397814504665
 30
0.0
 40
2.702033999999999
100
AcDbArc
 50
251.9243500000006
 51
286.0984920000007
  0
LINE
  5
12AFA
330
18
100
AcDbEntity
  8
SKVIEW1
100
AcDbLine
 10
25.53814100200359
 20
-50.63769414504665
 30
0.0
 11
25.3563310020036
 21
-49.54265914504666
 31
0.0
  0
LINE
  5
12AFB
330
18
100
AcDbEntity
  8
SKVIEW1
100
AcDbLine
 10
28.87091700200358
 20
-48.33293314504665
 30
0.0
 11
30.09156900200361
 21
-48.11785214504666
 31
0.0
  0
LINE
  5
12AFC
330
18
100
AcDbEntity
  8
SKVIEW1
100
AcDbLine
 10
28.4891550020036
 20
-48.40020014504665
 30
0.0
 11
28.87091700200358
 21
-48.33293314504665
 31
0.0
  0
ELLIPSE
  5
12AFD
330
18
100
AcDbEntity
  8
SKVIEW1
100
AcDbEllipse
 10
26.1952520020036
 20
-46.91952314504665
 30
0.0
 11
2.699946880340576
 21
-0.0169235914945602
 31
0.0
210
0.0
220
0.0
230
1.0
 40
0.9996569999999998
 41
3.087494524237511
 42
3.141569804909759
  0
ELLIPSE
  5
12AFE
330
18
100
AcDbEntity
  8
SKVIEW1
100
AcDbEllipse
 10
26.1952520020036
 20
-46.91952314504665
 30
0.0
 11
2.699946880340576
 21
-0.0169235914945602
 31
0.0
210
0.0
220
0.0
230
1.0
 40
0.9996569999999998
 41
3.141569804909759
 42
6.283162458475593
  0
ARC
  5
12AFF
330
18
100
AcDbEntity
  8
SKVIEW1
100
AcDbCircle
 10
26.0716590020036
 20
-46.89205714504665
 30
0.0
 40
3.12338
100
AcDbArc
 50
333.6823059999992
 51
353.2049550000001
  0
ARC
  5
12B00
330
18
100
AcDbEntity
  8
SKVIEW1
100
AcDbCircle
 10
26.19362500200359
 20
-46.89671214504665
 30
0.0
 40
3.001768
100
AcDbArc
 50
353.0177359999999
 51
359.6365360000001
  0
LINE
  5
12B02
330
18
100
AcDbEntity
  8
SKVIEW1
100
AcDbLine
 10
28.87091700200358
 20
-48.33293314504665
 30
0.0
 11
28.8712690020036
 21
-48.27678614504666
 31
0.0
  0
ARC
  5
12B04
330
18
100
AcDbEntity
  8
SKVIEW1
100
AcDbCircle
 10
26.1970740020036
 20
-46.89675714504665
 30
0.0
 40
3.001673999999999
100
AcDbArc
 50
179.5127979999998
 51
218.6328839999994
  0
ARC
  5
12B05
330
18
100
AcDbEntity
  8
SKVIEW1
100
AcDbCircle
 10
26.19619400200361
 20
-46.89734114504665
 30
0.0
 40
3.000616999999999
100
AcDbArc
 50
218.6346709999992
 51
226.8564919999995
  0
LINE
  5
12B06
330
18
100
AcDbEntity
  8
SKVIEW1
100
AcDbLine
 10
24.14408000200359
 20
-49.11978914504665
 30
0.0
 11
24.14428700200358
 21
-49.08672114504665
 31
0.0
  0
ARC
  5
12B07
330
18
100
AcDbEntity
  8
SKVIEW1
100
AcDbCircle
 10
26.3201160020036
 20
-46.85931614504664
 30
0.0
 40
3.137653999999999
100
AcDbArc
 50
226.0903320000003
 51
236.9013850000002
  0
ARC
  5
12B08
330
18
100
AcDbEntity
  8
SKVIEW1
100
AcDbCircle
 10
26.36184600200361
 20
-46.84900014504665
 30
0.0
 40
3.169195
100
AcDbArc
 50
236.3712190000004
 51
252.5414229999994
  0
LINE
  5
12B09
330
18
100
AcDbEntity
  8
SKVIEW1
100
AcDbLine
 10
25.6082110020036
 20
-55.16766714504665
 30
0.0
 11
24.6067020020036
 21
-49.48782814504665
 31
0.0
  0
LINE
  5
12B0A
330
18
100
AcDbEntity
  8
SKVIEW1
100
AcDbLine
 10
26.17502500200359
 20
-55.09426914504665
 30
0.0
 11
25.6082110020036
 21
-55.16766714504665
 31
0.0
  0
ELLIPSE
  5
12B0B
330
18
100
AcDbEntity
  8
SKVIEW1
100
AcDbEllipse
 10
26.8922780020036
 20
-50.42742514504666
 30
0.0
 11
1.723413586616515
 21
0.3038842976093292
 31
0.0
210
0.0
220
0.0
230
1.0
 40
0.02578
 41
1.56608393845697
 42
3.141643997508188
  0
LINE
  5
12B0C
330
18
100
AcDbEntity
  8
SKVIEW1
100
AcDbLine
 10
26.89256600200361
 20
-50.38156414504666
 30
0.0
 11
28.05824600200359
 21
-50.17616914504666
 31
0.0
  0
ELLIPSE
  5
12B0D
330
18
100
AcDbEntity
  8
SKVIEW1
100
AcDbEllipse
 10
27.62426900200359
 20
-47.71496814504665
 30
0.0
 11
-2.499950885772704
 21
0.0156699921935797
 31
0.0
210
0.0
220
0.0
230
1.0
 40
0.999657
 41
1.751536538189773
 42
3.01764021095438
  0
LINE
  5
12B0E
330
18
100
AcDbEntity
  8
SKVIEW1
100
AcDbLine
 10
30.1029770020036
 20
-48.05960314504665
 30
0.0
 11
28.8712690020036
 21
-48.27678614504666
 31
0.0
  0
ELLIPSE
  5
12B0F
330
18
100
AcDbEntity
  8
SKVIEW1
100
AcDbEllipse
 10
35.6420410020036
 20
-50.31697414504666
 30
0.0
 11
0.1969615519046783
 21
0.0347296372056007
 31
0.0
210
0.0
220
0.0
230
1.0
 40
0.02578
 41
1.042485162399363
 42
1.566083937814526
  0
LINE
  5
12B10
330
18
100
AcDbEntity
  8
SKVIEW1
100
AcDbLine
 10
27.14427200200359
 20
-51.80906114504665
 30
0.0
 11
35.6420720020036
 21
-50.31173414504666
 31
0.0
  0
ELLIPSE
  5
12B11
330
18
100
AcDbEntity
  8
SKVIEW1
100
AcDbEllipse
 10
27.14398300200361
 20
-51.85492114504666
 30
0.0
 11
1.723413586616515
 21
0.3038842976093292
 31
0.0
210
0.0
220
0.0
230
1.0
 40
0.02578
 41
3.141643997355477
 42
3.66047904019414
  0
ELLIPSE
  5
12B12
330
18
100
AcDbEntity
  8
SKVIEW1
100
AcDbEllipse
 10
27.14398300200361
 20
-51.85492114504666
 30
0.0
 11
1.723413586616515
 21
0.3038842976093292
 31
0.0
210
0.0
220
0.0
230
1.0
 40
0.02578
 41
2.524952919661295
 42
3.141643997355477
  0
ELLIPSE
  5
12B13
330
18
100
AcDbEntity
  8
SKVIEW1
100
AcDbEllipse
 10
27.14398300200361
 20
-51.85492114504666
 30
0.0
 11
1.723413586616515
 21
0.3038842976093292
 31
0.0
210
0.0
220
0.0
230
1.0
 40
0.02578
 41
1.566083937861992
 42
2.254454752599916
  0
ELLIPSE
  5
12B15
330
18
100
AcDbEntity
  8
SKVIEW1
100
AcDbEllipse
 10
26.19533600200359
 20
-46.90642014504665
 30
0.0
 11
2.199956893920897
 21
-0.0137895932421088
 31
0.0
210
0.0
220
0.0
230
1.0
 40
0.999657
 41
1.858175659787064
 42
8.141360966908504
  0
LINE
  5
12B16
330
18
100
AcDbEntity
  8
SKVIEW1
100
AcDbLine
 10
35.19182300200359
 20
-46.20035514504666
 30
0.0
 11
29.1731320020036
 21
-47.26161314504665
 31
0.0
  0
LINE
  5
12B17
330
18
100
AcDbEntity
  8
SKVIEW1
100
AcDbLine
 10
36.25788000200359
 20
-46.97432714504666
 30
0.0
 11
35.19182300200359
 21
-46.20035514504666
 31
0.0
  0
LINE
  5
12B18
330
18
100
AcDbEntity
  8
SKVIEW1
100
AcDbLine
 10
35.19182300200359
 20
-46.20035514504666
 30
0.0
 11
32.54507300200359
 21
-33.14846314504666
 31
0.0
  0
LINE
  5
12B19
330
18
100
AcDbEntity
  8
SKVIEW1
100
AcDbLine
 10
32.54507300200359
 20
-33.14846314504666
 30
0.0
 11
20.01408100200359
 21
-33.14846314504666
 31
0.0
  0
LINE
  5
12B1A
330
18
100
AcDbEntity
  8
SKVIEW1
100
AcDbLine
 10
20.01408100200359
 20
-33.14846314504666
 30
0.0
 11
20.01408100200359
 21
-56.51903114504666
 31
0.0
  0
LINE
  5
12B1B
330
18
100
AcDbEntity
  8
SKVIEW1
100
AcDbLine
 10
24.2659130020036
 20
-55.76931914504665
 30
0.0
 11
20.01408100200359
 21
-56.51903114504666
 31
0.0
  0
LINE
  5
12B1C
330
18
100
AcDbEntity
  8
SKVIEW1
100
AcDbLine
 10
24.2659130020036
 20
-55.76931914504665
 30
0.0
 11
24.32464700200359
 21
-55.35265714504666
 31
0.0
  0
LINE
  5
12B1D
330
18
100
AcDbEntity
  8
SKVIEW1
100
AcDbLine
 10
23.11842600200359
 20
-49.26760814504665
 30
0.0
 11
24.32464700200359
 21
-55.35265714504666
 31
0.0
  0
LINE
  5
12B1E
330
18
100
AcDbEntity
  8
SKVIEW1
100
AcDbLine
 10
24.14428700200358
 20
-49.08672114504665
 30
0.0
 11
23.11842600200359
 21
-49.26760814504665
 31
0.0
  0
LINE
  5
12B1F
330
18
100
AcDbEntity
  8
SKVIEW1
100
AcDbLine
 10
24.14408000200359
 20
-49.11978914504665
 30
0.0
 11
23.11842600200359
 21
-49.26760814504665
 31
0.0
  0
LINE
  5
12B20
330
18
100
AcDbEntity
  8
SKVIEW1
100
AcDbLine
 10
24.32464700200359
 20
-55.35265714504666
 30
0.0
 11
25.6082110020036
 21
-55.16766714504665
 31
0.0
  0
LINE
  5
12B21
330
18
100
AcDbEntity
  8
SKVIEWINSERT
 48
0.0413170975321162
100
AcDbLine
 10
36.61792400200358
 20
-53.79279014504665
 30
0.0
 11
36.93443100200358
 21
-53.72221614504666
 31
0.0
  0
LINE
  5
12B23
330
18
100
AcDbEntity
  8
SKVIEW1
100
AcDbLine
 10
25.59047300200359
 20
-55.57842014504664
 30
0.0
 11
26.29995000200358
 21
-55.48654814504665
 31
0.0
  0
LINE
  5
12B24
330
18
100
AcDbEntity
  8
SKVIEW1
100
AcDbLine
 10
25.59047300200359
 20
-55.57842014504664
 30
0.0
 11
25.6082110020036
 21
-55.16766714504665
 31
0.0
  0
LINE
  5
12B26
330
18
100
AcDbEntity
  8
SKVIEW1
100
AcDbLine
 10
30.10310300200359
 20
-48.03949414504666
 30
0.0
 11
35.08658300200358
 21
-47.16139614504665
 31
0.0
  0
ELLIPSE
  5
12B27
330
18
100
AcDbEntity
  8
SKVIEW1
100
AcDbEllipse
 10
35.08654900200361
 20
-47.16663714504664
 30
0.0
 11
-0.1969615370035172
 21
-0.0347296334803104
 31
0.0
210
0.0
220
0.0
230
1.0
 40
0.02578
 41
4.184077818372024
 42
4.707676612383902
  0
LINE
  5
12B28
330
18
100
AcDbEntity
  8
SKVIEW1
100
AcDbLine
 10
37.38739300200359
 20
-46.79049214504665
 30
0.0
 11
35.18506000200358
 21
-47.14474614504665
 31
0.0
  0
ELLIPSE
  5
12B29
330
18
100
AcDbEntity
  8
SKVIEW1
100
AcDbEllipse
 10
37.29873400200359
 20
-46.81019414504665
 30
0.0
 11
-0.1772654056549072
 21
-0.0312566719949245
 31
0.0
210
0.0
220
0.0
230
1.0
 40
0.02578
 41
3.136880287368154
 42
4.184077788530551
  0
LINE
  5
12B2A
330
18
100
AcDbEntity
  8
SKVIEW1
100
AcDbLine
 10
38.02806400200359
 20
-49.90986814504665
 30
0.0
 11
37.47600100200358
 21
-46.77896014504665
 31
0.0
  0
LINE
  5
12B2D
330
18
100
AcDbEntity
  8
SKVIEW1
100
AcDbLine
 10
33.84411600200361
 20
-33.14846314504666
 30
0.0
 11
36.2813690020036
 21
-46.97081314504666
 31
0.0
  0
LINE
  5
12B2E
330
18
100
AcDbEntity
  8
SKVIEW1
100
AcDbLine
 10
33.84411600200361
 20
-33.14846314504666
 30
0.0
 11
32.54507300200359
 21
-33.14846314504666
 31
0.0
  0
LINE
  5
12B2F
330
18
100
AcDbEntity
  8
SKVIEW1
100
AcDbLine
 10
18.06047300200359
 20
-33.14846314504666
 30
0.0
 11
8.930657002003584
 21
-33.14846314504666
 31
0.0
  0
LINE
  5
12B30
330
18
100
AcDbEntity
  8
SKVIEW1
100
AcDbLine
 10
18.06047300200359
 20
-33.14846314504666
 30
0.0
 11
18.83321400200358
 21
-33.14846314504666
 31
0.0
  0
LINE
  5
12B31
330
18
100
AcDbEntity
  8
SKVIEW1
100
AcDbLine
 10
18.83321400200358
 20
-33.14846314504666
 30
0.0
 11
20.01408100200359
 21
-33.14846314504666
 31
0.0
  0
LINE
  5
12B32
330
18
100
AcDbEntity
  8
SKVIEW1
100
AcDbLine
 10
18.83321400200358
 20
-56.84265314504665
 30
0.0
 11
20.01408100200359
 21
-56.51903114504666
 31
0.0
  0
LINE
  5
12B33
330
18
100
AcDbEntity
  8
SKVIEW1
100
AcDbLine
 10
18.83321400200358
 20
-33.14846314504666
 30
0.0
 11
18.83321400200358
 21
-56.84265314504665
 31
0.0
  0
LINE
  5
12B34
330
18
100
AcDbEntity
  8
SKVIEW1
100
AcDbLine
 10
18.83321400200358
 20
-56.84265314504665
 30
0.0
 11
18.75213100200358
 21
-56.86205514504665
 31
0.0
  0
LINE
  5
12B35
330
18
100
AcDbEntity
  8
SKVIEW1
100
AcDbLine
 10
18.75213100200358
 20
-56.86205514504665
 30
0.0
 11
30.3192840020036
 21
-55.35659414504666
 31
0.0
  0
LINE
  5
12B36
330
18
100
AcDbEntity
  8
SKVIEW1
100
AcDbLine
 10
30.7319170020036
 20
-55.28383614504665
 30
0.0
 11
30.3192840020036
 21
-55.35659414504666
 31
0.0
  0
LINE
  5
12B37
330
18
100
AcDbEntity
  8
SKVIEWINSERT
 48
0.0413170975321162
100
AcDbLine
 10
37.42706600200359
 20
-53.97238314504665
 30
0.0
 11
35.23011900200359
 21
-54.45943114504665
 31
0.0
  0
LINE
  5
12B38
330
18
100
AcDbEntity
  8
SKVIEWINSERT
 48
0.0413170975321162
100
AcDbLine
 10
37.42706600200359
 20
-53.97238314504665
 30
0.0
 11
37.42706600200359
 21
-53.64285214504666
 31
0.0
  0
LINE
  5
12B39
330
18
100
AcDbEntity
  8
SKVIEWINSERT
 48
0.0413170975321162
100
AcDbLine
 10
36.93443100200358
 20
-53.72221614504666
 30
0.0
 11
37.42706600200359
 21
-53.64285214504666
 31
0.0
  0
LINE
  5
12B3A
330
18
100
AcDbEntity
  8
SKVIEW1
100
AcDbLine
 10
24.2659130020036
 20
-55.76931914504665
 30
0.0
 11
25.59047300200359
 21
-55.57842014504664
 31
0.0
  0
LINE
  5
12B3B
330
18
100
AcDbEntity
  8
SKVIEWINSERT
 48
0.0413170975321162
100
AcDbLine
 10
37.42706600200359
 20
-53.64285214504666
 30
0.0
 11
37.33655900200358
 21
-53.12956314504666
 31
0.0
  0
ELLIPSE
  5
12B3C
330
18
100
AcDbEntity
  8
SKVIEW1
100
AcDbEllipse
 10
30.4698500020036
 20
-56.14265614504666
 30
0.0
 11
-0.9138630628585817
 21
-0.1189389526844025
 31
0.0
210
0.0
220
0.0
230
1.0
 40
0.868083
 41
4.764343395372739
 42
6.073340334861361
  0
LINE
  5
12B3D
330
18
100
AcDbEntity
  8
SKVIEW1
100
AcDbLine
 10
29.5545280020036
 20
-56.09373314504665
 30
0.0
 11
28.96380600200359
 21
-61.38545814504666
 31
0.0
  0
LINE
  5
12B3E
330
18
100
AcDbEntity
  8
SKVIEW1
100
AcDbLine
 10
28.96380600200359
 20
-61.38545814504666
 30
0.0
 11
19.7229870020036
 21
-72.93846314504666
 31
0.0
  0
LINE
  5
12B3F
330
18
100
AcDbEntity
  8
SKVIEW1
100
AcDbLine
 10
3.786822002003589
 20
-52.34551814504666
 30
0.0
 11
8.930657002003584
 21
-33.14846314504666
 31
0.0
  0
LINE
  5
12B40
330
18
100
AcDbEntity
  8
SKVIEW1
100
AcDbLine
 10
17.62234400200358
 20
-62.86154514504665
 30
0.0
 11
9.562193002003596
 21
-72.93846314504666
 31
0.0
  0
LINE
  5
12B41
330
18
100
AcDbEntity
  8
SKVIEW1
100
AcDbLine
 10
17.62234400200358
 20
-62.86154514504665
 30
0.0
 11
18.06047300200359
 21
-58.93675714504666
 31
0.0
  0
LINE
  5
12B42
330
18
100
AcDbEntity
  8
SKVIEW1
100
AcDbLine
 10
18.06047300200359
 20
-33.14846314504666
 30
0.0
 11
18.06047300200359
 21
-58.93675714504666
 31
0.0
  0
ARC
  5
12B43
330
18
100
AcDbEntity
  8
SKVIEW1
100
AcDbCircle
 10
3.014081002003592
 20
-52.13846314504666
 30
0.0
 40
0.8
100
AcDbArc
 50
270.0
 51
345.0000000000001
  0
LINE
  5
12B44
330
18
100
AcDbEntity
  8
SKVIEW1
100
AcDbLine
 10
-82.98591899799641
 20
-52.93846314504666
 30
0.0
 11
3.014081002003592
 21
-52.93846314504666
 31
0.0
  0
LINE
  5
12B45
330
18
100
AcDbEntity
  8
SKVIEW1
100
AcDbLine
 10
-82.98591899799641
 20
-52.93846314504666
 30
0.0
 11
-82.98591899799641
 21
-72.93846314504666
 31
0.0
  0
LINE
  5
12B46
330
18
100
AcDbEntity
  8
SKVIEW1
100
AcDbLine
 10
-82.98591899799641
 20
-72.93846314504666
 30
0.0
 11
9.562193002003596
 21
-72.93846314504666
 31
0.0
  0
ARC
  5
12B47
330
18
100
AcDbEntity
  8
SKVIEW1
100
AcDbCircle
 10
-114.3596139979964
 20
-44.18582714504665
 30
0.0
 40
133.239161
100
AcDbArc
 50
353.6437440000002
 51
354.2344419999998
  0
SPLINE
  5
12B48
330
18
100
AcDbEntity
  8
SKVIEW1
100
AcDbSpline
210
0.0
220
0.0
230
1.0
 70
     8
 71
     5
 72
    18
 73
    12
 74
     0
 42
0.0000000001
 43
0.0000000001
 40
0.0
 40
0.0
 40
0.0
 40
0.0
 40
0.0
 40
0.0
 40
0.941506402580871
 40
0.941506402580871
 40
0.941506402580871
 40
1.667632017068288
 40
1.667632017068288
 40
1.667632017068288
 40
1.823421250267831
 40
1.823421250267831
 40
1.823421250267831
 40
1.823421250267831
 40
1.823421250267831
 40
1.823421250267831
 10
18.20554495290267
 20
-57.57079967126173
 30
0.0
 10
18.21627969713117
 20
-57.46472792559851
 30
0.0
 10
18.24490320134319
 20
-57.36091626252989
 30
0.0
 10
18.29052037751771
 20
-57.26170739836348
 30
0.0
 10
18.3933449443
 20
-57.10172166082131
 30
0.0
 10
18.52379862197782
 20
-56.97872608435119
 30
0.0
 10
18.58326725441185
 20
-56.93425219838073
 30
0.0
 10
18.6565371784057
 20
-56.89320657164604
 30
0.0
 10
18.7205341476749
 20
-56.87053204505928
 30
0.0
 10
18.73150629530636
 20
-56.86710813991254
 30
0.0
 10
18.7420452554114
 20
-56.8642880361401
 30
0.0
 10
18.75213117181329
 20
-56.86205521427019
 30
0.0
  0
LINE
  5
12B49
330
18
100
AcDbEntity
  8
SKVIEW1
100
AcDbLine
 10
29.5545280020036
 20
-56.09373314504665
 30
0.0
 11
18.20554500200359
 21
-57.57080014504666
 31
0.0
  0
LINE
  5
12B4A
330
18
100
AcDbEntity
  8
SKVIEW1
100
AcDbLine
 10
9.562193002003596
 20
-72.93846314504666
 30
0.0
 11
19.7229870020036
 21
-72.93846314504666
 31
0.0
  0
LINE
  5
12B4B
330
18
100
AcDbEntity
  8
SKVIEW1
100
AcDbLine
 10
17.62234400200358
 20
-62.86154514504665
 30
0.0
 11
28.96380600200359
 21
-61.38545814504666
 31
0.0
  0
LINE
  5
12B4C
102
{ACAD_REACTORS
330
12CA3
102
}
330
18
100
AcDbEntity
  8
SKVIEW1
100
AcDbLine
 10
-82.98591899799641
 20
-52.93846314504666
 30
0.0
 11
-83.9859189979964
 21
-53.93846314504665
 31
0.0
  0
LINE
  5
12B4D
330
18
100
AcDbEntity
  8
SKVIEW1
100
AcDbLine
 10
-83.9859189979964
 20
-53.93846314504665
 30
0.0
 11
-83.9859189979964
 21
-71.93846314504665
 31
0.0
  0
LINE
  5
12B4E
102
{ACAD_REACTORS
330
12CA3
102
}
330
18
100
AcDbEntity
  8
SKVIEW1
100
AcDbLine
 10
-82.98591899799641
 20
-72.93846314504666
 30
0.0
 11
-83.9859189979964
 21
-71.93846314504665
 31
0.0
  0
ELLIPSE
  5
12B4F
330
18
100
AcDbEntity
  8
SKVIEWINSERT
 48
0.0413170975321162
100
AcDbEllipse
 10
32.9813430020036
 20
-55.00152014504665
 30
0.0
 11
2.06809639930725
 21
0.3646611869335175
 31
0.0
210
0.0
220
0.0
230
1.0
 40
0.02578
 41
3.178806786639612
 42
6.245927284375991
  0
ELLIPSE
  5
12B50
330
18
100
AcDbEntity
  8
SKVIEWINSERT
 48
0.0413170975321162
100
AcDbEllipse
 10
32.9813430020036
 20
-55.00152014504665
 30
0.0
 11
2.06809639930725
 21
0.3646611869335175
 31
0.0
210
0.0
220
0.0
230
1.0
 40
0.02578
 41
6.245927284391915
 42
6.371920419089212
  0
LINE
  5
12B52
330
18
100
AcDbEntity
  8
SKVIEW1
100
AcDbLine
 10
23.4949430020036
 20
-46.96069214504665
 30
0.0
 11
23.49530700200359
 21
-46.90253814504666
 31
0.0
  0
LINE
  5
12B53
330
18
100
AcDbEntity
  8
SKVIEW1
100
AcDbLine
 10
28.89484000200361
 20
-46.99404314504664
 30
0.0
 11
28.89520000200361
 21
-46.93650914504665
 31
0.0
  0
LINE
  5
12B54
330
18
100
AcDbEntity
  8
SKVIEW1
100
AcDbLine
 10
25.42057100200362
 20
-52.15880814504666
 30
0.0
 11
25.1688650020036
 21
-50.73131114504665
 31
0.0
  0
ARC
  5
12B55
330
18
100
AcDbEntity
  8
SKVIEW1
100
AcDbCircle
 10
26.19459700200361
 20
-46.91983114504665
 30
0.0
 40
2.699387999999999
100
AcDbArc
 50
106.0946520000006
 51
176.5349819999999
  0
ARC
  5
12B56
330
18
100
AcDbEntity
  8
SKVIEW1
100
AcDbCircle
 10
26.19547400200361
 20
-46.92014114504665
 30
0.0
 40
2.699878
100
AcDbArc
 50
359.6526479999998
 51
106.1107040000003
  0
LINE
  5
12B57
330
18
100
AcDbEntity
  8
SKVIEWINSERT
 48
0.0413170975321162
100
AcDbLine
 10
35.0483560020036
 20
-54.63909814504666
 30
0.0
 11
35.61003000200358
 21
-54.08390414504665
 31
0.0
  0
LINE
  5
12B58
330
18
100
AcDbEntity
  8
SKVIEWINSERT
 48
0.0413170975321162
100
AcDbLine
 10
30.91503000200359
 20
-55.36791314504665
 30
0.0
 11
30.19734100200358
 21
-55.03830414504665
 31
0.0
  0
LINE
  5
12B59
330
18
100
AcDbEntity
  8
SKVIEWINSERT
 48
0.0413170975321162
100
AcDbLine
 10
28.4376520020036
 20
-55.42883714504665
 30
0.0
 11
30.37065900200361
 21
-55.11790514504665
 31
0.0
  0
LINE
  5
12B5A
330
18
100
AcDbEntity
  8
SKVIEWINSERT
 48
0.0413170975321162
100
AcDbLine
 10
37.6511250020036
 20
-53.09579214504665
 30
0.0
 11
37.7380390020036
 21
-53.10034314504665
 31
0.0
  0
ELLIPSE
  5
12B5B
330
18
100
AcDbEntity
  8
SKVIEWINSERT
 48
0.0413170975321162
100
AcDbEllipse
 10
37.55516100200359
 20
-54.10298914504664
 30
0.0
 11
-0.6566763520240784
 21
-0.7894065976142884
 31
0.0
210
0.0
220
0.0
230
1.0
 40
0.9558680000000002
 41
3.761655036618511
 42
5.317072504508691
  0
LINE
  5
12B5C
330
18
100
AcDbEntity
  8
SKVIEWINSERT
 48
0.0413170975321162
100
AcDbLine
 10
36.56107100200359
 20
-54.03537514504666
 30
0.0
 11
35.39753900200361
 21
-54.29394314504666
 31
0.0
  0
LINE
  5
12B5D
330
18
100
AcDbEntity
  8
SKVIEWINSERT
 48
0.0413170975321162
100
AcDbLine
 10
27.02452900200359
 20
-55.61275414504665
 30
0.0
 11
28.4376520020036
 21
-55.42883714504665
 31
0.0
  0
LINE
  5
12B5E
330
18
100
AcDbEntity
  8
SKVIEWINSERT
 48
0.0413170975321162
100
AcDbLine
 10
36.56236300200359
 20
-53.82919614504665
 30
0.0
 11
36.56107100200359
 21
-54.03537514504666
 31
0.0
  0
LINE
  5
12B5F
330
18
100
AcDbEntity
  8
SKVIEWINSERT
 48
0.0413170975321162
100
AcDbLine
 10
36.56236300200359
 20
-53.82919614504665
 30
0.0
 11
33.73530000200358
 21
-54.32733014504666
 31
0.0
  0
LINE
  5
12B60
330
18
100
AcDbEntity
  8
SKVIEWINSERT
 48
0.0413170975321162
100
AcDbLine
 10
27.02452900200359
 20
-55.61275414504665
 30
0.0
 11
33.73530000200358
 21
-54.32733014504666
 31
0.0
  0
ELLIPSE
  5
12B61
330
18
100
AcDbEntity
  8
SKVIEWINSERT
 48
0.0413170975321162
100
AcDbEllipse
 10
26.60119300200359
 20
-55.95185114504665
 30
0.0
 11
-0.1881264001131057
 21
0.9821448326110839
 31
0.0
210
0.0
220
0.0
230
1.0
 40
0.4957490000000001
 41
4.968582938493186
 42
5.205405094813972
  0
LINE
  5
12B62
330
18
100
AcDbEntity
  8
SKVIEW1
100
AcDbLine
 10
26.17855200200359
 20
-55.11427014504665
 30
0.0
 11
25.65418900200359
 21
-52.14046314504665
 31
0.0
  0
LINE
  5
12B63
330
18
100
AcDbEntity
  8
SKVIEWINSERT
 48
0.0413170975321162
100
AcDbLine
 10
37.7380960020036
 20
-53.09131214504666
 30
0.0
 11
37.7380390020036
 21
-53.10034314504665
 31
0.0
  0
LINE
  5
12B64
330
18
100
AcDbEntity
  8
SKVIEWINSERT
 48
0.0413170975321162
100
AcDbLine
 10
38.0917980020036
 20
-53.11886714504665
 30
0.0
 11
38.58435400200358
 21
-53.14465914504665
 31
0.0
  0
LINE
  5
12B65
330
18
100
AcDbEntity
  8
SKVIEWINSERT
 48
0.0413170975321162
100
AcDbLine
 10
38.58437600200358
 20
-53.14110614504665
 30
0.0
 11
38.58435400200358
 21
-53.14465914504665
 31
0.0
  0
ARC
  5
12B66
330
18
100
AcDbEntity
  8
SKVIEWINSERT
 48
0.0413170975321162
100
AcDbCircle
 10
38.33581600200358
 20
-54.55804914504665
 30
0.0
 40
1.439139999999999
100
AcDbArc
 50
80.05039300000062
 51
85.97581599999935
  0
LINE
  5
12B67
330
18
100
AcDbEntity
  8
SKVIEWINSERT
 48
0.0413170975321162
100
AcDbLine
 10
38.4368550020036
 20
-53.12183114504666
 30
0.0
 11
38.03977300200358
 21
-53.08078114504666
 31
0.0
  0
ARC
  5
12B68
330
18
100
AcDbEntity
  8
SKVIEWINSERT
 48
0.0413170975321162
100
AcDbCircle
 10
38.14081500200359
 20
-51.64553114504665
 30
0.0
 40
1.43818
100
AcDbArc
 50
260.0436009999993
 51
265.9729949999999
  0
LINE
  5
12B69
330
18
100
AcDbEntity
  8
SKVIEWINSERT
 48
0.0413170975321162
100
AcDbLine
 10
37.89301200200359
 20
-53.06112314504665
 30
0.0
 11
37.98131800200361
 21
-53.04308914504665
 31
0.0
  0
LINE
  5
12B6A
330
18
100
AcDbEntity
  8
SKVIEWINSERT
 48
0.0413170975321162
100
AcDbLine
 10
37.98131800200361
 20
-53.04308914504665
 30
0.0
 11
38.0547300020036
 21
-53.04785614504665
 31
0.0
  0
LINE
  5
12B6B
330
18
100
AcDbEntity
  8
SKVIEWINSERT
 48
0.0413170975321162
100
AcDbLine
 10
39.58185500200358
 20
-53.18416914504665
 30
0.0
 11
38.0547300020036
 21
-53.04785614504665
 31
0.0
  0
ARC
  5
12B6C
330
18
100
AcDbEntity
  8
SKVIEWINSERT
 48
0.0413170975321162
100
AcDbCircle
 10
39.7584600020036
 20
-51.71487014504666
 30
0.0
 40
1.479295
100
AcDbArc
 50
263.1460820000004
 51
268.8754449999998
  0
LINE
  5
12B6D
330
18
100
AcDbEntity
  8
SKVIEWINSERT
 48
0.0413170975321162
100
AcDbLine
 10
39.72943900200358
 20
-53.19331814504664
 30
0.0
 11
39.72954700200359
 21
-53.17609714504666
 31
0.0
  0
ARC
  5
12B6E
330
18
100
AcDbEntity
  8
SKVIEWINSERT
 48
0.0413170975321162
100
AcDbCircle
 10
39.48098700200359
 20
-54.59304014504666
 30
0.0
 40
1.439139999999999
100
AcDbArc
 50
80.05039300000062
 51
85.97581599999935
  0
LINE
  5
12B6F
330
18
100
AcDbEntity
  8
SKVIEWINSERT
 48
0.0413170975321162
100
AcDbLine
 10
39.5820260020036
 20
-53.15682214504665
 30
0.0
 11
38.05503600200359
 21
-52.99896414504665
 31
0.0
  0
LINE
  5
12B70
330
18
100
AcDbEntity
  8
SKVIEWINSERT
 48
0.0413170975321162
100
AcDbLine
 10
37.98165300200358
 20
-52.98959214504666
 30
0.0
 11
38.05503600200359
 21
-52.99896414504665
 31
0.0
  0
LINE
  5
12B71
330
18
100
AcDbEntity
  8
SKVIEWINSERT
 48
0.0413170975321162
100
AcDbLine
 10
37.98165300200358
 20
-52.98959214504666
 30
0.0
 11
37.94003600200358
 21
-52.97302914504665
 31
0.0
  0
LINE
  5
12B72
330
18
100
AcDbEntity
  8
SKVIEWINSERT
 48
0.0413170975321162
100
AcDbLine
 10
37.6520680020036
 20
-52.94529214504665
 30
0.0
 11
37.94003600200358
 21
-52.97302914504665
 31
0.0
  0
LINE
  5
12B73
330
18
100
AcDbEntity
  8
SKVIEWINSERT
 48
0.0413170975321162
100
AcDbLine
 10
37.6511250020036
 20
-53.09579214504665
 30
0.0
 11
37.6520680020036
 21
-52.94529214504665
 31
0.0
  0
ARC
  5
12B74
330
18
100
AcDbEntity
  8
SKVIEWINSERT
 48
0.0413170975321162
100
AcDbCircle
 10
37.70912700200359
 20
-54.56706214504665
 30
0.0
 40
1.476593999999999
100
AcDbArc
 50
83.14608200000046
 51
88.87544399999965
  0
LINE
  5
12B75
330
18
100
AcDbEntity
  8
SKVIEWINSERT
 48
0.0413170975321162
100
AcDbLine
 10
38.0917980020036
 20
-53.11886714504665
 30
0.0
 11
37.88541100200359
 21
-53.10044514504665
 31
0.0
  0
ELLIPSE
  5
12B76
330
18
100
AcDbEntity
  8
SKVIEWINSERT
 48
0.0413170975321162
100
AcDbEllipse
 10
37.55616500200358
 20
-53.94034014504666
 30
0.0
 11
0.9999803304672239
 21
-0.0062679969705641
 31
0.0
210
0.0
220
0.0
230
1.0
 40
0.999657
 41
1.481010504196315
 42
3.036450567793772
  0
LINE
  5
12B77
330
18
100
AcDbEntity
  8
SKVIEW1
100
AcDbLine
 10
25.70809400200358
 20
-52.12996914504666
 30
0.0
 11
25.65418900200359
 21
-52.14046314504665
 31
0.0
  0
ARC
  5
12B78
330
18
100
AcDbEntity
  8
SKVIEW1
100
AcDbCircle
 10
25.95099600200359
 20
-53.02002514504664
 30
0.0
 40
0.971232
100
AcDbArc
 50
98.93811899999938
 51
104.9975360000004
  0
LINE
  5
12B79
330
18
100
AcDbEntity
  8
SKVIEW1
100
AcDbLine
 10
26.36057100200361
 20
-51.95279314504666
 30
0.0
 11
25.80003100200361
 21
-52.06016214504666
 31
0.0
  0
ARC
  5
12B7A
330
18
100
AcDbEntity
  8
SKVIEW1
100
AcDbCircle
 10
27.64597600200358
 20
-58.66339114504666
 30
0.0
 40
6.832578999999999
100
AcDbArc
 50
98.84267199999994
 51
100.8435699999992
  0
LINE
  5
12B7B
330
18
100
AcDbEntity
  8
SKVIEWINSERT
 48
0.0413170975321162
100
AcDbLine
 10
27.67402700200359
 20
-51.75020314504665
 30
0.0
 11
26.59566700200361
 21
-51.91207814504664
 31
0.0
  0
LINE
  5
12B7C
330
18
100
AcDbEntity
  8
SKVIEWINSERT
 48
0.0413170975321162
100
AcDbLine
 10
27.78396100200359
 20
-51.73129314504665
 30
0.0
 11
27.67402700200359
 21
-51.75020314504665
 31
0.0
  0
LINE
  5
12B7D
330
18
100
AcDbEntity
  8
SKVIEWINSERT
 48
0.0413170975321162
100
AcDbLine
 10
28.68924700200358
 20
-51.56046714504666
 30
0.0
 11
27.78396100200359
 21
-51.73129314504665
 31
0.0
  0
LINE
  5
12B7E
330
18
100
AcDbEntity
  8
SKVIEW1
100
AcDbLine
 10
28.69852100200359
 20
-51.55871014504666
 30
0.0
 11
28.68924700200358
 21
-51.56046714504666
 31
0.0
  0
ARC
  5
12B7F
330
18
100
AcDbEntity
  8
SKVIEWINSERT
 48
0.0413170975321162
100
AcDbCircle
 10
28.94630500200359
 20
-52.47980614504665
 30
0.0
 40
0.971259
100
AcDbArc
 50
98.93817099999985
 51
104.9953250000008
  0
LINE
  5
12B80
330
18
100
AcDbEntity
  8
SKVIEWINSERT
 48
0.0413170975321162
100
AcDbLine
 10
28.79533500200358
 20
-51.51991614504665
 30
0.0
 11
28.91099400200358
 21
-51.49776114504665
 31
0.0
  0
LINE
  5
12B81
330
18
100
AcDbEntity
  8
SKVIEWINSERT
 48
0.0413170975321162
100
AcDbLine
 10
28.91099400200358
 20
-51.49776114504665
 30
0.0
 11
29.8499380020036
 21
-51.33231814504665
 31
0.0
  0
LINE
  5
12B82
330
18
100
AcDbEntity
  8
SKVIEWINSERT
 48
0.0413170975321162
100
AcDbLine
 10
29.8499380020036
 20
-51.33231814504665
 30
0.0
 11
29.9956750020036
 21
-51.31044114504665
 31
0.0
  0
ARC
  5
12B83
330
18
100
AcDbEntity
  8
SKVIEWINSERT
 48
0.0413170975321162
100
AcDbCircle
 10
28.9467960020036
 20
-44.56863214504664
 30
0.0
 40
6.822969
100
AcDbArc
 50
278.8430870000005
 51
280.8431450000002
  0
LINE
  5
12B84
330
18
100
AcDbEntity
  8
SKVIEWINSERT
 48
0.0413170975321162
100
AcDbLine
 10
30.2303430020036
 20
-51.26980114504665
 30
0.0
 11
30.52429500200361
 21
-51.21349514504665
 31
0.0
  0
LINE
  5
12B85
330
18
100
AcDbEntity
  8
SKVIEWINSERT
 48
0.0413170975321162
100
AcDbLine
 10
30.52429500200361
 20
-51.21349514504665
 30
0.0
 11
37.41567400200358
 21
-49.99922214504666
 31
0.0
  0
LINE
  5
12B86
330
18
100
AcDbEntity
  8
SKVIEWINSERT
 48
0.0413170975321162
100
AcDbLine
 10
37.45534700200358
 20
-50.00476514504666
 30
0.0
 11
37.41567400200358
 21
-49.99922214504666
 31
0.0
  0
LINE
  5
12B87
330
18
100
AcDbEntity
  8
SKVIEWINSERT
 48
0.0413170975321162
100
AcDbLine
 10
37.52531000200361
 20
-49.99473814504665
 30
0.0
 11
37.45534700200358
 21
-50.00476514504666
 31
0.0
  0
LINE
  5
12B88
330
18
100
AcDbEntity
  8
SKVIEWINSERT
 48
0.0413170975321162
100
AcDbLine
 10
37.52531000200361
 20
-49.99473814504665
 30
0.0
 11
38.98113200200359
 21
-49.74898014504666
 31
0.0
  0
ARC
  5
12B89
330
18
100
AcDbEntity
  8
SKVIEWINSERT
 48
0.0413170975321162
100
AcDbCircle
 10
39.24772700200359
 20
-51.05987014504666
 30
0.0
 40
1.337117
100
AcDbArc
 50
95.40729999999992
 51
101.4954690000002
  0
LINE
  5
12B8B
330
18
100
AcDbEntity
  8
SKVIEWINSERT
 48
0.0413170975321162
100
AcDbLine
 10
31.20091900200359
 20
-54.08199514504665
 30
0.0
 11
31.03928600200359
 21
-54.13415514504666
 31
0.0
  0
ELLIPSE
  5
12B8C
330
18
100
AcDbEntity
  8
SKVIEWINSERT
 48
0.0413170975321162
100
AcDbEllipse
 10
31.89455900200361
 20
-54.93792514504665
 30
0.0
 11
-1.969649910926818
 21
-0.3469735383987427
 31
0.0
210
0.0
220
0.0
230
1.0
 40
0.4998390000000001
 41
3.427555896777608
 42
4.742158260361664
  0
ARC
  5
12B8D
330
18
100
AcDbEntity
  8
SKVIEWINSERT
 48
0.0413170975321162
100
AcDbCircle
 10
32.39140300200359
 20
-57.78494514504666
 30
0.0
 40
3.889635999999999
100
AcDbArc
 50
100.7996370000005
 51
107.8223910000006
  0
LINE
  5
12B8F
330
18
100
AcDbEntity
  8
SKVIEWINSERT
 48
0.0413170975321162
100
AcDbLine
 10
30.38141100200358
 20
-54.34645414504664
 30
0.0
 11
29.46541700200359
 21
-54.64204814504665
 31
0.0
  0
LINE
  5
12B90
330
18
100
AcDbEntity
  8
SKVIEWINSERT
 48
0.0413170975321162
100
AcDbLine
 10
29.3497570020036
 20
-54.66420314504666
 30
0.0
 11
29.46541700200359
 21
-54.64204814504665
 31
0.0
  0
SPLINE
  5
12B91
330
18
100
AcDbEntity
  8
SKVIEWINSERT
 48
0.0413170975321162
100
AcDbSpline
210
0.0
220
0.0
230
1.0
 70
     8
 71
     5
 72
    15
 73
     9
 74
     0
 42
0.0000000001
 43
0.0000000001
 40
0.0
 40
0.0
 40
0.0
 40
0.0
 40
0.0
 40
0.0
 40
0.1476795561462213
 40
0.1476795561462213
 40
0.1476795561462213
 40
0.2928832342480273
 40
0.2928832342480273
 40
0.2928832342480273
 40
0.2928832342480273
 40
0.2928832342480273
 40
0.2928832342480273
 10
29.34975727965326
 20
-54.66420273665573
 30
0.0
 10
29.33202997706104
 20
-54.66759833944154
 30
0.0
 10
29.3154584980835
 20
-54.67011688461649
 30
0.0
 10
29.2998306355255
 20
-54.67173143481571
 30
0.0
 10
29.27394536804619
 20
-54.67280638742511
 30
0.0
 10
29.2565346742939
 20
-54.6700256925112
 30
0.0
 10
29.2499999056295
 20
-54.66759630858462
 30
0.0
 10
29.24620427298618
 20
-54.66435863130022
 30
0.0
 10
29.24491061027822
 20
-54.66032784559193
 30
0.0
  0
LINE
  5
12B92
330
18
100
AcDbEntity
  8
SKVIEWINSERT
 48
0.0413170975321162
100
AcDbLine
 10
29.21144500200359
 20
-54.52199814504665
 30
0.0
 11
29.22063500200358
 21
-54.52008314504666
 31
0.0
  0
LINE
  5
12B93
330
18
100
AcDbEntity
  8
SKVIEWINSERT
 48
0.0413170975321162
100
AcDbLine
 10
29.21144500200359
 20
-54.52199814504665
 30
0.0
 11
28.3102670020036
 21
-54.71612014504666
 31
0.0
  0
ARC
  5
12B94
330
18
100
AcDbEntity
  8
SKVIEWINSERT
 48
0.0413170975321162
100
AcDbCircle
 10
28.39980400200358
 20
-55.13471914504666
 30
0.0
 40
0.428046
100
AcDbArc
 50
102.0734930000007
 51
117.2724330000003
  0
LINE
  5
12B95
330
18
100
AcDbEntity
  8
SKVIEWINSERT
 48
0.0413170975321162
100
AcDbLine
 10
27.19656300200359
 20
-55.31992014504665
 30
0.0
 11
28.20375400200359
 21
-54.75442914504665
 31
0.0
  0
ARC
  5
12B96
330
18
100
AcDbEntity
  8
SKVIEWINSERT
 48
0.0413170975321162
100
AcDbCircle
 10
26.80433200200361
 20
-54.55839914504664
 30
0.0
 40
0.856986
100
AcDbArc
 50
281.0321960000003
 51
297.2512689999992
  0
LINE
  5
12B97
330
18
100
AcDbEntity
  8
SKVIEWINSERT
 48
0.0413170975321162
100
AcDbLine
 10
26.9683430020036
 20
-55.39963514504666
 30
0.0
 11
26.40780200200359
 21
-55.50700414504665
 31
0.0
  0
SPLINE
  5
12B98
330
18
100
AcDbEntity
  8
SKVIEWINSERT
 48
0.0413170975321162
100
AcDbSpline
210
0.0
220
0.0
230
1.0
 70
     8
 71
     5
 72
    15
 73
     9
 74
     0
 42
0.0000000001
 43
0.0000000001
 40
0.0
 40
0.0
 40
0.0
 40
0.0
 40
0.0
 40
0.0
 40
0.1476795552094108
 40
0.1476795552094108
 40
0.1476795552094108
 40
0.292883233039533
 40
0.292883233039533
 40
0.292883233039533
 40
0.292883233039533
 40
0.292883233039533
 40
0.292883233039533
 10
26.40780249876661
 20
-55.50700414163618
 30
0.0
 10
26.39007519623056
 20
-55.51039974442159
 30
0.0
 10
26.37350371739649
 20
-55.51291828956971
 30
0.0
 10
26.35787585686149
 20
-55.51453283889358
 30
0.0
 10
26.33199058951345
 20
-55.51560779148648
 30
0.0
 10
26.31457989582396
 20
-55.51282709658721
 30
0.0
 10
26.3080451261657
 20
-55.51039771318854
 30
0.0
 10
26.30424949358888
 20
-55.50716003590235
 30
0.0
 10
26.30295583094901
 20
-55.50312925017654
 30
0.0
  0
LINE
  5
12B99
330
18
100
AcDbEntity
  8
SKVIEW1
100
AcDbLine
 10
26.23272600200361
 20
-55.10530414504666
 30
0.0
 11
26.17855200200359
 21
-55.11427014504665
 31
0.0
  0
LINE
  5
12B9A
330
18
100
AcDbEntity
  8
SKVIEWINSERT
 48
0.0413170975321162
100
AcDbLine
 10
30.74533400200361
 20
-54.19046014504665
 30
0.0
 11
31.03928600200359
 21
-54.13415514504666
 31
0.0
  0
ARC
  5
12B9B
330
18
100
AcDbEntity
  8
SKVIEWINSERT
 48
0.0413170975321162
100
AcDbCircle
 10
30.90904400200358
 20
-55.03016014504665
 30
0.0
 40
0.8554209999999999
100
AcDbArc
 50
101.0321949999998
 51
117.2512689999992
  0
LINE
  5
12B9C
330
18
100
AcDbEntity
  8
SKVIEWINSERT
 48
0.0413170975321162
100
AcDbLine
 10
30.38141100200358
 20
-54.34645414504664
 30
0.0
 11
30.51753000200359
 21
-54.27002914504665
 31
0.0
  0
LINE
  5
12B9D
330
18
100
AcDbEntity
  8
SKVIEWINSERT
 48
0.0413170975321162
100
AcDbLine
 10
38.58437600200358
 20
-53.14110614504665
 30
0.0
 11
38.5761410020036
 21
-53.09439914504665
 31
0.0
  0
LINE
  5
12B9E
330
18
100
AcDbEntity
  8
SKVIEWINSERT
 48
0.0413170975321162
100
AcDbLine
 10
38.4368550020036
 20
-53.12183114504666
 30
0.0
 11
38.42971300200361
 21
-53.08132814504666
 31
0.0
  0
LINE
  5
12B9F
330
18
100
AcDbEntity
  8
SKVIEWINSERT
 48
0.0413170975321162
100
AcDbLine
 10
38.03977300200358
 20
-53.08078114504666
 30
0.0
 11
38.03365200200358
 21
-53.04606914504666
 31
0.0
  0
LINE
  5
12BA0
330
18
100
AcDbEntity
  8
SKVIEWINSERT
 48
0.0413170975321162
100
AcDbLine
 10
39.72954700200359
 20
-53.17609714504666
 30
0.0
 11
39.12177600200357
 21
-49.72925514504665
 31
0.0
  0
LINE
  5
12BAC
330
18
100
AcDbEntity
  8
SKVIEWINSERT
 48
0.0413170975321162
100
AcDbLine
 10
29.21144500200359
 20
-54.52199814504665
 30
0.0
 11
28.68924700200358
 21
-51.56046714504666
 31
0.0
  0
LINE
  5
12BB2
330
18
100
AcDbEntity
  8
SKVIEWINSERT
 48
0.0413170975321162
100
AcDbLine
 10
26.30267400200358
 20
-55.50198614504665
 30
0.0
 11
25.69970800200361
 21
-52.08239614504666
 31
0.0
  0
LINE
  5
12BB3
330
18
100
AcDbEntity
  8
SKVIEWINSERT
 48
0.0413170975321162
100
AcDbLine
 10
29.24462800200359
 20
-54.65918514504664
 30
0.0
 11
28.69501100200358
 21
-51.54214914504665
 31
0.0
  0
LINE
  5
12BEF
330
18
100
AcDbEntity
  8
3
  6
HIDDENX2
 48
0.2
100
AcDbLine
 10
41.45188799999999
 20
15.0
 30
0.0
 11
38.57963268889404
 21
15.0
 31
0.0
  0
LINE
  5
12BF0
102
{ACAD_REACTORS
330
12CBB
102
}
330
18
100
AcDbEntity
  8
3
  6
HIDDENX2
 48
0.2
100
AcDbLine
 10
41.45188799999999
 20
15.0
 30
0.0
 11
38.17584600000001
 21
9.399549000000007
 31
0.0
  0
LINE
  5
12BF2
330
18
100
AcDbEntity
  8
1
100
AcDbLine
 10
0.0
 20
10.0
 30
0.0
 11
10.0
 21
10.0
 31
0.0
  0
LINE
  5
12BF3
330
18
100
AcDbEntity
  8
1
100
AcDbLine
 10
0.0
 20
-10.0
 30
0.0
 11
20.16079400000001
 21
-10.0
 31
0.0
  0
DIMENSION
  5
12C35
330
18
100
AcDbEntity
  8
SKVIEW2
100
AcDbDimension
  2
*D21
 10
41.62794287996768
 20
-24.85764117863979
 30
0.0
 11
22.62794287996769
 21
-22.42115136837978
 31
0.0
 70
    32
 71
     5
 42
38.0
  3
STANDARD
100
AcDbAlignedDimension
 13
3.627942879967683
 23
-52.65146762337253
 33
0.0
 14
41.62794287996768
 24
-52.93846314504666
 34
0.0
100
AcDbRotatedDimension
  0
LINE
  5
12C69
102
{ACAD_REACTORS
330
12C82
102
}
330
18
100
AcDbEntity
  8
SKVIEWINSERT
100
AcDbLine
 10
19.7229870020036
 20
-72.93846314504666
 30
0.0
 11
42.14808105208703
 21
-72.93846314504666
 31
0.0
  0
DIMENSION
  5
12C6B
102
{ACAD_XDICTIONARY
360
12C78
102
}
102
{ACAD_REACTORS
330
12C82
102
}
330
18
100
AcDbEntity
  8
SKVIEW2
100
AcDbDimension
  2
*D22
 10
49.74826800912899
 20
-52.93846314504666
 30
0.0
 11
47.31177819886898
 21
-62.93846314504666
 31
0.0
 70
    32
 71
     5
 42
20.00000000000001
  3
STANDARD
100
AcDbAlignedDimension
 13
19.7229870020036
 23
-72.93846314504666
 33
0.0
 14
41.62794287996768
 24
-52.93846314504666
 34
0.0
 50
90.0
100
AcDbRotatedDimension
  0
DIMENSION
  5
12C8C
102
{ACAD_XDICTIONARY
360
12C99
102
}
102
{ACAD_REACTORS
330
12CA3
102
}
330
18
100
AcDbEntity
  8
SKVIEW2
100
AcDbDimension
  2
*D23
 10
-96.70581916869616
 20
-52.93846314504666
 30
0.0
 11
-99.14230897895617
 21
-62.93846314504666
 31
0.0
 70
    32
 71
     5
 42
19.99999999999999
  3
STANDARD
100
AcDbAlignedDimension
 13
-82.98591899799641
 23
-72.93846314504666
 33
0.0
 14
-82.98591899799641
 24
-52.93846314504666
 34
0.0
 50
90.0
100
AcDbRotatedDimension
  0
DIMENSION
  5
12CA4
102
{ACAD_XDICTIONARY
360
12CB1
102
}
102
{ACAD_REACTORS
330
12CBB
102
}
330
18
100
AcDbEntity
  8
2
100
AcDbDimension
  2
*D24
 10
53.5328855028572
 20
-10.0
 30
0.0
 11
51.09639569259718
 21
2.500000000000003
 31
0.0
 70
    32
 71
     5
 42
25.0
  3
STANDARD
100
AcDbAlignedDimension
 13
41.45188799999999
 23
15.0
 33
0.0
 14
34.97908100000001
 24
-10.0
 34
0.0
 50
90.0
100
AcDbRotatedDimension
  0
DIMENSION
  5
12CBC
102
{ACAD_XDICTIONARY
360
12CC9
102
}
102
{ACAD_REACTORS
330
12CD3
102
}
330
18
100
AcDbEntity
  8
2
100
AcDbDimension
  2
*D25
 10
-83.548112
 20
25.91670050305211
 30
0.0
 11
-21.048112
 21
28.35319031331213
 31
0.0
 70
    32
 71
     5
 42
125.0
  3
STANDARD
100
AcDbAlignedDimension
 13
41.45188799999999
 23
15.0
 33
0.0
 14
-83.548112
 24
9.0
 34
0.0
100
AcDbRotatedDimension
  0
DIMENSION
  5
12CD4
102
{ACAD_XDICTIONARY
360
12CE1
102
}
102
{ACAD_REACTORS
330
12CEB
102
}
330
18
100
AcDbEntity
  8
2
100
AcDbDimension
  2
*D26
 10
-96.0810704135364
 20
-9.999999999999996
 30
0.0
 11
-98.51756022379641
 21
-0.0000000000000116
 31
0.0
 70
    32
 71
     5
 42
20.0
  3
STANDARD
100
AcDbAlignedDimension
 13
-82.548112
 23
10.0
 33
0.0
 14
-82.548112
 24
-10.0
 34
0.0
 50
90.0
100
AcDbRotatedDimension
  0
ENDSEC
  0
SECTION
  2
OBJECTS
  0
DICTIONARY
  5
C
330
0
100
AcDbDictionary
281
     1
  3
ACAD_BACKGROUND
350
762A
  3
ACAD_COLOR
350
387
  3
ACAD_GROUP
350
D
  3
ACAD_LAYOUT
350
301
  3
ACAD_MATERIAL
350
386
  3
ACAD_MLEADERSTYLE
350
43C
  3
ACAD_MLINESTYLE
350
E
  3
ACAD_PLOTSETTINGS
350
302
  3
ACAD_PLOTSTYLENAME
350
2FF
  3
ACAD_SCALELIST
350
41A
  3
ACAD_TABLESTYLE
350
388
  3
ACAD_VISUALSTYLE
350
3F2
  3
ACAD_WIPEOUT_VARS
350
239C
  3
ACDB_RECOMPOSE_DATA
350
12D0A
  3
AcDbVariableDictionary
350
357
  3
AEC_PROPERTY_SET_DEFS
350
5CF
  3
ASE_INDEX_DICTIONARY
350
12C2A
  3
DWGPROPS
350
12D0B
  0
DICTIONARY
  5
2C07
330
8
100
AcDbDictionary
280
     1
281
     1
  0
DICTIONARY
  5
451
330
2
100
AcDbDictionary
280
     1
281
     1
  3
ACAD_LAYERFILTERS
360
23C2
  3
ACAD_LAYERSTATES
360
6E9
  3
ACLYDICTIONARY
360
23C1
  0
DICTIONARY
  5
F62
330
F
100
AcDbDictionary
280
     1
281
     1
  3
ADSK_XREC_LAYER_RECONCILED
360
F63
  0
DICTIONARY
  5
F64
330
23
100
AcDbDictionary
280
     1
281
     1
  3
ADSK_XREC_LAYER_RECONCILED
360
F65
  0
DICTIONARY
  5
F66
330
25
100
AcDbDictionary
280
     1
281
     1
  3
ADSK_XREC_LAYER_RECONCILED
360
F67
  0
DICTIONARY
  5
F70
330
2E
100
AcDbDictionary
280
     1
281
     1
  3
ADSK_XREC_LAYER_RECONCILED
360
F71
  0
DICTIONARY
  5
F78
330
49B
100
AcDbDictionary
280
     1
281
     1
  3
ADSK_XREC_LAYER_RECONCILED
360
F79
  0
DICTIONARY
  5
F5A4
330
F5A3
100
AcDbDictionary
280
     1
281
     1
  0
DICTIONARY
  5
1057
330
18
100
AcDbDictionary
280
     1
281
     1
  3
ACAD_SORTENTS
360
1058
  0
DICTIONARY
  5
12C78
330
12C6B
100
AcDbDictionary
280
     1
281
     1
  3
ACAD_DIMASSOC
360
12C82
  0
DICTIONARY
  5
12C99
330
12C8C
100
AcDbDictionary
280
     1
281
     1
  3
ACAD_DIMASSOC
360
12CA3
  0
DICTIONARY
  5
12CB1
330
12CA4
100
AcDbDictionary
280
     1
281
     1
  3
ACAD_DIMASSOC
360
12CBB
  0
DICTIONARY
  5
12CC9
330
12CBC
100
AcDbDictionary
280
     1
281
     1
  3
ACAD_DIMASSOC
360
12CD3
  0
DICTIONARY
  5
12CE1
330
12CD4
100
AcDbDictionary
280
     1
281
     1
  3
ACAD_DIMASSOC
360
12CEB
  0
DICTIONARY
  5
762A
102
{ACAD_REACTORS
330
C
102
}
330
C
100
AcDbDictionary
281
     1
  0
DICTIONARY
  5
387
102
{ACAD_REACTORS
330
C
102
}
330
C
100
AcDbDictionary
281
     1
  0
DICTIONARY
  5
D
102
{ACAD_REACTORS
330
C
102
}
330
C
100
AcDbDictionary
281
     1
  3
*A1
350
43E9
  3
*A10
350
4687
  3
*A11
350
5331
  3
*A12
350
5332
  3
*A13
350
B72E
  3
*A14
350
B72F
  3
*A2
350
BB5C
  3
*A3
350
BB5D
  3
*A4
350
551A
  3
*A5
350
551B
  3
*A6
350
43EA
  3
*A7
350
44BE
  3
*A8
350
4505
  3
*A9
350
4509
  3
1
350
5EDA
  3
2
350
5FD0
  3
CUT
350
5F5A
  3
INFTOTAL
350
6D2D
  3
INSERT
350
5ED7
  3
NOCUT
350
5ED4
  3
SK1
350
5ECE
  3
SK2
350
6026
  3
SK3
350
5ED0
  0
DICTIONARY
  5
301
102
{ACAD_REACTORS
330
C
102
}
330
C
100
AcDbDictionary
281
     1
  3
Layout1
350
33B
  3
Model
350
303
  0
DICTIONARY
  5
386
102
{ACAD_REACTORS
330
C
102
}
330
C
100
AcDbDictionary
281
     1
  3
ByBlock
350
3F0
  3
ByLayer
350
3EF
  3
Global
350
3F1
  0
DICTIONARY
  5
43C
102
{ACAD_REACTORS
330
C
102
}
330
C
100
AcDbDictionary
281
     1
  3
Standard
350
43D
  0
DICTIONARY
  5
E
102
{ACAD_REACTORS
330
C
102
}
330
C
100
AcDbDictionary
281
     1
  3
STANDARD
350
1B
  0
DICTIONARY
  5
302
102
{ACAD_REACTORS
330
C
102
}
330
C
100
AcDbDictionary
281
     1
  0
ACDBDICTIONARYWDFLT
  5
2FF
102
{ACAD_REACTORS
330
C
102
}
330
C
100
AcDbDictionary
281
     1
  3
Normal
350
300
100
AcDbDictionaryWithDefault
340
300
  0
DICTIONARY
  5
41A
102
{ACAD_REACTORS
330
C
102
}
330
C
100
AcDbDictionary
281
     1
  3
A0
350
41B
  3
A1
350
41C
  3
A2
350
41D
  3
A3
350
41E
  3
A4
350
41F
  3
A5
350
420
  3
A6
350
421
  3
A7
350
422
  3
A8
350
423
  3
A9
350
424
  3
B0
350
425
  3
B1
350
426
  3
B2
350
427
  3
B3
350
428
  3
B4
350
429
  3
B5
350
42A
  3
B6
350
42B
  3
B7
350
42C
  3
B8
350
42D
  3
B9
350
42E
  3
C0
350
42F
  3
C1
350
430
  3
C2
350
431
  3
C3
350
432
  3
C4
350
433
  3
C5
350
434
  3
C6
350
435
  3
C7
350
436
  3
C8
350
437
  3
C9
350
438
  3
D0
350
439
  3
D1
350
43A
  3
D2
350
43B
  0
DICTIONARY
  5
388
102
{ACAD_REACTORS
330
C
102
}
330
C
100
AcDbDictionary
281
     1
  3
Standard
350
389
  0
DICTIONARY
  5
3F2
102
{ACAD_REACTORS
330
C
102
}
330
C
100
AcDbDictionary
281
     1
  3
2dWireframe
350
3F8
  3
3D Hidden
350
3FA
  3
3dWireframe
350
3F9
  3
Basic
350
3F7
  3
Brighten
350
3FE
  3
ColorChange
350
402
  3
Conceptual
350
3FB
  3
Dim
350
3FD
  3
EdgeColorOff
350
2BFD
  3
Facepattern
350
401
  3
Flat
350
3F3
  3
FlatWithEdges
350
3F4
  3
Gouraud
350
3F5
  3
GouraudWithEdges
350
3F6
  3
JitterOff
350
2BFB
  3
Linepattern
350
400
  3
OverhangOff
350
2BFC
  3
Realistic
350
3FC
  3
Thicken
350
3FF
  0
WIPEOUTVARIABLES
  5
239C
102
{ACAD_REACTORS
330
C
102
}
330
C
100
AcDbWipeoutVariables
 70
     1
  0
XRECORD
  5
12D0A
102
{ACAD_REACTORS
330
C
102
}
330
C
100
AcDbXrecord
280
     1
 90
        1
330
389
  0
DICTIONARY
  5
357
102
{ACAD_REACTORS
330
C
102
}
330
C
100
AcDbDictionary
281
     1
  3
CANNOSCALE
350
449
  3
CMLEADERSTYLE
350
447
  3
CTABLESTYLE
350
38E
  3
DIMASSOC
350
359
  3
HIDETEXT
350
358
  3
INDEXCTL
350
F7B
  3
LIGHTINGUNITS
350
44A
  3
MSLTSCALE
350
448
  3
PROJECTNAME
350
1051
  3
SORTENTS
350
F7A
  3
XCLIPFRAME
350
12D08
  0
DICTIONARY
  5
5CF
102
{ACAD_REACTORS
330
C
102
}
330
C
100
AcDbDictionary
281
     1
  0
DICTIONARY
  5
12C2A
102
{ACAD_REACTORS
330
C
102
}
330
C
100
AcDbDictionary
281
     1
  3
ASEBlockHierarchyIndexRecord
350
12C2B
1001
DCO15
1040
1884328137.388
  0
XRECORD
  5
12D0B
102
{ACAD_REACTORS
330
C
102
}
330
C
100
AcDbXrecord
280
     1
  1
DWGPROPS COOKIE
  2

  3

  4

  6

  7

  8
seonghan
  9

300
=
301
=
302
=
303
=
304
=
305
=
306
=
307
=
308
=
309
=
 40
1.971532650462962
 41
2455296.745974386
 42
2457612.565293842
  1

 90
        0
  0
DICTIONARY
  5
23C2
102
{ACAD_REACTORS
330
451
102
}
330
451
100
AcDbDictionary
281
     1
  0
DICTIONARY
  5
6E9
102
{ACAD_REACTORS
330
451
102
}
330
451
100
AcDbDictionary
281
     1
  3
_LAYISO_STATE
350
4506
1001
AcLayerTools
1000
303
1000
0
  0
DICTIONARY
  5
23C1
102
{ACAD_REACTORS
330
451
102
}
330
451
100
AcDbDictionary
281
     1
1001
ACAD
1000
<All
  0
XRECORD
  5
F63
102
{ACAD_REACTORS
330
F62
102
}
330
F62
100
AcDbXrecord
280
     1
290
     1
  0
XRECORD
  5
F65
102
{ACAD_REACTORS
330
F64
102
}
330
F64
100
AcDbXrecord
280
     1
290
     1
  0
XRECORD
  5
F67
102
{ACAD_REACTORS
330
F66
102
}
330
F66
100
AcDbXrecord
280
     1
290
     1
  0
XRECORD
  5
F71
102
{ACAD_REACTORS
330
F70
102
}
330
F70
100
AcDbXrecord
280
     1
290
     1
  0
XRECORD
  5
F79
102
{ACAD_REACTORS
330
F78
102
}
330
F78
100
AcDbXrecord
280
     1
290
     1
  0
SORTENTSTABLE
  5
1058
102
{ACAD_REACTORS
330
1057
102
}
330
1057
100
AcDbSortentsTable
330
18
331
12A57
  5
12A58
331
12A53
  5
12A52
331
12A8E
  5
12A92
331
12A4F
  5
12A4E
331
12BB2
  5
12BEF
331
12A4B
  5
12A4A
331
12B46
  5
12B4B
331
12B07
  5
12B0C
331
12B42
  5
12B47
331
12AC8
  5
12ACC
331
12B7D
  5
12B82
331
12AC4
  5
12AC8
331
12B3E
  5
12B43
331
12B79
  5
12B7E
331
12AC0
  5
12AC4
331
12B3A
  5
12B3F
331
12A86
  5
12A8A
331
12A47
  5
12A46
331
12A82
  5
12A86
331
12A43
  5
12A42
331
12A7E
  5
12A82
331
12A3F
  5
12A3E
331
12A7A
  5
12A7E
331
12A3B
  5
12A3A
331
12AFF
  5
12B04
331
12AFB
  5
12B00
331
12B75
  5
12B7A
331
12ABC
  5
12AC0
331
12B36
  5
12B3B
331
12AF7
  5
12AFC
331
12B71
  5
12B76
331
12AB8
  5
12ABC
331
12B32
  5
12B37
331
12AF3
  5
12AF8
331
12B6D
  5
12B72
331
12AB4
  5
12AB8
331
12B2E
  5
12B33
331
12B69
  5
12B6E
331
12AB0
  5
12AB4
331
12B2A
  5
12B2F
331
12B9E
  5
12BA3
331
12A76
  5
12A7A
331
12A37
  5
12A36
331
12B9A
  5
12B9F
331
12A72
  5
12A76
331
12A33
  5
12A32
331
12B96
  5
12B9B
331
12A6E
  5
12A72
331
12B92
  5
12B97
331
12A6A
  5
12A6E
331
12AEF
  5
12AF4
331
12B65
  5
12B6A
331
12AAC
  5
12AB0
331
12B26
  5
12B2B
331
12B61
  5
12B66
331
12AA8
  5
12AAC
331
12AE3
  5
12AE7
331
12B5D
  5
12B62
331
12AA4
  5
12AA8
331
12B1E
  5
12B23
331
12B59
  5
12B5E
331
12AA0
  5
12AA4
331
12B1A
  5
12B1F
331
F19
  5
7A4B
331
12A66
  5
12A6A
331
12A62
  5
12A66
331
12B86
  5
12B8B
331
12A5E
  5
12A61
331
12B82
  5
12B87
331
12A5A
  5
12A5C
331
12ADF
  5
12AE3
331
12ADB
  5
12ADF
331
12B55
  5
12B5A
331
12B16
  5
12B1B
331
12AD7
  5
12ADB
331
12A98
  5
12A9C
331
12B12
  5
12B17
331
12AD3
  5
12AD7
331
12B4D
  5
12B52
331
12B0E
  5
12B13
331
12B49
  5
12B4E
331
12A90
  5
12A94
331
12B0A
  5
12B0F
331
12A56
  5
12A57
331
12A52
  5
12A51
331
12A8D
  5
12A91
331
12A4E
  5
12A4D
331
12BF0
  5
12BF2
331
12A89
  5
12A8D
331
12A4A
  5
12A49
331
12ACF
  5
12AD3
331
12B45
  5
12B4A
331
12ACB
  5
12ACF
331
12B06
  5
12B0B
331
12B41
  5
12B46
331
12AC7
  5
12ACB
331
12B02
  5
12B07
331
12B7C
  5
12B81
331
12AC3
  5
12AC7
331
12B3D
  5
12B42
331
12B78
  5
12B7D
331
12B39
  5
12B3E
331
12A85
  5
12A89
331
12A46
  5
12A45
331
12A81
  5
12A85
331
12A42
  5
12A41
331
12A7D
  5
12A81
331
12A3E
  5
12A3D
331
12A79
  5
12A7D
331
12A3A
  5
12A39
331
12AFE
  5
12B03
331
12ABF
  5
12AC3
331
12AFA
  5
12AFF
331
12B74
  5
12B79
331
12ABB
  5
12ABF
331
12B35
  5
12B3A
331
12AF6
  5
12AFB
331
12B70
  5
12B75
331
12AB7
  5
12ABB
331
12B31
  5
12B36
331
12AF2
  5
12AF7
331
12B6C
  5
12B71
331
12AB3
  5
12AB7
331
12B2D
  5
12B32
331
12B68
  5
12B6D
331
12B29
  5
12B2E
331
12B9D
  5
12BA2
331
12A75
  5
12A79
331
12A36
  5
12A35
331
12B99
  5
12B9E
331
12A71
  5
12A75
331
12B95
  5
12B9A
331
12A6D
  5
12A71
331
12B91
  5
12B96
331
12AAF
  5
12AB3
331
12AEA
  5
12AEE
331
12B64
  5
12B69
331
12AAB
  5
12AAF
331
12B60
  5
12B65
331
12AA7
  5
12AAB
331
12B21
  5
12B26
331
12AE2
  5
12AE6
331
12B5C
  5
12B61
331
12B1D
  5
12B22
331
12B58
  5
12B5D
331
12B19
  5
12B1E
331
F18
  5
105A
331
12B8D
  5
12B92
331
12A65
  5
12A69
331
12B89
  5
12B8E
331
12A61
  5
12A65
331
12B85
  5
12B8A
331
12A5D
  5
12A60
331
12B81
  5
12B86
331
12A59
  5
12A5B
331
12ADE
  5
12AE2
331
12A9F
  5
12AA3
331
12ADA
  5
12ADE
331
12B54
  5
12B59
331
12B15
  5
12B1A
331
12AD6
  5
12ADA
331
12B50
  5
12B55
331
12A97
  5
12A9B
331
12B11
  5
12B16
331
12AD2
  5
12AD6
331
12B4C
  5
12B51
331
12B0D
  5
12B12
331
12B48
  5
12B4D
331
12B09
  5
12B0E
331
12A55
  5
12A56
331
12A51
  5
12A50
331
12BF3
  5
12A55
331
12A4D
  5
12A4C
331
12A88
  5
12A8C
331
12C69
  5
12C69
331
12A49
  5
12A48
331
12ACE
  5
12AD2
331
12B44
  5
12B49
331
12ACA
  5
12ACE
331
12B05
  5
12B0A
331
12B7F
  5
12B84
331
12AC6
  5
12ACA
331
12B40
  5
12B45
331
12B7B
  5
12B80
331
12AC2
  5
12AC6
331
12B3C
  5
12B41
331
12B38
  5
12B3D
331
12BEF
  5
12BF1
331
12BAC
  5
12BB1
331
12A84
  5
12A88
331
12A45
  5
12A44
331
12A80
  5
12A84
331
12A41
  5
12A40
331
12A7C
  5
12A80
331
12A3D
  5
12A3C
331
12BA0
  5
12BA5
331
12A78
  5
12A7C
331
12A39
  5
12A38
331
12AFD
  5
12B02
331
12B77
  5
12B7C
331
12ABE
  5
12AC2
331
12AF9
  5
12AFE
331
12B73
  5
12B78
331
12ABA
  5
12ABE
331
12B34
  5
12B39
331
12AF5
  5
12AFA
331
12B6F
  5
12B74
331
12AB6
  5
12ABA
331
12B30
  5
12B35
331
12AF1
  5
12AF6
331
12B6B
  5
12B70
331
12AB2
  5
12AB6
331
12B28
  5
12B2D
331
12B9C
  5
12BA1
331
12A74
  5
12A78
331
12A35
  5
12A34
331
12B98
  5
12B9D
331
12A70
  5
12A74
331
12B94
  5
12B99
331
12A6C
  5
12A70
331
12B90
  5
12B95
331
12A68
  5
12A6C
331
12B67
  5
12B6C
331
12AAE
  5
12AB2
331
12B63
  5
12B68
331
12AAA
  5
12AAE
331
12B24
  5
12B29
331
12B5F
  5
12B64
331
12AA6
  5
12AAA
331
12B20
  5
12B25
331
12AE1
  5
12AE5
331
12B5B
  5
12B60
331
12B1C
  5
12B21
331
12B18
  5
12B1D
331
12B8C
  5
12B91
331
12A64
  5
12A68
331
12B88
  5
12B8D
331
12A60
  5
12A63
331
12B84
  5
12B89
331
12A5C
  5
12A5F
331
12B80
  5
12B85
331
12A58
  5
12A59
331
117BA
  5
117BA
331
12ADD
  5
12AE1
331
12B57
  5
12B5C
331
12AD9
  5
12ADD
331
12B53
  5
12B58
331
12A9A
  5
12A9E
331
12AD5
  5
12AD9
331
12B4F
  5
12B54
331
12B10
  5
12B15
331
12AD1
  5
12AD5
331
12B4B
  5
12B50
331
12A92
  5
12A96
331
12B0C
  5
12B11
331
F17
  5
1056
331
12B08
  5
12B0D
331
12C35
  5
12C35
331
12A54
  5
12A53
331
12A8F
  5
12A93
331
12A50
  5
12A4F
331
12BB3
  5
12BF0
331
12BF2
  5
12A5D
331
12A8B
  5
12A8F
331
12A4C
  5
12A4B
331
12A48
  5
12A47
331
12B47
  5
12B4C
331
12ACD
  5
12AD1
331
12B43
  5
12B48
331
12AC9
  5
12ACD
331
12B04
  5
12B09
331
12B7E
  5
12B83
331
12AC5
  5
12AC9
331
12B3F
  5
12B44
331
12B00
  5
12B05
331
12B7A
  5
12B7F
331
12AC1
  5
12AC5
331
12B3B
  5
12B40
331
12A87
  5
12A8B
331
12A83
  5
12A87
331
12A44
  5
12A43
331
12A7F
  5
12A83
331
12A40
  5
12A3F
331
12A7B
  5
12A7F
331
12A3C
  5
12A3B
331
12A38
  5
12A37
331
12AFC
  5
12B01
331
12B76
  5
12B7B
331
12ABD
  5
12AC1
331
12B37
  5
12B3C
331
12AF8
  5
12AFD
331
12B72
  5
12B77
331
12AB9
  5
12ABD
331
12B33
  5
12B38
331
12AF4
  5
12AF9
331
12B6E
  5
12B73
331
12B2F
  5
12B34
331
12AF0
  5
12AF5
331
12B6A
  5
12B6F
331
12AB1
  5
12AB5
331
12B9F
  5
12BA4
331
12A77
  5
12A7B
331
12B9B
  5
12BA0
331
12A73
  5
12A77
331
12A34
  5
12A33
331
12B97
  5
12B9C
331
12A6F
  5
12A73
331
12B93
  5
12B98
331
12A6B
  5
12A6F
331
12B66
  5
12B6B
331
12AAD
  5
12AB1
331
12B27
  5
12B2C
331
12B62
  5
12B67
331
12AA9
  5
12AAD
331
12B23
  5
12B28
331
12AE4
  5
12AE8
331
12B5E
  5
12B63
331
12AA5
  5
12AA9
331
12B1F
  5
12B24
331
12AE0
  5
12AE4
331
12B5A
  5
12B5F
331
12AA1
  5
12AA5
331
12B1B
  5
12B20
331
F1A
  5
7A4C
331
12B8F
  5
12B94
331
12B8B
  5
12B90
331
12A63
  5
12A67
331
12B87
  5
12B8C
331
12A5F
  5
12A62
331
12B83
  5
12B88
331
12A5B
  5
12A5E
331
12ADC
  5
12AE0
331
12B56
  5
12B5B
331
12A9D
  5
12AA1
331
12B17
  5
12B1C
331
12AD8
  5
12ADC
331
12B52
  5
12B57
331
12B13
  5
12B18
331
12AD4
  5
12AD8
331
12B4E
  5
12B53
331
12A95
  5
12A99
331
12B0F
  5
12B14
331
12AD0
  5
12AD4
331
12B4A
  5
12B4F
331
12B0B
  5
12B10
  0
DIMASSOC
  5
12C82
102
{ACAD_REACTORS
330
12C78
102
}
330
12C78
100
AcDbDimAssoc
330
12C6B
 90
        1
 70
     0
 71
     0
  1
AcDbOsnapPointRef
 72
    13
331
12C69
 73
     2
 91
        0
 40
0.0
 10
0.0
 20
0.0
 30
2.000000000000000E+50
 75
     0
  0
DIMASSOC
  5
12CA3
102
{ACAD_REACTORS
330
12C99
102
}
330
12C99
100
AcDbDimAssoc
330
12C8C
 90
        3
 70
     0
 71
     0
  1
AcDbOsnapPointRef
 72
    13
331
12B4E
 73
     2
 91
        0
 40
0.0
 10
0.0
 20
0.0
 30
2.000000000000000E+50
 75
     0
  1
AcDbOsnapPointRef
 72
    13
331
12B4C
 73
     2
 91
        0
 40
0.0
 10
0.0
 20
0.0
 30
2.000000000000000E+50
 75
     0
  0
DIMASSOC
  5
12CBB
102
{ACAD_REACTORS
330
12CB1
102
}
330
12CB1
100
AcDbDimAssoc
330
12CA4
 90
        3
 70
     0
 71
     0
  1
AcDbOsnapPointRef
 72
    13
331
12BF0
 73
     2
 91
        0
 40
0.0
 10
0.0
 20
0.0
 30
2.000000000000000E+50
 75
     0
  1
AcDbOsnapPointRef
 72
     1
331
12A50
 73
     2
 91
        0
 40
1.0
 10
0.0
 20
0.0
 30
2.000000000000000E+50
 75
     0
  0
DIMASSOC
  5
12CD3
102
{ACAD_REACTORS
330
12CC9
102
}
330
12CC9
100
AcDbDimAssoc
330
12CBC
 90
        2
 70
     0
 71
     0
  1
AcDbOsnapPointRef
 72
    13
331
12A62
 73
     2
 91
        0
 40
0.0
 10
0.0
 20
0.0
 30
2.000000000000000E+50
 75
     0
  0
DIMASSOC
  5
12CEB
102
{ACAD_REACTORS
330
12CE1
102
}
330
12CE1
100
AcDbDimAssoc
330
12CD4
 90
        3
 70
     0
 71
     0
  1
AcDbOsnapPointRef
 72
    13
331
12A61
 73
     2
 91
        0
 40
0.0
 10
0.0
 20
0.0
 30
2.000000000000000E+50
 75
     0
  1
AcDbOsnapPointRef
 72
    13
331
12A5F
 73
     2
 91
        0
 40
0.0
 10
0.0
 20
0.0
 30
2.000000000000000E+50
 75
     0
  0
GROUP
  5
43E9
102
{ACAD_REACTORS
330
D
102
}
330
D
100
AcDbGroup
300

 70
     0
 71
     1
  0
GROUP
  5
4687
102
{ACAD_REACTORS
330
D
102
}
330
D
100
AcDbGroup
300

 70
     0
 71
     1
  0
GROUP
  5
5331
102
{ACAD_REACTORS
330
D
102
}
330
D
100
AcDbGroup
300

 70
     1
 71
     1
  0
GROUP
  5
5332
102
{ACAD_REACTORS
330
D
102
}
330
D
100
AcDbGroup
300

 70
     1
 71
     1
  0
GROUP
  5
B72E
102
{ACAD_REACTORS
330
D
102
}
330
D
100
AcDbGroup
300

 70
     1
 71
     1
  0
GROUP
  5
B72F
102
{ACAD_REACTORS
330
D
102
}
330
D
100
AcDbGroup
300

 70
     1
 71
     1
  0
GROUP
  5
BB5C
102
{ACAD_REACTORS
330
D
102
}
330
D
100
AcDbGroup
300

 70
     1
 71
     1
  0
GROUP
  5
BB5D
102
{ACAD_REACTORS
330
D
102
}
330
D
100
AcDbGroup
300

 70
     1
 71
     1
  0
GROUP
  5
551A
102
{ACAD_REACTORS
330
D
102
}
330
D
100
AcDbGroup
300

 70
     1
 71
     1
  0
GROUP
  5
551B
102
{ACAD_REACTORS
330
D
102
}
330
D
100
AcDbGroup
300

 70
     1
 71
     1
  0
GROUP
  5
43EA
102
{ACAD_REACTORS
330
D
102
}
330
D
100
AcDbGroup
300

 70
     0
 71
     1
  0
GROUP
  5
44BE
102
{ACAD_REACTORS
330
D
102
}
330
D
100
AcDbGroup
300

 70
     0
 71
     1
  0
GROUP
  5
4505
102
{ACAD_REACTORS
330
D
102
}
330
D
100
AcDbGroup
300

 70
     0
 71
     1
  0
GROUP
  5
4509
102
{ACAD_REACTORS
330
D
102
}
330
D
100
AcDbGroup
300

 70
     0
 71
     1
  0
GROUP
  5
5EDA
102
{ACAD_REACTORS
330
D
102
}
330
D
100
AcDbGroup
300

 70
     0
 71
     1
  0
GROUP
  5
5FD0
102
{ACAD_REACTORS
330
D
102
}
330
D
100
AcDbGroup
300

 70
     0
 71
     1
  0
GROUP
  5
5F5A
102
{ACAD_REACTORS
330
D
102
}
330
D
100
AcDbGroup
300

 70
     0
 71
     1
  0
GROUP
  5
6D2D
102
{ACAD_REACTORS
330
D
102
}
330
D
100
AcDbGroup
300

 70
     0
 71
     1
340
F18
340
F19
  0
GROUP
  5
5ED7
102
{ACAD_REACTORS
330
D
102
}
330
D
100
AcDbGroup
300

 70
     0
 71
     1
  0
GROUP
  5
5ED4
102
{ACAD_REACTORS
330
D
102
}
330
D
100
AcDbGroup
300

 70
     0
 71
     1
  0
GROUP
  5
5ECE
102
{ACAD_REACTORS
330
D
102
}
330
D
100
AcDbGroup
300

 70
     0
 71
     1
  0
GROUP
  5
6026
102
{ACAD_REACTORS
330
D
102
}
330
D
100
AcDbGroup
300

 70
     0
 71
     1
  0
GROUP
  5
5ED0
102
{ACAD_REACTORS
330
D
102
}
330
D
100
AcDbGroup
300

 70
     0
 71
     1
  0
LAYOUT
  5
33B
102
{ACAD_XDICTIONARY
360
12D0D
102
}
102
{ACAD_REACTORS
330
301
102
}
330
301
100
AcDbPlotSettings
  1

  2
Lexmark Optra PS2
  4

  6

 40
0.0
 41
0.0
 42
0.0
 43
0.0
 44
0.0
 45
0.0
 46
0.0
 47
0.0
 48
0.0
 49
0.0
140
0.0
141
0.0
142
1.0
143
1.0
 70
   688
 72
     0
 73
     0
 74
     5
  7
monochrome.ctb
 75
    16
147
1.0
148
0.0
149
0.0
100
AcDbLayout
  1
Layout1
 70
     1
 71
     1
 10
0.0
 20
0.0
 11
12.0
 21
9.0
 12
0.0
 22
0.0
 32
0.0
 14
0.0
 24
0.0
 34
0.0
 15
0.0
 25
0.0
 35
0.0
146
0.0
 13
0.0
 23
0.0
 33
0.0
 16
1.0
 26
0.0
 36
0.0
 17
0.0
 27
1.0
 37
0.0
 76
     0
330
338
  0
LAYOUT
  5
303
102
{ACAD_XDICTIONARY
360
5551
102
}
102
{ACAD_REACTORS
330
301
102
}
330
301
100
AcDbPlotSettings
  1

  2
Default Windows System Printer.pc3
  4
A4
  6

 40
6.805083274841307
 41
5.535083293914794
 42
6.974411010742187
 43
7.14373779296875
 44
209.9733276367186
 45
296.9259948730469
 46
67.83299579489725
 47
0.0
 48
0.0
 49
0.0
140
0.0
141
0.0
142
1.0
143
0.3604333568168785
 70
  3764
 72
     1
 73
     1
 74
     1
  7
monochrome.ctb
 75
     0
147
2.774437995504559
148
-82.35087775247029
149
-53.69369632994493
100
AcDbLayout
  1
Model
 70
     1
 71
     0
 10
0.0
 20
0.0
 11
12.0
 21
9.0
 12
0.0
 22
0.0
 32
0.0
 14
0.0
 24
0.0
 34
0.0
 15
0.0
 25
0.0
 35
0.0
146
0.0
 13
0.0
 23
0.0
 33
0.0
 16
1.0
 26
0.0
 36
0.0
 17
0.0
 27
1.0
 37
0.0
 76
     0
330
18
331
2BF9
1001
ACAD_PSEXT
1000
Default Windows System Printer.pc3
1000
Lexmark Optra Rx
1000
Lexmark Rx
1000
Erstellt von Lexmark Benutzerdefinierte Installation,Nov 13,2005,10:03
1070
     0
  0
MATERIAL
  5
3F0
102
{ACAD_XDICTIONARY
360
4606
102
}
102
{ACAD_REACTORS
330
386
102
}
330
386
100
AcDbMaterial
  1
ByBlock
 73
     1
 78
     1
172
     1
176
     1
270
     1
274
     1
  0
MATERIAL
  5
3EF
102
{ACAD_XDICTIONARY
360
4604
102
}
102
{ACAD_REACTORS
330
386
102
}
330
386
100
AcDbMaterial
  1
ByLayer
 73
     1
 78
     1
172
     1
176
     1
270
     1
274
     1
  0
MATERIAL
  5
3F1
102
{ACAD_XDICTIONARY
360
4608
102
}
102
{ACAD_REACTORS
330
386
102
}
330
386
100
AcDbMaterial
  1
Global
 73
     1
 78
     1
172
     1
176
     1
270
     1
274
     1
  0
MLEADERSTYLE
  5
43D
102
{ACAD_REACTORS
330
43C
102
}
330
43C
100
AcDbMLeaderStyle
170
     2
171
     1
172
     0
 90
        2
 40
0.0
 41
0.0
173
     1
 91
-1056964608
340
12
 92
       -2
290
     1
 42
2.0
291
     1
 43
0.36
  3
Standard
 44
4.0
300

342
10
174
     1
178
     6
175
     1
176
     0
 93
-1056964608
 45
4.0
292
     0
297
     0
 46
4.0
 94
-1056964608
 47
1.0
 49
1.0
140
1.0
293
     1
141
0.0
294
     1
177
     0
142
1.0
295
     0
296
     0
143
0.125
1001
ACAD_MLEADERVER
1070
     2
  0
MLINESTYLE
  5
1B
102
{ACAD_REACTORS
330
E
102
}
330
E
100
AcDbMlineStyle
  2
STANDARD
 70
     0
  3

 62
     0
 51
90.0
 52
90.0
 71
     2
 49
0.5
 62
   256
  6
BYLAYER
 49
-0.5
 62
   256
  6
BYLAYER
  0
ACDBPLACEHOLDER
  5
300
102
{ACAD_REACTORS
330
2FF
102
}
330
2FF
  0
SCALE
  5
41B
102
{ACAD_REACTORS
330
41A
102
}
330
41A
100
AcDbScale
 70
     0
300
1:1
140
1.0
141
1.0
290
     1
  0
SCALE
  5
41C
102
{ACAD_REACTORS
330
41A
102
}
330
41A
100
AcDbScale
 70
     0
300
1:2
140
1.0
141
2.0
290
     0
  0
SCALE
  5
41D
102
{ACAD_REACTORS
330
41A
102
}
330
41A
100
AcDbScale
 70
     0
300
1:4
140
1.0
141
4.0
290
     0
  0
SCALE
  5
41E
102
{ACAD_REACTORS
330
41A
102
}
330
41A
100
AcDbScale
 70
     0
300
1:5
140
1.0
141
5.0
290
     0
  0
SCALE
  5
41F
102
{ACAD_REACTORS
330
41A
102
}
330
41A
100
AcDbScale
 70
     0
300
1:8
140
1.0
141
8.0
290
     0
  0
SCALE
  5
420
102
{ACAD_REACTORS
330
41A
102
}
330
41A
100
AcDbScale
 70
     0
300
1:10
140
1.0
141
10.0
290
     0
  0
SCALE
  5
421
102
{ACAD_REACTORS
330
41A
102
}
330
41A
100
AcDbScale
 70
     0
300
1:16
140
1.0
141
16.0
290
     0
  0
SCALE
  5
422
102
{ACAD_REACTORS
330
41A
102
}
330
41A
100
AcDbScale
 70
     0
300
1:20
140
1.0
141
20.0
290
     0
  0
SCALE
  5
423
102
{ACAD_REACTORS
330
41A
102
}
330
41A
100
AcDbScale
 70
     0
300
1:30
140
1.0
141
30.0
290
     0
  0
SCALE
  5
424
102
{ACAD_REACTORS
330
41A
102
}
330
41A
100
AcDbScale
 70
     0
300
1:40
140
1.0
141
40.0
290
     0
  0
SCALE
  5
425
102
{ACAD_REACTORS
330
41A
102
}
330
41A
100
AcDbScale
 70
     0
300
1:50
140
1.0
141
50.0
290
     0
  0
SCALE
  5
426
102
{ACAD_REACTORS
330
41A
102
}
330
41A
100
AcDbScale
 70
     0
300
1:100
140
1.0
141
100.0
290
     0
  0
SCALE
  5
427
102
{ACAD_REACTORS
330
41A
102
}
330
41A
100
AcDbScale
 70
     0
300
2:1
140
2.0
141
1.0
290
     0
  0
SCALE
  5
428
102
{ACAD_REACTORS
330
41A
102
}
330
41A
100
AcDbScale
 70
     0
300
4:1
140
4.0
141
1.0
290
     0
  0
SCALE
  5
429
102
{ACAD_REACTORS
330
41A
102
}
330
41A
100
AcDbScale
 70
     0
300
8:1
140
8.0
141
1.0
290
     0
  0
SCALE
  5
42A
102
{ACAD_REACTORS
330
41A
102
}
330
41A
100
AcDbScale
 70
     0
300
10:1
140
10.0
141
1.0
290
     0
  0
SCALE
  5
42B
102
{ACAD_REACTORS
330
41A
102
}
330
41A
100
AcDbScale
 70
     0
300
100:1
140
100.0
141
1.0
290
     0
  0
SCALE
  5
42C
102
{ACAD_REACTORS
330
41A
102
}
330
41A
100
AcDbScale
 70
     0
300
1/128" = 1'-0"
140
0.0078125
141
12.0
290
     0
  0
SCALE
  5
42D
102
{ACAD_REACTORS
330
41A
102
}
330
41A
100
AcDbScale
 70
     0
300
1/64" = 1'-0"
140
0.015625
141
12.0
290
     0
  0
SCALE
  5
42E
102
{ACAD_REACTORS
330
41A
102
}
330
41A
100
AcDbScale
 70
     0
300
1/32" = 1'-0"
140
0.03125
141
12.0
290
     0
  0
SCALE
  5
42F
102
{ACAD_REACTORS
330
41A
102
}
330
41A
100
AcDbScale
 70
     0
300
1/16" = 1'-0"
140
0.0625
141
12.0
290
     0
  0
SCALE
  5
430
102
{ACAD_REACTORS
330
41A
102
}
330
41A
100
AcDbScale
 70
     0
300
3/32" = 1'-0"
140
0.09375
141
12.0
290
     0
  0
SCALE
  5
431
102
{ACAD_REACTORS
330
41A
102
}
330
41A
100
AcDbScale
 70
     0
300
1/8" = 1'-0"
140
0.125
141
12.0
290
     0
  0
SCALE
  5
432
102
{ACAD_REACTORS
330
41A
102
}
330
41A
100
AcDbScale
 70
     0
300
3/16" = 1'-0"
140
0.1875
141
12.0
290
     0
  0
SCALE
  5
433
102
{ACAD_REACTORS
330
41A
102
}
330
41A
100
AcDbScale
 70
     0
300
1/4" = 1'-0"
140
0.25
141
12.0
290
     0
  0
SCALE
  5
434
102
{ACAD_REACTORS
330
41A
102
}
330
41A
100
AcDbScale
 70
     0
300
3/8" = 1'-0"
140
0.375
141
12.0
290
     0
  0
SCALE
  5
435
102
{ACAD_REACTORS
330
41A
102
}
330
41A
100
AcDbScale
 70
     0
300
1/2" = 1'-0"
140
0.5
141
12.0
290
     0
  0
SCALE
  5
436
102
{ACAD_REACTORS
330
41A
102
}
330
41A
100
AcDbScale
 70
     0
300
3/4" = 1'-0"
140
0.75
141
12.0
290
     0
  0
SCALE
  5
437
102
{ACAD_REACTORS
330
41A
102
}
330
41A
100
AcDbScale
 70
     0
300
1" = 1'-0"
140
1.0
141
12.0
290
     0
  0
SCALE
  5
438
102
{ACAD_REACTORS
330
41A
102
}
330
41A
100
AcDbScale
 70
     0
300
1-1/2" = 1'-0"
140
1.5
141
12.0
290
     0
  0
SCALE
  5
439
102
{ACAD_REACTORS
330
41A
102
}
330
41A
100
AcDbScale
 70
     0
300
3" = 1'-0"
140
3.0
141
12.0
290
     0
  0
SCALE
  5
43A
102
{ACAD_REACTORS
330
41A
102
}
330
41A
100
AcDbScale
 70
     0
300
6" = 1'-0"
140
6.0
141
12.0
290
     0
  0
SCALE
  5
43B
102
{ACAD_REACTORS
330
41A
102
}
330
41A
100
AcDbScale
 70
     0
300
1'-0" = 1'-0"
140
12.0
141
12.0
290
     0
  0
TABLESTYLE
  5
389
102
{ACAD_XDICTIONARY
360
444
102
}
102
{ACAD_REACTORS
330
388
102
}
330
388
100
AcDbTableStyle
  3
Standard
 70
     0
 71
     0
 40
1.5
 41
1.5
280
     0
281
     0
  7
STANDARD
140
4.5
170
     2
 62
     0
 63
     7
283
     0
274
    -2
284
     1
 64
     0
275
    -2
285
     1
 65
     0
276
    -2
286
     1
 66
     0
277
    -2
287
     1
 67
     0
278
    -2
288
     1
 68
     0
279
    -2
289
     1
 69
     0
  7
STANDARD
140
6.0
170
     5
 62
     0
 63
     7
283
     0
274
    -2
284
     1
 64
     0
275
    -2
285
     1
 65
     0
276
    -2
286
     1
 66
     0
277
    -2
287
     1
 67
     0
278
    -2
288
     1
 68
     0
279
    -2
289
     1
 69
     0
  7
STANDARD
140
4.5
170
     5
 62
     0
 63
     7
283
     0
274
    -2
284
     1
 64
     0
275
    -2
285
     1
 65
     0
276
    -2
286
     1
 66
     0
277
    -2
287
     1
 67
     0
278
    -2
288
     1
 68
     0
279
    -2
289
     1
 69
     0
  0
VISUALSTYLE
  5
3F8
102
{ACAD_XDICTIONARY
360
12D1A
102
}
102
{ACAD_REACTORS
330
3F2
102
}
330
3F2
100
AcDbVisualStyle
  2

 70
     4
 71
     0
 72
     2
 73
     0
 90
        0
 40
-0.6
 41
-30.0
 62
     5
 63
     7
 74
     1
 91
        4
 64
     7
 65
   257
 75
     1
175
     1
 42
1.0
 92
        0
 66
   257
 43
1.0
 76
     1
 77
     6
 78
     2
 67
     7
 79
     5
170
     0
171
     0
290
     0
174
     0
 93
        1
 44
0.0
173
     0
291
     0
 45
0.0
1001
ACAD
1000
AcDbSavedByObjectVersion
1070
     0
  0
VISUALSTYLE
  5
3FA
102
{ACAD_XDICTIONARY
360
12D1E
102
}
102
{ACAD_REACTORS
330
3F2
102
}
330
3F2
100
AcDbVisualStyle
  2

 70
     6
 71
     1
 72
     2
 73
     2
 90
        0
 40
-0.6
 41
-30.0
 62
     5
 63
     7
 74
     2
 91
        2
 64
     7
 65
   257
 75
     2
175
     1
 42
40.0
 92
        0
 66
   257
 43
1.0
 76
     1
 77
     6
 78
     2
 67
     7
 79
     3
170
     0
171
     0
290
     0
174
     0
 93
        1
 44
0.0
173
     0
291
     0
 45
0.0
1001
ACAD
1000
AcDbSavedByObjectVersion
1070
     0
  0
VISUALSTYLE
  5
3F9
102
{ACAD_XDICTIONARY
360
12D1C
102
}
102
{ACAD_REACTORS
330
3F2
102
}
330
3F2
100
AcDbVisualStyle
  2

 70
     5
 71
     0
 72
     2
 73
     0
 90
        0
 40
-0.6
 41
-30.0
 62
     5
 63
     7
 74
     1
 91
        4
 64
     7
 65
   257
 75
     1
175
     1
 42
1.0
 92
        0
 66
   257
 43
1.0
 76
     1
 77
     6
 78
     2
 67
     7
 79
     5
170
     0
171
     0
290
     0
174
     0
 93
        1
 44
0.0
173
     0
291
     0
 45
0.0
1001
ACAD
1000
AcDbSavedByObjectVersion
1070
     0
  0
VISUALSTYLE
  5
3F7
102
{ACAD_XDICTIONARY
360
12D18
102
}
102
{ACAD_REACTORS
330
3F2
102
}
330
3F2
100
AcDbVisualStyle
  2

 70
     7
 71
     1
 72
     0
 73
     1
 90
        0
 40
-0.6
 41
-30.0
 62
     5
 63
     7
 74
     0
 91
        4
 64
     7
 65
   257
 75
     1
175
     1
 42
1.0
 92
        8
 66
     7
 43
1.0
 76
     1
 77
     6
 78
     2
 67
     7
 79
     5
170
     0
171
     0
290
     0
174
     0
 93
        1
 44
0.0
173
     0
291
     1
 45
0.0
1001
ACAD
1000
AcDbSavedByObjectVersion
1070
     0
  0
VISUALSTYLE
  5
3FE
102
{ACAD_XDICTIONARY
360
12D26
102
}
102
{ACAD_REACTORS
330
3F2
102
}
330
3F2
100
AcDbVisualStyle
  2

 70
    12
 71
     2
 72
     2
 73
     0
 90
        0
 40
-0.6
 41
-30.0
 62
     5
 63
     7
 74
     1
 91
        4
 64
     7
 65
   257
 75
     1
175
     1
 42
1.0
 92
        8
 66
     7
 43
1.0
 76
     1
 77
     6
 78
     2
 67
     7
 79
     5
170
     0
171
     0
290
     0
174
     0
 93
        1
 44
50.0
173
     0
291
     1
 45
0.0
1001
ACAD
1000
AcDbSavedByObjectVersion
1070
     0
  0
VISUALSTYLE
  5
402
102
{ACAD_XDICTIONARY
360
12D2E
102
}
102
{ACAD_REACTORS
330
3F2
102
}
330
3F2
100
AcDbVisualStyle
  2

 70
    16
 71
     2
 72
     2
 73
     3
 90
        0
 40
-0.6
 41
-30.0
 62
     5
 63
     8
 74
     1
 91
        4
 64
     7
 65
   257
 75
     1
175
     1
 42
1.0
 92
        8
 66
     8
 43
1.0
 76
     1
 77
     6
 78
     2
 67
     7
 79
     5
170
     0
171
     0
290
     0
174
     0
 93
        1
 44
0.0
173
     0
291
     1
 45
0.0
1001
ACAD
1000
AcDbSavedByObjectVersion
1070
     0
  0
VISUALSTYLE
  5
3FB
102
{ACAD_XDICTIONARY
360
12D20
102
}
102
{ACAD_REACTORS
330
3F2
102
}
330
3F2
100
AcDbVisualStyle
  2

 70
     9
 71
     3
 72
     2
 73
     0
 90
        0
 40
-0.6
 41
-30.0
 62
     5
 63
     7
 74
     2
 91
        2
 64
     7
 65
   257
 75
     1
175
     1
 42
40.0
 92
        8
 66
     7
 43
1.0
 76
     1
 77
     6
 78
     2
 67
     7
 79
     3
170
     0
171
     0
290
     0
174
     0
 93
        1
 44
0.0
173
     0
291
     0
 45
0.0
1001
ACAD
1000
AcDbSavedByObjectVersion
1070
     0
  0
VISUALSTYLE
  5
3FD
102
{ACAD_XDICTIONARY
360
12D24
102
}
102
{ACAD_REACTORS
330
3F2
102
}
330
3F2
100
AcDbVisualStyle
  2

 70
    11
 71
     2
 72
     2
 73
     0
 90
        0
 40
-0.6
 41
-30.0
 62
     5
 63
     7
 74
     1
 91
        4
 64
     7
 65
   257
 75
     1
175
     1
 42
1.0
 92
        8
 66
     7
 43
1.0
 76
     1
 77
     6
 78
     2
 67
     7
 79
     5
170
     0
171
     0
290
     0
174
     0
 93
        1
 44
-50.0
173
     0
291
     1
 45
0.0
1001
ACAD
1000
AcDbSavedByObjectVersion
1070
     0
  0
VISUALSTYLE
  5
2BFD
102
{ACAD_XDICTIONARY
360
12D34
102
}
102
{ACAD_REACTORS
330
3F2
102
}
330
3F2
100
AcDbVisualStyle
  2

 70
    22
 71
     2
 72
     2
 73
     0
 90
        0
 40
-0.6
 41
-30.0
 62
     5
 63
     7
 74
     1
 91
        4
 64
     7
 65
   257
 75
     1
175
     1
 42
1.0
 92
        8
 66
     7
 43
1.0
 76
     1
 77
     6
 78
     2
 67
     7
 79
     5
170
     0
171
     0
290
     0
174
     0
 93
        1
 44
0.0
173
     0
291
     1
 45
0.0
1001
ACAD
1000
AcDbSavedByObjectVersion
1070
     0
  0
VISUALSTYLE
  5
401
102
{ACAD_XDICTIONARY
360
12D2C
102
}
102
{ACAD_REACTORS
330
3F2
102
}
330
3F2
100
AcDbVisualStyle
  2

 70
    15
 71
     2
 72
     2
 73
     0
 90
        0
 40
-0.6
 41
-30.0
 62
     5
 63
     7
 74
     1
 91
        4
 64
     7
 65
   257
 75
     1
175
     1
 42
1.0
 92
        8
 66
     7
 43
1.0
 76
     1
 77
     6
 78
     2
 67
     7
 79
     5
170
     0
171
     0
290
     0
174
     0
 93
        1
 44
0.0
173
     0
291
     1
 45
0.0
1001
ACAD
1000
AcDbSavedByObjectVersion
1070
     0
  0
VISUALSTYLE
  5
3F3
102
{ACAD_XDICTIONARY
360
12D10
102
}
102
{ACAD_REACTORS
330
3F2
102
}
330
3F2
100
AcDbVisualStyle
  2

 70
     0
 71
     2
 72
     1
 73
     1
 90
        2
 40
-0.6
 41
30.0
 62
     5
 63
     7
 74
     0
 91
        4
 64
     7
 65
   257
 75
     1
175
     1
 42
1.0
 92
        8
 66
     7
 43
1.0
 76
     1
 77
     6
 78
     2
 67
     7
 79
     5
170
     0
171
     0
290
     0
174
     0
 93
       13
 44
0.0
173
     0
291
     1
 45
0.0
1001
ACAD
1000
AcDbSavedByObjectVersion
1070
     0
  0
VISUALSTYLE
  5
3F4
102
{ACAD_XDICTIONARY
360
12D12
102
}
102
{ACAD_REACTORS
330
3F2
102
}
330
3F2
100
AcDbVisualStyle
  2

 70
     1
 71
     2
 72
     1
 73
     1
 90
        2
 40
-0.6
 41
30.0
 62
     5
 63
     7
 74
     1
 91
        4
 64
     7
 65
   257
 75
     1
175
     1
 42
1.0
 92
        0
 66
   257
 43
1.0
 76
     1
 77
     6
 78
     2
 67
     7
 79
     5
170
     0
171
     0
290
     0
174
     0
 93
       13
 44
0.0
173
     0
291
     1
 45
0.0
1001
ACAD
1000
AcDbSavedByObjectVersion
1070
     0
  0
VISUALSTYLE
  5
3F5
102
{ACAD_XDICTIONARY
360
12D14
102
}
102
{ACAD_REACTORS
330
3F2
102
}
330
3F2
100
AcDbVisualStyle
  2

 70
     2
 71
     2
 72
     2
 73
     1
 90
        2
 40
-0.6
 41
30.0
 62
     5
 63
     7
 74
     0
 91
        4
 64
     7
 65
   257
 75
     1
175
     1
 42
1.0
 92
        0
 66
     7
 43
1.0
 76
     1
 77
     6
 78
     2
 67
     7
 79
     5
170
     0
171
     0
290
     0
174
     0
 93
       13
 44
0.0
173
     0
291
     1
 45
0.0
1001
ACAD
1000
AcDbSavedByObjectVersion
1070
     0
  0
VISUALSTYLE
  5
3F6
102
{ACAD_XDICTIONARY
360
12D16
102
}
102
{ACAD_REACTORS
330
3F2
102
}
330
3F2
100
AcDbVisualStyle
  2

 70
     3
 71
     2
 72
     2
 73
     1
 90
        2
 40
-0.6
 41
30.0
 62
     5
 63
     7
 74
     1
 91
        4
 64
     7
 65
   257
 75
     1
175
     1
 42
1.0
 92
        0
 66
   257
 43
1.0
 76
     1
 77
     6
 78
     2
 67
     7
 79
     5
170
     0
171
     0
290
     0
174
     0
 93
       13
 44
0.0
173
     0
291
     1
 45
0.0
1001
ACAD
1000
AcDbSavedByObjectVersion
1070
     0
  0
VISUALSTYLE
  5
2BFB
102
{ACAD_XDICTIONARY
360
12D30
102
}
102
{ACAD_REACTORS
330
3F2
102
}
330
3F2
100
AcDbVisualStyle
  2

 70
    20
 71
     2
 72
     2
 73
     0
 90
        0
 40
-0.6
 41
-30.0
 62
     5
 63
     7
 74
     1
 91
        4
 64
     7
 65
   257
 75
     1
175
     1
 42
1.0
 92
       10
 66
     7
 43
1.0
 76
     1
 77
     6
 78
     2
 67
     7
 79
     5
170
     0
171
     0
290
     0
174
     0
 93
        1
 44
0.0
173
     0
291
     1
 45
0.0
1001
ACAD
1000
AcDbSavedByObjectVersion
1070
     0
  0
VISUALSTYLE
  5
400
102
{ACAD_XDICTIONARY
360
12D2A
102
}
102
{ACAD_REACTORS
330
3F2
102
}
330
3F2
100
AcDbVisualStyle
  2

 70
    14
 71
     2
 72
     2
 73
     0
 90
        0
 40
-0.6
 41
-30.0
 62
     5
 63
     7
 74
     1
 91
        4
 64
     7
 65
   257
 75
     7
175
     7
 42
1.0
 92
        8
 66
     7
 43
1.0
 76
     1
 77
     6
 78
     2
 67
     7
 79
     5
170
     0
171
     0
290
     0
174
     0
 93
        1
 44
0.0
173
     0
291
     1
 45
0.0
1001
ACAD
1000
AcDbSavedByObjectVersion
1070
     0
  0
VISUALSTYLE
  5
2BFC
102
{ACAD_XDICTIONARY
360
12D32
102
}
102
{ACAD_REACTORS
330
3F2
102
}
330
3F2
100
AcDbVisualStyle
  2

 70
    21
 71
     2
 72
     2
 73
     0
 90
        0
 40
-0.6
 41
-30.0
 62
     5
 63
     7
 74
     1
 91
        4
 64
     7
 65
   257
 75
     1
175
     1
 42
1.0
 92
        9
 66
     7
 43
1.0
 76
     1
 77
     6
 78
     2
 67
     7
 79
     5
170
     0
171
     0
290
     0
174
     0
 93
        1
 44
0.0
173
     0
291
     1
 45
0.0
1001
ACAD
1000
AcDbSavedByObjectVersion
1070
     0
  0
VISUALSTYLE
  5
3FC
102
{ACAD_XDICTIONARY
360
12D22
102
}
102
{ACAD_REACTORS
330
3F2
102
}
330
3F2
100
AcDbVisualStyle
  2

 70
     8
 71
     2
 72
     2
 73
     0
 90
        0
 40
-0.6
 41
-30.0
 62
     5
 63
     7
 74
     1
 91
        0
 64
     7
 65
   257
 75
     1
175
     1
 42
1.0
 92
        8
 66
     8
 43
1.0
 76
     1
 77
     6
 78
     2
 67
     7
 79
     5
170
     0
171
     0
290
     0
174
     0
 93
       13
 44
0.0
173
     0
291
     0
 45
0.0
1001
ACAD
1000
AcDbSavedByObjectVersion
1070
     0
  0
VISUALSTYLE
  5
3FF
102
{ACAD_XDICTIONARY
360
12D28
102
}
102
{ACAD_REACTORS
330
3F2
102
}
330
3F2
100
AcDbVisualStyle
  2

 70
    13
 71
     2
 72
     2
 73
     0
 90
        0
 40
-0.6
 41
-30.0
 62
     5
 63
     7
 74
     1
 91
        4
 64
     7
 65
   257
 75
     1
175
     1
 42
1.0
 92
       12
 66
     7
 43
1.0
 76
     1
 77
     6
 78
     2
 67
     7
 79
     5
170
     0
171
     0
290
     0
174
     0
 93
        1
 44
0.0
173
     0
291
     1
 45
0.0
1001
ACAD
1000
AcDbSavedByObjectVersion
1070
     0
  0
DICTIONARYVAR
  5
449
102
{ACAD_REACTORS
330
357
102
}
330
357
100
DictionaryVariables
280
     0
  1
1:1
  0
DICTIONARYVAR
  5
447
102
{ACAD_REACTORS
330
357
102
}
330
357
100
DictionaryVariables
280
     0
  1
STANDARD
  0
DICTIONARYVAR
  5
38E
102
{ACAD_REACTORS
330
357
102
}
330
357
100
DictionaryVariables
280
     0
  1
STANDARD
  0
DICTIONARYVAR
  5
359
102
{ACAD_REACTORS
330
357
102
}
330
357
100
DictionaryVariables
280
     0
  1
2
  0
DICTIONARYVAR
  5
358
102
{ACAD_REACTORS
330
357
102
}
330
357
100
DictionaryVariables
280
     0
  1
1
  0
DICTIONARYVAR
  5
F7B
102
{ACAD_REACTORS
330
357
102
}
330
357
100
DictionaryVariables
280
     0
  1
0
  0
DICTIONARYVAR
  5
44A
102
{ACAD_REACTORS
330
357
102
}
330
357
100
DictionaryVariables
280
     0
  1
0
  0
DICTIONARYVAR
  5
448
102
{ACAD_REACTORS
330
357
102
}
330
357
100
DictionaryVariables
280
     0
  1
0
  0
DICTIONARYVAR
  5
1051
102
{ACAD_REACTORS
330
357
102
}
330
357
100
DictionaryVariables
280
     0
  1

  0
DICTIONARYVAR
  5
F7A
102
{ACAD_REACTORS
330
357
102
}
330
357
100
DictionaryVariables
280
     0
  1
127
  0
DICTIONARYVAR
  5
12D08
102
{ACAD_REACTORS
330
357
102
}
330
357
100
DictionaryVariables
280
     0
  1
2
  0
XRECORD
  5
12C2B
102
{ACAD_REACTORS
330
12C2A
102
}
330
12C2A
100
AcDbXrecord
280
     1
  0
XRECORD
  5
4506
102
{ACAD_XDICTIONARY
360
4507
102
}
102
{ACAD_REACTORS
330
6E9
102
}
330
6E9
100
AcDbXrecord
280
     1
 91
      535
301

290
     0
302
0
330
43DB
 90
        8
 62
     5
370
    -3
331
14
  1
색상_5
330
43DA
 90
        8
 62
     3
370
    -3
331
14
  1
색상_3
330
43D9
 90
        8
 62
     4
370
    -3
331
14
  1
색상_4
330
43D8
 90
        8
 62
     2
370
    -3
331
14
  1
색상_2
330
43D7
 90
        8
 62
     1
370
    -3
331
14
  1
색상_1
330
43D6
 90
        8
 62
     6
370
    -3
331
14
  1
색상_6
330
2A0C
 90
        0
 62
     7
370
    -3
331
14
  1
색상_7
330
22D4
 90
        8
 62
     6
370
    50
331
14
  1
색상_6
330
1A8C
 90
        8
 62
     4
370
    50
331
14
  1
색상_4
330
1A88
 90
        8
 62
     1
370
    35
331
697
  1
색상_1
330
49B
 90
        8
 62
     9
370
    18
331
14
  1
색상_9
330
376
 90
        8
 62
     7
370
    -3
331
14
  1
색상_7
330
375
 90
        8
 62
     1
370
    25
331
14
  1
색상_1
330
2E
 90
        8
 62
     5
370
    -3
331
14
  1
색상_5
330
2B
 90
        8
 62
     2
370
    25
331
6A7
  1
색상_2
330
2A
 90
        8
 62
     2
370
    25
331
6A7
  1
색상_2
330
29
 90
        8
 62
     1
370
    35
331
697
  1
색상_1
330
27
 90
        8
 62
     7
370
    25
331
14
  1
색상_7
330
25
 90
        8
 62
     7
370
    25
331
14
  1
색상_7
330
23
 90
        8
 62
     4
370
    50
331
14
  1
색상_4
330
F
 90
        8
 62
     7
370
    -3
331
14
  1
색상_7
  0
DICTIONARY
  5
12D0D
330
33B
100
AcDbDictionary
280
     1
281
     1
  3
ACAD_XREC_ROUNDTRIP
360
12D0E
  0
DICTIONARY
  5
5551
330
303
100
AcDbDictionary
280
     1
281
     1
  3
ACAD_XREC_ROUNDTRIP
360
12D0C
  3
ADSK_XREC_LAYOUTTHUMBNAIL
360
5552
  0
DICTIONARY
  5
4606
330
3F0
100
AcDbDictionary
280
     1
281
     1
  3
ACAD_XREC_ROUNDTRIP
360
4607
  0
DICTIONARY
  5
4604
330
3EF
100
AcDbDictionary
280
     1
281
     1
  3
ACAD_XREC_ROUNDTRIP
360
4605
  0
DICTIONARY
  5
4608
330
3F1
100
AcDbDictionary
280
     1
281
     1
  3
ACAD_XREC_ROUNDTRIP
360
4609
  0
DICTIONARY
  5
444
330
389
100
AcDbDictionary
280
     1
281
     1
  3
ACAD_ROUNDTRIP_2008_TABLESTYLE_CELLSTYLEMAP
360
12D09
  3
ACAD_XREC_ROUNDTRIP
360
12D0F
  0
DICTIONARY
  5
12D1A
330
3F8
100
AcDbDictionary
280
     1
281
     1
  3
ACAD_XREC_ROUNDTRIP
360
12D1B
  0
DICTIONARY
  5
12D1E
330
3FA
100
AcDbDictionary
280
     1
281
     1
  3
ACAD_XREC_ROUNDTRIP
360
12D1F
  0
DICTIONARY
  5
12D1C
330
3F9
100
AcDbDictionary
280
     1
281
     1
  3
ACAD_XREC_ROUNDTRIP
360
12D1D
  0
DICTIONARY
  5
12D18
330
3F7
100
AcDbDictionary
280
     1
281
     1
  3
ACAD_XREC_ROUNDTRIP
360
12D19
  0
DICTIONARY
  5
12D26
330
3FE
100
AcDbDictionary
280
     1
281
     1
  3
ACAD_XREC_ROUNDTRIP
360
12D27
  0
DICTIONARY
  5
12D2E
330
402
100
AcDbDictionary
280
     1
281
     1
  3
ACAD_XREC_ROUNDTRIP
360
12D2F
  0
DICTIONARY
  5
12D20
330
3FB
100
AcDbDictionary
280
     1
281
     1
  3
ACAD_XREC_ROUNDTRIP
360
12D21
  0
DICTIONARY
  5
12D24
330
3FD
100
AcDbDictionary
280
     1
281
     1
  3
ACAD_XREC_ROUNDTRIP
360
12D25
  0
DICTIONARY
  5
12D34
330
2BFD
100
AcDbDictionary
280
     1
281
     1
  3
ACAD_XREC_ROUNDTRIP
360
12D35
  0
DICTIONARY
  5
12D2C
330
401
100
AcDbDictionary
280
     1
281
     1
  3
ACAD_XREC_ROUNDTRIP
360
12D2D
  0
DICTIONARY
  5
12D10
330
3F3
100
AcDbDictionary
280
     1
281
     1
  3
ACAD_XREC_ROUNDTRIP
360
12D11
  0
DICTIONARY
  5
12D12
330
3F4
100
AcDbDictionary
280
     1
281
     1
  3
ACAD_XREC_ROUNDTRIP
360
12D13
  0
DICTIONARY
  5
12D14
330
3F5
100
AcDbDictionary
280
     1
281
     1
  3
ACAD_XREC_ROUNDTRIP
360
12D15
  0
DICTIONARY
  5
12D16
330
3F6
100
AcDbDictionary
280
     1
281
     1
  3
ACAD_XREC_ROUNDTRIP
360
12D17
  0
DICTIONARY
  5
12D30
330
2BFB
100
AcDbDictionary
280
     1
281
     1
  3
ACAD_XREC_ROUNDTRIP
360
12D31
  0
DICTIONARY
  5
12D2A
330
400
100
AcDbDictionary
280
     1
281
     1
  3
ACAD_XREC_ROUNDTRIP
360
12D2B
  0
DICTIONARY
  5
12D32
330
2BFC
100
AcDbDictionary
280
     1
281
     1
  3
ACAD_XREC_ROUNDTRIP
360
12D33
  0
DICTIONARY
  5
12D22
330
3FC
100
AcDbDictionary
280
     1
281
     1
  3
ACAD_XREC_ROUNDTRIP
360
12D23
  0
DICTIONARY
  5
12D28
330
3FF
100
AcDbDictionary
280
     1
281
     1
  3
ACAD_XREC_ROUNDTRIP
360
12D29
  0
DICTIONARY
  5
4507
330
4506
100
AcDbDictionary
280
     1
281
     1
  3
AcadLayerStateAnnoScale
360
4508
  0
XRECORD
  5
12D0E
102
{ACAD_REACTORS
330
12D0D
102
}
330
12D0D
100
AcDbXrecord
280
     1
102
SHADEPLOT
 70
     0
102
SHADEPLOTRESLEVEL
 70
     2
102
SHADEPLOTCUSTOMDPI
 70
   300
  0
XRECORD
  5
12D0C
102
{ACAD_REACTORS
330
5551
102
}
330
5551
100
AcDbXrecord
280
     1
102
SHADEPLOT
 70
     1
102
SHADEPLOTRESLEVEL
 70
     2
102
SHADEPLOTCUSTOMDPI
 70
   300
  0
XRECORD
  5
5552
102
{ACAD_REACTORS
330
5551
102
}
330
5551
100
AcDbXrecord
280
     1
310
28000000000100007E0000000100080000000000007E0000000000000000000000010000000000000000000000000000FFFFFF000000000000000000000000000000000000000000000000000000000000000000330000006600000099000000CC000000FF00000000330000333300006633000099330000CC330000FF3300
310
0000660000336600006666000099660000CC660000FF66000000990000339900006699000099990000CC990000FF99000000CC000033CC000066CC000099CC0000CCCC0000FFCC000000FF000033FF000066FF000099FF0000CCFF0000FFFF000000003300330033006600330099003300CC003300FF003300003333003333
310
33006633330099333300CC333300FF33330000663300336633006666330099663300CC663300FF66330000993300339933006699330099993300CC993300FF99330000CC330033CC330066CC330099CC3300CCCC3300FFCC330000FF330033FF330066FF330099FF3300CCFF3300FFFF330000006600330066006600660099
310
006600CC006600FF00660000336600333366006633660099336600CC336600FF33660000666600336666006666660099666600CC666600FF66660000996600339966006699660099996600CC996600FF99660000CC660033CC660066CC660099CC6600CCCC6600FFCC660000FF660033FF660066FF660099FF6600CCFF6600
310
FFFF660000009900330099006600990099009900CC009900FF00990000339900333399006633990099339900CC339900FF33990000669900336699006666990099669900CC669900FF66990000999900339999006699990099999900CC999900FF99990000CC990033CC990066CC990099CC9900CCCC9900FFCC990000FF99
310
0033FF990066FF990099FF9900CCFF9900FFFF99000000CC003300CC006600CC009900CC00CC00CC00FF00CC000033CC003333CC006633CC009933CC00CC33CC00FF33CC000066CC003366CC006666CC009966CC00CC66CC00FF66CC000099CC003399CC006699CC009999CC00CC99CC00FF99CC0000CCCC0033CCCC0066CC
310
CC0099CCCC00CCCCCC00FFCCCC0000FFCC0033FFCC0066FFCC0099FFCC00CCFFCC00FFFFCC000000FF003300FF006600FF009900FF00CC00FF00FF00FF000033FF003333FF006633FF009933FF00CC33FF00FF33FF000066FF003366FF006666FF009966FF00CC66FF00FF66FF000099FF003399FF006699FF009999FF00CC
310
99FF00FF99FF0000CCFF0033CCFF0066CCFF0099CCFF00CCCCFF00FFCCFF0000FFFF0033FFFF0066FFFF0099FFFF00CCFFFF00FFFFFF00000000000D0D0D001A1A1A00282828003535350043434300505050005D5D5D006B6B6B00787878008686860093939300A1A1A100AEAEAE00BBBBBB00C9C9C900D6D6D600E4E4E400
310
F1F1F100FFFFFF0000000000000000000000000000000000000000000000000000000000000000000000000000000000E2E2E2E2E2E2E2E2E2E2E2E2E2E2E2E2E2E2E2E2E2E2E2E2E2E2E2E2E2E2E2E2E2E2E2E2E2E2E2E2E2E2E2E2E2E2E2E2E2E2E2E2E2E2E2E2E2E2E2E2E2E2E2E2E2E2E2E2E2E2E2E2E2E2E2E2E2E2E2
310
E2E2E2E2E2E2E2E2E2E2E2E2E2E2E2E2E2E2E2E2E2E2E2E2E2E2E2E2E2E2E2E2E2E2E2E2E2E2E2E2E2E2E2E2E2E2E2E2E2E2E2E2E2E2E2E2E2E2E2E2E2E2E2E2E2E2E2E2E2E2E2E2E2E2E2E2E2E2E2E2E2E2E2E2E2E2E2E2E2E2E2E2E2E2E2E2E2E2E2E2E2E2E2E2E2E2E2E2E2E2E2E2E2E2E2E2E2E2E2E2E2E2E2E2E2E2E2
310
E2E2E2E2E2E2E2E2E2E2E2E2E2E2E2E2E2E2E2E2E2E2E2E2E2E2E2E2E2E2E2E2E2E2E2E2E2E2E2E2E2E2E2E2E2E2E2E2E2E2E2E2E2E2E2E2E2E2E2E2E2E2E2E2E2E2E2E2E2E2E2E2E2E2E2E2E2E2E2E2E2E2E2E2E2E2E2E2E2E2E2E2E2E2E2E2E2E2E2E2E2E2E2E2E2E2E2E2E2E2E2E2E2E2E2E2E2E2E2E2E2E2E2E2E2E2E2
310
E2E2E2E2E2E2E2E2E2E2E2E2E2E2E2E2E2E2E2E2E2E2E2E2E2E2E2E2E2E2E2E2E2E2E2E2E2E2E2E2E2E2E2E2E2E2E2E2E2E2E2E2E2E2E2E2E2E2E2E2E2E2E2E2E2E2E2E2E2E2E2E2E2E2E2E2E2E2E2E2E2E2E2E2E2E2E2E2E2E2E2E2E2E2E2E2E2E2E2E2E2E2E2E2E2E2E2E2E2E2E2E2E2E2E2E2E2E2E2E2E2E2E2E2E2E2E2
310
E2E2E2E2E2E2E2E2E2E2E2E2E2E2E2E2E2E2E2E2E2E2E2E2E2E2E2E2E2E2E2E2E2E2E2E2E2E2E2E2E2E2E2E2E2E2E2E2E2E2E2E2E2E2E2E2E2E2E2E2E2E2E2E2E2E2E2E2E2E2E2E2E2E2E2E2E2E2E2E2E2E2E2E2E2E2E2E2E2E2E2E2E2E2E2E2E2E2E2E2E2E2E2E2E2E2E2E2E2E2E2E2E2E2E2E2E2E2E2E2E2E2E2E2E2E2E2
310
E2E2E2E2E2E2E2E2E2E2E2E2E2E2E2E2E2E2E2E2E2E2E2E2E2E2E2E2E2E2E2E2E2E2E2E2E2E2E2E2E2E2E2E2E2E2E2E2E2E2E2E2E2E2E2E2E2E2E2E2E2E2E2E2E2E2E2E2E2E2E2E2E2E2E2E2E2E2E2E2E2E2E2E2E2E2E2E2E2E2E2E2E2E2E2E2E2E2E2E2E2E2E2E2E2E2E2E2E2E2E2E2E2E2E2E2E2E2E2E2E2E2E2E2E2E2E2
310
E2E2E2E2E2E2E2E2E2E2E2E2E2E2E2E2E2E2E2E2E2E2E2E2E2E2E2E2E2E2E2E2E2E2E2E2E2E2E2E2E2E2E2E2E2E2E2E2E2E2E2E2E2E2E2E2E2E2E2E2E2E2E2E2E2E2E2E2E2E2E2E2E2E2E2E2E2E2E2E2E2E2E2E2E2E2E2E2E2E2E2E2E2E2E2E2E2E2E2E2E2E2E2E2E2E2E2E2E2E2E2E2E2E2E2E2E2E2E2E2E2E2E2E2E2E2E2
310
E2E2E2E2E2E2E2E2E2E2E2E2E2E2E2E2E2E2E2E2E2E2E2E2E2E2E2E2E2E2E2E2E2E2E2E2E2E2E2E2E2E2E2E2E2E2E2E2E2E2E2E2E2E2E2E2E2E2E2E2E2E2E2E2E2E2E2E2E2E2E2E2E2E2E2E2E2E2E2E2E2E2E2E2E2E2E2E2E2E2E2E2E2E2E2E2E2E2E2E2E2E2E2E2E2E2E2E2E2E2E2E2E2E2E2E2E2E2E2E2E2E2E2E2E2E2E2
310
E2E2E2E2E2E2E2E2E2E2E2E2E2E2E2E2E2E2E2E2E2E2E2E2E2E2E2E2E2E2E2E2E2E2E2E2E2E2E2E2E2E2E2E2E2E2E2E2E2E2E2E2E2E2E2E2E2E2E2E2E2E2E2E2E2E2E2E2E2E2E2E2E2E2E2E2E2E2E2E2E2E2E2E2E2E2E2E2E2E2E2E2E2E2E2E2E2E2E2E2E2E2E2E2E2E2E2E2E2E2E2E2E2E2E2E2E2E2E2E2E2E2E2E2E2E2E2
310
E2E2E2E2E2E2E2E2E2E2E2E2E2E2E2E2E2E2E2E2E2E2E2E2E2E2E2E2E2E2E2E2E2E2E2E2E2E2E2E2E2E2E2E2E2E2E2E2E2E2E2E2E2E2E2E2E2E2E2E2E2E2E2E2F0F0F0F0F0F0F0F0F0F0F0F0F0F0F0F0F0F0F0F0F0F0F0F0F0F0F0F0F0F0F0F0F0F0F0E2E2E2E2E2E2E2E2E2E2E2E2E2E2E2E2E2E2E2E2E2E2E2E2E2E2E2E2
310
E2E2E2E2E2E2E2E2E2E2E2E2E2E2E2E2E2E2E2E2E2E2E2E2E2E2E2E2E2E2E2E2E2E2E2E2E2E2E2E2E2E2E2E2E2E2E2E2E2E2E2E2E2E2E2E2E2E2E2E2E2E2E2E2E2E2E2E2E2E2E2E2E2E2E2E2E2E2E2E2E2E2E2E2E2E2E2E2E2E2E2E2E2E2E2E2E2E2E2E2E2E2E2E2E2E2E2E2E2E2E2E2E2E2E2E2E2E2E2E2E2E2E2E2E2E2E2
310
E2E2E2E2E2E2E2E2E2E2E2E2E2E2E2E2E2E2E2E2E2E2E2E2E2E2E2E2E2E2E2E2E2E2E2E2E2E2E2E2E2E2E2E2E2E2E2E2E2E2E2E2E2E2E2E2E2E2E2E2E2E2E2E2E2E2E2E2E2E2E2E2E2E2E2E2E2E2E2E2E2E2E2E2E2E2E2E2E2E2E2E2E2E2E2E2E2E2E2E2F0E2E2E2E2E2E2E2E2E2E2E2E2E2E2E2E2E2E2E2E2E2E2E2E2E2E2
310
E2E2E2E2E2E2E2E2E2E2E2E2E2E2E2E2E2E2E2E2E2E2E2E2E2E2E2E2E2E2E2E2E2E2E2E2E2E2E2E2E2E2E2E2E2E2E2E2E2E2E2E2E2E2E2E2E2E2E2E2E2E2E2E2E2E2E2E2E2E2E2E2E2E2E2E2E2E2E2E2E2E2E2E2E2E2E2E2E2E2E2E2E2E2E2E2E2E2E2E2E2E2E2E2E2E2E2E2E2E2E2E2E2E2E2E2E2E2E2E2E2E2E2E2E2E2E2
310
E2E2E2E2E2E2E2E2E2E2E2E2E2E2E2E2E2E2E2E2E2E2E2E2E2E2E2E2E2E2E2E2E2E2E2E2E2E2E2E2E2E2E2E2E2E2E2E2E2E2E2E2E2E2E2E2E2E2E2E2E2E2E2E2E2E2E2E2E2E2E2E2E2E2E2E2E2E2E2E2E2E2E2E2E2E2E2E2E2E2E2E2E2E2E2E2E2E2E2E2E2E2F0E2E2E2E2E2E2E2E2E2E2E2E2E2E2E2E2E2E2E2E2E2E2E2E2
310
E2E2E2E2E2E2E2E2E2E2E2E2E2E2E2E2E2E2E2E2E2E2E2E2E2E2E2E2E2E2E2E2E2E2E2E2E2E2E2E2E2E2E2E2E2E2E2E2E2E2E2E2E2E2E2E2E2E2E2E2E2E2E2E2E2E2E2E2E2E2E2E2E2E2E2E2E2E2E2E2E2E2E2E2E2E2E2E2E2E2E2E2E2E2E2E2E2E2E2E2E2E2E2E2E2E2E2E2E2E2E2E2E2E2E2E2E2E2E2E2E2E2E2E2E2E2E2
310
E2E2E2E2E2E2E2E2E2E2E2E2E2E2E2E2E2E2E2E2E2E2E2E2E2E2E2E2E2E2E2E2E2E2E2E2E2E2E2E2E2E2E2E2E2E2E2E2E2E2E2E2E2E2E2E2E2E2E2E2E2E2E2E2E2E2E2E2E2E2E2E2E2E2E2E2E2E2E2E2E2E2E2E2E2E2E2E2E2E2E2E2E2E2E2E2E2E2E2E2E2E2E2E2F0E2E2E2E2E2E2E2E2E2E2E2E2E2E2E2E2E2E2E2E2E2E2
310
E2E2E2E2E2E2E2E2E2E2E2E2E2E2E2E2E2E2E2E2E2E2E2E2E2E2E2E2E2E2E2E2E2E2E2E2E2E2E2E2E2E2E2E2E2E2E2E2E2E2E2E2E2E2E2E2E2E2E2E2E2E2E2E2E2E2E2E2E2E2E2E2E2E2E2E2E2E2E2E2E2E2E2E2E2E2E2E2E2E2E2E2E2E2E2E2E2E2E2E2E2E2E2E2E2E2E2E2E2E2E2E2E2E2E2E2E2E2E2E2E2E2E2E2E2E2E2
310
E2E2E2E2E2E2E2E2E2E2E2E2E2E2E2E2E2E2E2E2E2E2E2E2E2E2E2E2E2E2E2E2E2E2E2E2E2E2E2E2E2E2E2E2E2E2E2E2E2E2E2E2E2E2E2E2E2E2E2E2E2E2E2E2E2E2E2E2E2E2E2E2E2E2E2E2E2E2E2E2E2E2E2E2E2E2E2E2E2E2E2E2E2E2E2E2E2E2E2E2E2E2E2E2E2E2F0E2E2E2E2E2E2E2E2E2E2E2E2E2E2E2E2E2E2E2E2
310
E2E2E2E2E2E2E2E2E2E2E2E2E2E2E2E2E2E2E2E2E2E2E2E2E2E2E2E2E2E2E2E2E2E2E2E2E2E2E2E2E2E2E2E2E2E2E2E2E2E2E2E2E2E2E2E2E2E2E2E2E2E2E2E2E2E2E2E2E2E2E2E2E2E2E2E2E2E2E2E2E2E2E2E2E2E2E2E2E2E2E2E2E2E2E2E2E2E2E2E2E2E2E2E2E2E2E2E2E2E2E2E2E2E2E2E2E2E2E2E2E2E2E2E2E2E2E2
310
E2E2E2E2E2E2E2E2E2E2E2E2E2E2E2E2E2E2E2E2E2E2E2E2E2E2E2E2E2E2E2E2E2E2E2E2E2E2E2E2E2E2E2E2E2E2E2E2E20F0F0F0F0F0F0F0F0F0F0F0F0F0F0F0F0F0F0F0F0F0F0F0F0F0F0F0F0F0F0F0F0F0FE2E2E2E2E2E2E2E2E2E2E2E2E2E2E2E2E2E2E2E2E2E2E2E2E2F0E2E2E2E2E2E2E2E2E2E2E2E2E2E2E2E2E2E2
310
E2E2E2E2E2E2E2E2E2E2E2E2E2E2E2E2E2E2E2E2E2E2E2E2E2E2E2E2E2E2E2E2E2E2E2E2E2E2E2E2E2E2E2E2E2E2E2E2E2E2E2E2E2E2E2E2E2E2E2E2E2E2E2E2E2E2E2E2E2E2E2E2E2E2E2E2E2E2E2E2E2E2E2E2E2E2E2E2E2E2E2E2E2E2E2E2E2E2E2E2E2E2E2E2E2E2E2E2E2E2E2E2E2E2E2E2E2E2E2E2E2E2E2E2E2E2E2
310
E2E2E2E2E2E2E2E2E2E2E2E2E2E2E2E2E2E2E2E2E2E2E2E2E2E2E2E2E2E2E2E2E2E2E2E2E2E2E2E2E2E2E2E2E2E2E2E2E2E2E20F0F0F0F0F0F0F0F0F0F0F0F0F0F0F0F0F0F0F0F0F0F0F0F0F0F0F0F0F0F0F0F0F0FE2E2E2E2E2E2E2E2E2E2E2E2E2E2E2E2E2E2E2E2E2E2E2E2E2F0E2E2E2E2E2E2E2E2E2E2E2E2E2E2E2E2
310
E2E2E2E2E2E2E2E2E2E2E2E2E2E2E2E2E2E2E2E2E2E2E2E2E2E2E2E2E2E2E2E2E2E2E2E2E2E2E2E2E2E2E2E2E2E2E2E2E2E2E2E2E2E2E2E2E2E2E2E2E2E2E2E2E2E2E2E2E2E2E2E2E2E2E2E2E2E2E2E2E2E2E2E2E2E2E2E2E2E2E2E2E2E2E2E2E2E2E2E2E2E2E2E2E2E2E2E2E2E2E2E2E2E2E2E2E2E2E2E2E2E2E2E2E2E2E2
310
E2E2E2E2E2E2E2E2E2E2E2E2E2E2E2E2E2E2E2E2E2E2E2E2E2E2E2E2E2E2E2E2E2E2E2E2E2E2E2E2E2E2E2E2E2E2E2E2E2E2E2E2E20F0F0F0F0F0F0F0F0F0F0F0F0F0F0F0F0F0F0F0F0F0F0F0F0F0F0F0F0F0F0F0F0F0FE2E2E2E2E2E2E2E2E2E2E2E2E2E2E2E2E2E2E2E2E2E2E2E2E2F0E2E2E2E2E2E2E2E2E2E2E2E2E2E2
310
E2E2E2E2E2E2E2E2E2E2E2E2E2E2E2E2E2E2E2E2E2E2E2E2E2E2E2E2E2E2E2E2E2E2E2E2E2E2E2E2E2E2E2E2E2E2E2E2E2E2E2E2E2E2E2E2E2E2E2E2E2E2E2E2E2E2E2E2E2E2E2E2E2E2E2E2E2E2E2E2E2E2E2E2E2E2E2E2E2E2E2E2E2E2E2E2E2E2E2E2E2E2E2E2E2E2E2E2E2E2E2E2E2E2E2E2E2E2E2E2E2E2E2E2E2E2E2
310
E2E2E2E2E2E2E2E2E2E2E2E2E2E2E2E2E2E2E2E2E2E2E2E2E2E2E2E2E2E2E2E2E2E2E2E2E2E2E2E2E2E2E2E2E2E2E2E2E2E2E2E2E2E2E20F0F0F0F0F0F0F0F0F0F0F0F0F0F0F0F0F0F0F0F0F0F0F0F0F0F0F0F0F0F0F0F0F0FE2E2E2E2E2E2E2E2E2E2E2E2E2E2E2E2E2E2E2E2E2E2E2E2E2F0E2E2E2E2E2E2E2E2E2E2E2E2
310
E2E2E2E2E2E2E2E2E2E2E2E2E2E2E2E2E2E2E2E2E2E2E2E2E2E2E2E2E2E2E2E2E2E2E2E2E2E2E2E2E2E2E2E2E2E2E2E2E2E2E2E2E2E2E2E2E2E2E2E2E2E2E2E2E2E2E2E2E2E2E2E2E2E2E2E2E2E2E2E2E2E2E2E2E2E2E2E2E2E2E2E2E2E2E2E2E2E2E2E2E2E2E2E2E2E2E2E2E2E2E2E2E2E2E2E2E2E2E2E2E2E2E2E2E2E2E2
310
E2E2E2E2E2E2E2E2E2E2E2E2E2E2E2E2E2E2E2E2E2E2E2E2E2E2E2E2E2E2E2E2E2E2E2E2E2E2E2E2E2E2E2E2E2E2E2E2E2E2E2E2E2E2E2E2E2E2E2E2E2E20F0F0F0F0F0F0F0F0F0F0F0F0F0F0F0F0F0F0F0F0F0F0F0F0FE2E2E2E2E2E2E2E2E2E2E2E2E2E2E2E2E2E2E2E2E2E2E2E2E2E2E2E2E2F0E2E2E2E2E2E2E2E2E2E2
310
E2E2E2E2E2E2E2E2E2E2E2E2E2E2E2E2E2E2E2E2E2E2E2E2E2E2E2E2E2E2E2E2E2E2E2E2E2E2E2E2E2E2E2E2E2E2E2E2E2E2E2E2E2E2E2E2E2E2E2E2E2E2E2E2E2E2E2E2E2E2E2E2E2E2E2E2E2E2E2E2E2E2E2E2E2E2E2E2E2E2E2E2E2E2E2E2E2E2E2E2E2E2E2E2E2E2E2E2E2E2E2E2E2E2E2E2E2E2E2E2E2E2E2E2E2E2E2
310
E2E2E2E2E2E2E2E2E2E2E2E2E2E2E2E2E2E2E2E2E2E2E2E2E2E2E2E2E2E2E2E2E2E2E2E2E2E2E2E2E2E2E2E2E2E2E2E2E2E2E2E2E2E2E2E2E2E2E2E2E2E2E2E20F0F0F0F0F0F0F0F0F0F0F0F0F0F0F0F0F0F0F0F0F0F0F0F0FE2E2E2E2E2E2E2E2E2E2E2E2E2E2E2E2E2E2E2E2E2E2E2E2E2E2E2E2E2F0E2E2E2E2E2E2E2E2
310
E2E2E2E2E2E2E2E2E2E2E2E2E2E2E2E2E2E2E2E2E2E2E2E2E2E2E2E2E2E2E2E2E2E2E2E2E2E2E2E2E2E2E2E2E2E2E2E2E2E2E2E2E2E2E2E2E2E2E2E2E2E2E2E2E2E2E2E2E2E2E2E2E2E2E2E2E2E2E2E2E2E2E2E2E2E2E2E2E2E2E2E2E2E2E2E2E2E2E2E2E2E2E2E2E2E2E2E2E2E2E2E2E2E2E2E2E2E2E2E2E2E2E2E2E2E2E2
310
E2E2E2E2E2E2E2E2E2E2E2E2E2E2E2E2E2E2E2E2E2E2E2E2E2E2E2E2E2E2E2E2E2E2E2E2E2E2E2E2E2E2E2E2E2E2E2E2E2E2E2E2E2E2E2E2E2E2E2E2E2E2E2E2E2E20F0F0F0F0F0F0F0F0F0F0F0F0F0F0F0F0F0F0F0F0F0F0F0F0FE2E2E2E2E2E2E2E2E2E2E2E2E2E2E2E2E2E2E2E2E2E2E2E2E2E2E2E2E2F0E2E2E2E2E2E2
310
E2E2E2E2E2E2E2E2E2E2E2E2E2E2E2E2E2E2E2E2E2E2E2E2E2E2E2E2E2E2E2E2E2E2E2E2E2E2E2E2E2E2E2E2E2E2E2E2E2E2E2E2E2E2E2E2E2E2E2E2E2E2E2E2E2E2E2E2E2E2E2E2E2E2E2E2E2E2E2E2E2E2E2E2E2E2E2E2E2E2E2E2E2E2E2E2E2E2E2E2E2E2E2E2E2E2E2E2E2E2E2E2E2E2E2E2E2E2E2E2E2E2E2E2E2E2E2
310
E2E2E2E2E2E2E2E2E2E2E2E2E2E2E2E2E2E2E2E2E2E2E2E2E2E2E2E2E2E2E2E2E2E2E2E2E2E2E2E2E2E2E2E2E2E2E2E2E2E2E2E2E2E2E2E2E2E2E2E2E2E2E2E2E2E2E2E20F0F0F0F0F0F0F0F0F0F0F0F0F0F0F0F0F0F0F0F0F0F0F0F0FE2E2E2E2E2E2E2E2E2E2E2E2E2E2E2E2E2E2E2E2E2E2E2E2E2E2E2E2E2F0E2E2E2E2
310
E2E2E2E2E2E2E2E2E2E2E2E2E2E2E2E2E2E2E2E2E2E2E2E2E2E2E2E2E2E2E2E2E2E2E2E2E2E2E2E2E2E2E2E2E2E2E2E2E2E2E2E2E2E2E2E2E2E2E2E2E2E2E2E2E2E2E2E2E2E2E2E2E2E2E2E2E2E2E2E2E2E2E2E2E2E2E2E2E2E2E2E2E2E2E2E2E2E2E2E2E2E2E2E2E2E2E2E2E2E2E2E2E2E2E2E2E2E2E2E2E2E2E2E2E2E2E2
310
E2E2E2E2E2E2E2E2E2E2E2E2E2E2E2E2E2E2E2E2E2E2E2E2E2E2E2E2E2E2E2E2E2E2E2E2E2E2E2E2E2E2E2E2E2E2E2E2E2E2E2E2E2E2E2E2E2E2E2E2E2E2E2E2E2E2E2E2E2E20F0F0F0F0F0F0F0F0F0F0F0F0F0F0F0F0F0F0F0F0F0F0F0F0FE2E2E2E2E2E2E2E2E2E2E2E2E2E2E2E2E2E2E2E2E2E2E2E2E2E2E2E2E2F0E2E2
310
E2E2E2E2E2E2E2E2E2E2E2E2E2E2E2E2E2E2E2E2E2E2E2E2E2E2E2E2E2E2E2E2E2E2E2E2E2E2E2E2E2E2E2E2E2E2E2E2E2E2E2E2E2E2E2E2E2E2E2E2E2E2E2E2E2E2E2E2E2E2E2E2E2E2E2E2E2E2E2E2E2E2E2E2E2E2E2E2E2E2E2E2E2E2E2E2E2E2E2E2E2E2E2E2E2E2E2E2E2E2E2E2E2E2E2E2E2E2E2E2E2E2E2E2E2E2E2
310
E2E2E2E2E2E2E2E2E2E2E2E2E2E2E2E2E2E2E2E2E2E2E2E2E2E2E2E2E2E2E2E2E2E2E2E2E2E2E2E2E2E2E2E2E2E2E2E2E2E2E2E2E2E2E2E2E2E2E2E2E2E2E2E2E2E2E2E2E2E2E2E20F0F0F0F0F0F0F0F0F0F0F0F0F0F0F0F0F0F0F0F0F0F0F0F0FE2E2E2E2E2E2E2E2E2E2E2E2E2E2E2E2E2E2E2E2E2E2E2E2E2E2E2E2E2F0
310
E2E2E2E2E2E2E2E2E2E2E2E2E2E2E2E2E2E2E2E2E2E2E2E2E2E2E2E2E2E2E2E2E2E2E2E2E2E2E2E2E2E2E2E2E2E2E2E2E2E2E2E2E2E2E2E2E2E2E2E2E2E2E2E2E2E2E2E2E2E2E2E2E2E2E2E2E2E2E2E2E2E2E2E2E2E2E2E2E2E2E2E2E2E2E2E2E2E2E2E2E2E2E2E2E2E2E2E2E2E2E2E2E2E2E2E2E2E2E2E2E2E2E2E2E2E2E2
310
E2E2E2E2E2E2E2E2E2E2E2E2E2E2E2E2E2E2E2E2E2E2E2E2E2E2E2E2E2E2E2E2E2E2E2E2E2E2E2E2E2E2E2E2E2E2E2E2E2E2E2E2E2E2E2E2E2E2E2E2E2E2E2E2E2E2E2E2E2E2E2E2E2E2E2E2E2E2E2E2E2E2E2E2E2E2E2E2E2E2E2E2E2E2E2E2E2E2E2E2E2E2E2E2E2E2E2E2E2E2E2E2E2E2E2E2E2E2E2E2E2E2E2E2E2E2E2
310
E2F0E2E2E2E2E2E2E2E2E2E2E2E2E2E2E2E2E2E2E2E2E2E2E2E2E2E2E2E2E2E2E2E2E2E2E2E2E2E2E2E2E2E2E2E2E2E2E2E2E2E2E2E2E2E2E2E2E2E2E2E2E2E2E2E2E2E2E2E2E2E2E2E2E2E2E2E2E2E2E2E2E2E2E2E2E2E2E2E2E2E2E2E2E2E2E2E2E2E2E2E2E2E2E2E2E2E2E2E2E2E2E2E2E2E2E2E2E2E2E2E2E2E2E2E2E2
310
E2E2E2E2E2E2E2E2E2E2E2E2E2E2E2E2E2E2E2E2E2E2E2E2E2E2E2E2E2E2E2E2E2E2E2E2E2E2E2E2E2E2E2E2E2E2E2E2E2E2E2E2E2E2E2E2E2E2E2E2E2E2E2E2E2E2E2E2E2E2E2E2E2E2E2E2E2E2E2E2E2E2E2E2E2E2E2E2E2E2E2E2E2E2E2E2E2E2E2E2E2E2E2E2E2E2E2E2E2E2E2E2E2E2E2E2E2E2E2E2E2E2E2E2E2E2E2
310
E2E2E2F0E2E2E2E2E2E2E2E2E2E2E2E2E2E2E2E2E2E2E2E2E2E2E2E2E2E2E2E2E2E2E2E2E2E2E2E2E2E2E2E2E2E2E2E2E2E2E2E2E2E2E2E2E2E2E2E2E2E2E2E2E2E2E2E2E2E2E2E2E2E2E2E2E2E2E2E2E2E2E2E2E2E2E2E2E2E2E2E2E2E2E2E2E2E2E2E2E2E2E2E2E2E2E2E2E2E2E2E2E2E2E2E2E2E2E2E2E2E2E2E2E2E2E2
310
E2E2E2E2E2E2E2E2E2E2E2E2E2E2E2E2E2E2E2E2E2E2E2E2E2E2E2E2E2E2E2E2E2E2E2E2E2E2E2E2E2E2E2E2E2E2E2E2E2E2E2E2E2E2E2E2E2E2E2E2E2E2E2E2E2E2E2E2E2E2E2E2E2E2E2E2E2E2E2E2E2E2E2E2E2E2E2E2E2E2E2E2E2E2E2E2E2E2E2E2E2E2E2E2E2E2E2E2E2E2E2E2E2E2E2E2E2E2E2E2E2E2E2E2E2E2E2
310
E2E2E2E2E2F0E2E2E2E2E2E2E2E2E2E2E2E2E2E2E2E2E2E2E2E2E2E2E2E2E2E2E2E2E2E2E2E2E2E2E2E2E2E2E2E2E2E2E2E2E2E2E2E2E2E2E2E2E2E2E2E2E2E2E2E2E2E2E2E2E2E2E2E2E2E2E2E2E2E2E2E2E2E2E2E2E2E2E2E2E2E2E2E2E2E2E2E2E2E2E2E2E2E2E2E2E2E2E2E2E2E2E2E2E2E2E2E2E2E2E2E2E2E2E2E2E2
310
E2E2E2E2E2E2E2E2E2E2E2E2E2E2E2E2E2E2E2E2E2E2E2E2E2E2E2E2E2E2E2E2E2E2E2E2E2E2E2E2E2E2E2E2E2E2E2E2E2E2E2E2E2E2E2E2E2E2E2E2E2E2E2E2E2E2E2E2E2E2E2E2E2E2E2E2E2E2E2E2E2E2E2E2E2E2E2E2E2E2E2E2E2E2E2E2E2E2E2E2E2E2E2E2E2E2E2E2E2E2E2E2E2E2E2E2E2E2E2E2E2E2E2E2E2E2E2
310
E2E2E2E2E2E2E2F0E2E2E2E2E2E2E2E2E2E2E2E2E2E2E2E2E2E2E2E2E2E2E2E2E2E2E2E2E2E2E2E2E2E2E2E2E2E2E2E2E2E2E2E2E2E2E2E2E2E2E2E2E2E2E2E2E2E2E2E2E2E2E2E2E2E2E2E2E2E2E2E2E2E2E2E2E2E2E2E2E2E2E2E2E2E2E2E2E2E2E2E2E2E2E2E2E2E2E2E2E2E2E2E2E2E2E2E2E2E2E2E2E2E2E2E2E2E2E2
310
E2E2E2E2E2E2E2E2E2E2E2E2E2E2E2E2E2E2E2E2E2E2E2E2E2E2E2E2E2E2E2E2E2E2E2E2E2E2E2E2E2E2E2E2E2E2E2E2E2E2E2E2E2E2E2E2E2E2E2E2E2E2E2E2E2E2E2E2E2E2E2E2E2E2E2E2E2E2E2E2E2E2E2E2E2E2E2E2E2E2E2E2E2E2E2E2E2E2E2E2E2E2E2E2E2E2E2E2E2E2E2E2E2E2E2E2E2E2E2E2E2E2E2E2E2E2E2
310
E2E2E2E2E2E2E2E2E2F0E2E2E2E2E2E2E2E2E2E2E2E2E2E2E2E2E2E2E2E2E2E2E2E2E2E2E2E2E2E2E2E2E2E2E2E2E2E2E2E2E2E2E2E2E2E2E2E2E2E2E2E2E2E2E2E2E2E2E2E2E2E2E2E2E2E2E2E2E2E2E2E2E2E2E2E2E2E2E2E2E2E2E2E2E2E2E2E2E2E2E2E2E2E2E2E2E2E2E2E2E2E2E2E2E2E2E2E2E2E2E2E2E2E2E2E2E2
310
E2E2E2E2E2E2E2E2E2E2E2E2E2E2E2E2E2E2E2E2E2E2E2E2E2E2E2E2E2E2E2E2E2E2E2E2E2E2E2E2E2E2E2E2E2E2E2E2E2E2E2E2E2E2E2E2E2E2E2E2E2E2E2E2E2E2E2E2E2E2E2E2E2E2E2E2E2E2E2E2E2E2E2E2E2E2E2E2E2E2E2E2E2E2E2E2E2E2E2E2E2E2E2E2E2E2E2E2E2E2E2E2E2E2E2E2E2E2E2E2E2E2E2E2E2E2E2
310
E2E2E2E2E2E2E2E2E2E2E2F0E2E2E2E2E2E2E2E2E2E2E2E2E2E2E2E2E2E2E2E2E2E2E2E2E2E2E2E2E2E2E2E2E2E2E2E2E2E2E2E2E2E2E2E2E2E2E2E2E2E2E2E2E2E2E2E2E2E2E2E2E2E2E2E2E2E2E2E2E2E2E2E2E2E2E2E2E2E2E2E2E2E2E2E2E2E2E2E2E2E2E2E2E2E2E2E2E2E2E2E2E2E2E2E2E2E2E2E2E2E2E2E2E2E2E2
310
E2E2E2E2E2E2E2E2E2E2E2E2E2E2E2E2E2E2E2E2E2E2E2E2E2E2E2E2E2E2E2E2E2E2E2E2E2E2E2E2E2E2E2E2E2E2E2E2E2E2E2E2E2E2E2E2E2E2E2E2E2E2E2E2E2E2E2E2E2E2E2E2E2E2E2E2E2E2E2E2E2E2E2E2E2E2E2E2E2E2E2E2E2E2E2E2E2E2E2E2E2E2E2E2E2E2E2E2E2E2E2E2E2E2E2E2E2E2E2E2E2E2E2E2E2E2E2
310
E2E2E2E2E2E2E2E2E2E2E2E2E2F0E2E2E2E2E2E2E2E2E2E2E2E2E2E2E2E2E2E2E2E2E2E2E2E2E2E2E2E2E2E2E2E2E2E2E2E2E2E2E2E2E2E2E2E2E2E2E2E2E2E2E2E2E2E2E2E2E2E2E2E2E2E2E2E2E2E2E2E2E2E2E2E2E2E2E2E2E2E2E2E2E2E2E2E2E2E2E2E2E2E2E2E2E2E2E2E2E2E2E2E2E2E2E2E2E2E2E2E2E2E2E2E2E2
310
E2E2E2E2E2E2E2E2E2E2E2E2E2E2E2E2E2E2E2E2E2E2E2E2E2E2E2E2E2E2E2E2E2E2E2E2E2E2E2E2E2E2E2E2E2E2E2E2E2E2E2E2E2E2E2E2E2E2E2E2E2E2E2E2E2E2E2E2E2E2E2E2E2E2E2E2E2E2E2E2E2E2E2E2E2E2E2E2E2E2E2E2E2E22D2D2D2D2D2D2D2D2D2DE2E2E2E2E2E2E2E2E2E2E2E2E2E2E2E2E2E2E2E2E2E2E2
310
E2E2E2E2E2E2E2E2E2E2E2E2E2E2E2F0E2E2E2E2E2E2E2E2E2E2E2E2E2E2E2E2E2E2E2E2E2E2E2E2E2E2E2E2E2E2E2E2E2E2E2E2E2E2E2E2E2E2E2E2E2E2E2E2E2E2E2E2E2E2E2E2E2E2E2E2E2E2E2E2E2E2E2E2E2E2E2E2E2E2E2E2E2E2E2E2E2E2E2E2E2E2E2E2E2E2E2E2E2E2E2E2E2E2E2E2E2E2E2E2E2E2E2E2E2E2E2
310
E2E2E2E2E2E2E2E2E2E2E2E2E2E2E2E2E2E2E2E2E2E2E2E2E2E2E2E2E2E2E2E2E2E2E2E2E2E2E2E2E2E2E2E2E2E2E2E2E2E2E2E2E2E2E2E2E2E2E2E2E2E2E2E2E2E2E2E2E2E2E2E2E2E2E2E2E2E2E2E2E2E2E2E2E2E2E2E2E2E2E2E2E2E22D2D2DE2E2E2E2E2E22D2D2D2D2DE2E2E2E2E2E2E2E2E2E2E2E2E2E2E2E2E2E2E2
310
E2E2E2E2E2E2E2E2E2E2E2E2E2E2E2E2E2F0E2E2E2E2E2E2E2E2E2E2E2E2E2E2E2E2E2E2E2E2E2E2E2E2E2E2E2E2E2E2E2E2E2E2E2E2E2E2E2E2E2E2E2E2E2E2E2E2E2E2E2E2E2E2E2E2E2E2E2E2E2E2E2E2E2E2E2E2E2E2E2E2E2E2E2E2E2E2E2E2E2E2E2E2E2E2E2E2E2E2E2E2E2E2E2E2E2E2E2E2E2E2E2E2E2E2E2E2E2
310
E2E2E2E2E2E2E2E2E2E2E2E2E2E2E2E2E2E2E2E2E2E2E2E2E2E2E2E2E2E2E2E2E2E2E2E2E2E2E2E2E2E2E2E2E2E2E2E2E2E2E2E2E2E2E2E2E2E2E2E2E2E2E2E2E2E2E2E2E2E2E2E2E2E2E2E2E2E2E2E2E2E2E2E2E2E2E2E2E2E2E2E2E2E2E22D2DE2E2E2E2E2E2E2E2E22D2D2D2D2DE2E2E2E2E2E2E2E2E2E2E2E2E2E2E2E2
310
E2E2E2E2E2E2E2E2E2E2E2E2E2E2E2E2E2E2E2F0E2E2E2E2E2E2E2E2E2E2E2E2E2E2E2E2E2E2E2E2E2E2E2E2E2E2E2E2E2E2E2E2E2E2E2E2E2E2E2E2E2E2E2E2E2E2E2E2E2E2E2E2E2E2E2E2E2E2E2E2E2E2E2E2E2E2E2E2E2E2E2E2E2E2E2E2E2E2E2E2E2E2E2E2E2E2E2E2E2E2E2E2E2E2E2E2E2E2E2E2E2E2E2E2E2E2E2
310
E2E2E2E2E2E2E2E2E2E2E2E2E2E2E2E2E2E2E2E2E2E2E2E2E2E2E2E2E2E2E2E2E2E2E2E2E2E2E2E2E2E2E2E2E2E2E2E2E2E2E2E2E2E2E2E2E2E2E2E2E2E2E2E2E2E2E2E2E2E2E2E2E2E2E2E2E2E2E2E2E2E2E2E2E2E2E2E2E2E2E2E2E2E2E2E2E22DE2E2E2E2E2E2E2E2E22D2DE22D2D2DE2E2E2E2E2E2E2E2E2E2E2E2E2E2
310
E2E2E2E2E2E2E2E2E2E2E2E2E2E2E2E2E2E2E2E2E2F0E2E2E2E2E2E2E2E2E2E2E2E2E2E2E2E2E2E2E2E2E2E2E2E2E2E2E2E2E2E2E2E2E2E2E2E2E2E2E2E2E2E2E2E2E2E2E2E2E2E2E2E2E2E2E2E2E2E2E2E2E2E2E2E2E2E2E2E2E2E2E2E2E2E2E2E2E2E2E2E2E2E2E2E2E2E2E2E2E2E2E2E2E2E2E2E2E2E2E2E2E2E2E2E2E2
310
E2E2E2E2E2E2E2E2E2E2E2E2E2E2E2E2E2E2E2E2E2E2E2E2E2E2E2E2E2E2E2E2E2E2E2E2E2E2E2E2E2E2E2E2E2E2E2E2E2E2E2E2E2E2E2E2E2E2E2E2E2E2E2E2E2E2E2E2E2E2E2E2E2E2E2E2E2E2E2E2E2E2E2E2E2E2E2E2E2E2E2E2E2E2E2E2E2E2E22DE2E2E2E2E2E2E2E22D2DE2E2E22D2D2D2DE2E2E2E2E2E2E2E2E2E2
310
E2E2E2E2E2E2E2E2E2E2E2E2E2E2E2E2E2E2E2E2E2E2E2F0E2E2E2E2E2E2E2E2E2E2E2E2E2E2E2E2E2E2E2E2E2E2E2E2E2E2E2E2E2E2E2E2E2E2E2E2E2E2E2E2E2E2E2E2E2E2E2E2E2E2E2E2E2E2E2E2E2E2E2E2E2E2E2E2E2E2E2E2E2E2E2E2E2E2E2E2E2E2E2E2E2E2E2E2E2E2E2E2E2E2E2E2E2E2E2E2E2E2E2E2E2E2E2
310
E2E2E2E2E2E2E2E2E2E2E2E2E2E2E2E2E2E2E2E2E2E2E2E2E2E2E2E2E2E2E2E2E2E2E2E2E2E2E2E2E2E2E2E2E2E2E2E2E2E2E2E2E2E2E2E2E2E2E2E2E2E2E2E2E2E2E2E2E2E2E2E2E2E2E2E2E2E2E2E2E2E2E2E2E2E2E2E2E2E2E2E2E2E2E2E2E2E2E2E2E22DE2E2E2E2E2E22D2D2D2D2DE2E2E2E22DF5F5F5F5F5F5F5F5F5
310
F5F5F5F5F5F5F5F5F5F5E2E2E2E2E2E2E2E2E2E2E2E2E2E2E2F0E2E2E2E2E2E2E2E2E2E2E2E2E2E2E2E2E2E2E2E2E2E2E2E2E2E2E2E2E2E2E2E2E2E2E2E2E2E2E2E2E2E2E2E2E2E2E2E2E2E2E2E2E2E2E2E2E2E2E2E2E2E2E2E2E2E2E2E2E2E2E2E2E2E2E2E2E2E2E2E2E2E2E2E2E2E2E2E2E2E2E2E2E2E2E2E2E2E2E2E2E2
310
E2E2E2E2E2E2E2E2E2E2E2E2E2E2E2E2E2E2E2E2E2E2E2E2E2E2E2E2E2E2E2E2E2E2E2E2E2E2E2E2E2E2E2E2E2E2E2E2E2E2E2E2E2E2E2E2E2E2E2E2E2E2E2E2E2E2E2E2E2E2E2E2E2E2E2E2E2E2E2E2E2E2E2E2E2E2E2E2E2E2E2E2E2E2E2E2E2E2E2E2E2E22DE2E2E2E2E22D2D2DE2E2E22D2D2DE2E22D2DE2E2E2E2E2E2
310
E2E2E2E2E2E2E2E2E2E2F5E2E2E2E2E2E2E2E2E2E2E2E2E2E2E2E2F0E2E2E2E2E2E2E2E2E2E2E2E2E2E2E2E2E2E2E2E2E2E2E2E2E2E2E2E2E2E2E2E2E2E2E2E2E2E2E2E2E2E2E2E2E2E2E2E2E2E2E2E2E2E2E2E2E2E2E2E2E2E2E2E2E2E2E2E2E2E2E2E2E2E2E2E2E2E2E2E2E2E2E2E2E2E2E2E2E2E2E2E2E2E2E2E2E2E2E2
310
E2E2E2E2E2E2E2E2E2E2E2E2E2E2E2E2E2E2E2E2E2E2E2E2E2E2E2E2E2E2E2E2E2E2E2E2E2E2E2E2E2E2E2E2E2E2E2E2E2E2E2E2E2E2E2E2E2E2E2E2E2E2E2E2E2E2E2E2E2E2E2E2E2E2E2E2E2E2E2E2E2E2E2E2E2E2E2E2E2E2E2E2E2E2E2E2E2E2E2E2E2E2E2E22DE2E22D2D2DE2E2E2E2E2E2E2E2E22D2D2D2DE2E2E2E2
310
E2E2E2E2E2E2E2E2E2E2E2E2F5E2E2E2E2E2E2E2E2E2E2E2E2E2E2E2E2F0E2E2E2E2E2E2E2E2E2E2E2E2E2E2E2E2E2E2E2E2E2E2E2E2E2E2E2E2E2E2E2E2E2E2E2E2E2E2E2E2E2E2E2E2E2E2E2E2E2E2E2E2E2E2E2E2E2E2E2E2E2E2E2E2E2E2E2E2E2E2E2E2E2E2E2E2E2E2E2E2E2E2E2E2E2E2E2E2E2E2E2E2E2E2E2E2E2
310
E2E2E2E2E2E2E2E2E2E2E2E2E2E2E2E2E2E2E2E2E2E2E2E2E2E2E2E2E2E2E2E2E2E2E2E2E2E2E2E2E2E2E2E2E2E2E2E2E2E2E2E2E2E2E2E2E2E2E2E2E2E2E2E2E2E2E2E2E2E2E2E2E2E2E2E2E2E2E2E2E2E2E2E2E2E2E2E2E2E2E2E2E2E2E2E2E2E2E2E2E2E2E2E2E2E22DE2E22DE2E2E2E2E2E2E2E2E2E2E2E2E22DE2E2E2
310
E2E2E2E2E2E2E2E2E2E2E2E2E2E2F5E2E2E2E2E2E2E2E2E2E2E2E2E2E2E2E2F0E2E2E2E2E2E2E2E2E2E2E2E2E2E2E2E2E2E2E2E2E2E2E2E2E2E2E2E2E2E2E2E2E2E2E2E2E2E2E2E2E2E2E2E2E2E2E2E2E2E2E2E2E2E2E2E2E2E2E2E2E2E2E2E2E2E2E2E2E2E2E2E2E2E2E2E2E2E2E2E2E2E2E2E2E2E2E2E2E2E2E2E2E2E2E2
310
E2E2E2E2E2E2E2E2E2E2E2E2E2E2E2E2E2E2E2E2E2E2E2E2E2E2E2E2E2E2E2E2E2E2E2E2E2E2E2E2E2E2E2E2E2E2E2E2E2E2E2E2E2E2E2E2E2E2E2E2E2E2E2E2E2E2E2E2E2E2E2E2E2E2E2E2E2E2E2E2E2E2E2E2E2E2E2E2E2E2E2E2E2E2E2E2E2E2E2E2E2E2E2E2E2E2E2E22DE22D2D2D2DE2E2E2E2E2E2E2E2E2E2E22DE2
310
E2E2E2E2E2E2E2E2E2E2E2E2E2E2E2E2F5E2E2E2E2E2E2E2E2E2E2E2E2E2E2E2E2F0E2E2E2E2E2E2E2E2E2E2E2E2E2E2E2E2E2E2E2E2E2E2E2E2E2E2E2E2E2E2E2E2E2E2E2E2E2E2E2E2E2E2E2E2E2E2E2E2E2E2E2E2E2E2E2E2E2E2E2E2E2E2E2E2E2E2E2E2E2E2E2E2E2E2E2E2E2E2E2E2E2E2E2E2E2E2E2E2E2E2E2E2E2
310
E2E2E2E2E2E2E2E2E2E2E2E2E2E2E2E2E2E2E2E2E2E2E2E2E2E2E2E2E2E2E2E2E2E2E2E2E2E2E2E2E2E2E2E2E2E2E2E2E2E2E2E2E2E2E2E2E2E2E2E2E2E2E2E2E2E2E2E2E2E2E2E2E2E2E2E2E2E2E2E2E2E2E2E2E2E2E2E2E2E2E2E2E2E2E2E2E2E2E2E2E2E2E2E2E2E2E2E2E22DE2E22DE2E2E22D2DE2E2E2E2E2E2E2E22D
310
2DE2E2E2E2E2E2E2E2E2E2E2E2E2E2E2E2E2F5E2E2E2E2E2E2E2E2E2E2E2E2E2E2E2E2F0E2E2E2E2E2E2E2E2E2E2E2E2E2E2E2E2E2E2E2E2E2E2E2E2E2E2E2E2E2E2E2E2E2E2E2E2E2E2E2E2E2E2E2E2E2E2E2E2E2E2E2E2E2E2E2E2E2E2E2E2E2E2E2E2E2E2E2E2E2E2E2E2E2E2E2E2E2E2E2E2E2E2E2E2E2E2E2E2E2E2E2
310
E2E2E2E2E2E2E2E2E2E2E2E2E2E2E2E2E2E2E2E2E2E2E2E2E2E2E2E2E2E2E2E2E2E2E2E2E2E2E2E2E2E2E2E2E2E2E2E2E2E2E2E2E2E2E2E2E2E2E2E2E2E2E2E2E2E2E2E2E2E2E2E2E2E2E2E2E2E2E2E2E2E2E2E2E2E2E2E2E2E2E2E2E2E2E2E2E2E2E2E2E2E2E2E2E2E2E2E2E2E2E22DE2E22DE2E2E2E2E22D2DE2E2E2E2E2
310
2D2D2D2DE2E2E2E2E2E2E2E2E2E2E2E2E2E2E2E2F5E2E2E2E2E2E2E2E2E2E2E2E2E2E2E2E2F0E2E2E2E2E2E2E2E2E2E2E2E2E2E2E2E2E2E2E2E2E2E2E2E2E2E2E2E2E2E2E2E2E2E2E2E2E2E2E2E2E2E2E2E2E2E2E2E2E2E2E2E2E2E2E2E2E2E2E2E2E2E2E2E2E2E2E2E2E2E2E2E2E2E2E2E2E2E2E2E2E2E2E2E2E2E2E2E2E2
310
E2E2E2E2E2E2E2E2E2E2E2E2E2E2E2E2E2E2E2E2E2E2E2E2E2E2E2E2E2E2E2E2E2E2E2E2E2E2E2E2E2E2E2E2E2E2E2E2E2E2E2E2E2E2E2E2E2E2E2E2E2E2E2E2E2E2E2E2E2E2E2E2E2E2E2E2E2E2E2E2E2E2E2E2E2E2E2E2E2E2E2E2E2E2E2E2E2E2E2E2E2E22D2D2D2D2D2D2D2D2D2D2D2DE2E22DE2E2E2E2E2E2E22D2DE2
310
E2E22DE22D2DE2E2E2E2E2E2E2E2E2E2E2E2E2E2E2E2F5E2E2E2E2E2E2E2E2E2E2E2E2E2E2E2E2F0E2E2E2E2E2E2E2E2E2E2E2E2E2E2E2E2E2E2E2E2E2E2E2E2E2E2E2E2E2E2E2E2E2E2E2E2E2E2E2E2E2E2E2E2E2E2E2E2E2E2E2E2E2E2E2E2E2E2E2E2E2E2E2E2E2E2E2E2E2E2E2E2E2E2E2E2E2E2E2E2E2E2E2E2E2E2E2
310
E2E2E2E2E2E2E2E2E2E2E2E2E2E2E2E2E2E2E2E2E2E2E2E2E2E2E2E2E2E2E2E2E2E2E2E2E2E2E2E2E2E2E2E2E2E2E2E2E2E2E2E2E2E2E2E2E2E2E2E2E2E2E2E2E2E2E2E2E2E2E2E2E2E2E2E2E2E2E2E2E2E2E2E2E2E2E2E2E2E2E2E2E2E2E2E2E2E2E2E2E2E2E2E22DE2E2E2E2E2E2E2E2E2E2E2E2E22D2D2D2D2D2D2D2D2D
310
2D2D2D2DE2E22D2DE2E2E2E2E2E2E2E2E2E2E2E2E2E2E2E2F5E2E2E2E2E2E2E2E2E2E2E2E2E2E2E2E2E2E2E2E2E2E2E2E2E2E2E2E2E2E2E2E2E2E2E2E2E2E2E2E2E2E2E2E2E2E2E2E2E2E2E2E2E2E2E2E2E2E2E2E2E2E2E2E2E2E2E2E2E2E2E2E2E2E2E2E2E2E2E2E2E2E2E2E2E2E2E2E2E2E2E2E2E2E2E2E2E2E2E2E2E2E2
310
E2E2E2E2E2E2E2E2E2E2E2E2E2E2E2E2E2E2E2E2E2E2E2E2E2E2E2E2E2E2E2E2E2E2E2E2E2E2E2E2E2E2E2E2E2E2E2E2E2E2E2E2E2E2E2E2E2E2E2E2E2E2E2E2E2E2E2E2E2E2E2E2E2E2E2E2E2E2E2E2E2E2E2E2E2E2E2E2E2E2E2E2E2E2E2E2E2E2E2E2E2E2E2E2E2E22DE2E2E2E2E2E2E2E2E2E2E2E2E2E2E2E2E2E2E2E2
310
E2E22D2DE22D2D2D2D2DE2E2E2E2E2E2E2E2E2E2E2E2E2E2E2E2F5E2E2E2E2E2E2E2E2E2E2E2E2E2E2E2E2E2E2E2E2E2E2E2E2E2E2E2E2E2E2E2E2E2E2E2E2E2E2E2E2E2E2E2E2E2E2E2E2E2E2E2E2E2E2E2E2E2E2E2E2E2E2E2E2E2E2E2E2E2E2E2E2E2E2E2E2E2E2E2E2E2E2E2E2E2E2E2E2E2E2E2E2E2E2E2E2E2E2E2E2
310
E2E2E2E2E2E2E2E2E2E2E2E2E2E2E2E2E2E2E2E2E2E2E2E2E2E2E2E2E2E2E2E2E2E2E2E2E2E2E2E2E2E2E2E2E2E2E2E2E2E2E2E2E2E2E2E2E2E2E2E2E2E2E2E2E2E2E2E2E2E2E2E2E2E2E2E2E2E2E2E2E2E2E2E2E2E2E2E2E2E2E2E2E2E2E2E2E2E2E2E2E2E2E2E2E2E2E2E22DE2E2E2E2E2E2E2E2E2E2E2E2E2E2E2E2E2E2
310
E2E2E2E2E22DE2E22D2D2D2DE2E2E2E2E2E2E2E2E2E2E2E2E2E2E2E2F5E2E2E2E2E2E2E2E2E2E2E2E2E2E2E2E2E2E2E2E2E2E2E2E2E2E2E2E2E2E2E2E2E2E2E2E2E2E2E2E2E2E2E2E2E2E2E2E2E2E2E2E2E2E2E2E2E2E2E2E2E2E2E2E2E2E2E2E2E2E2E2E2E2E2E2E2E2E2E2E2E2E2E2E2E2E2E2E2E2E2E2E2E2E2E2E2E2E2
310
E2E2E2E2E2E2E2E2E2E2E2E2E2E2E2E2E2E2E2E2E2E2E2E2E2E2E2E2E2E2E2E2E2E2E2E2E2E2E2E2E2E2E2E2E2E2E2E2E2E2E2E2E2E2E2E2E2E2E2E2E2E2E2E2E2E2E2E2E2E2E2E2E2E2E2E2E2E2E2E2E2E2E2E2E2E2E2E2E2E2E2E2E2E2E2E2E2E2E2E2E2E2E2E2E2E2E2E2E2E22DE2E2E2E2E2E2E2E2E2E2E2E2E2E2E2E2
310
E2E2E2E2E2E22D2DE2E2E2E2E22DE2E2E2E2E2E2E2E2E2E2E2E2E2E2E2E2F5E2E2E2E2E2E2E2E2E2E2E2E2E2E2E2E2E2E2E2E2E2E2E2E2E2E2E2E2E2E2E2E2E2E2E2E2E2E2E2E2E2E2E2E2E2E2E2E2E2E2E2E2E2E2E2E2E2E2E2E2E2E2E2E2E2E2E2E2E2E2E2E2E2E2E2E2E2E2E2E2E2E2E2E2E2E2E2E2E2E2E2E2E2E2E2E2
310
E2E2E2E2E2E2E2E2E2E2E2E2E2E2E2E2E2E2E2E2E2E2E2E2E2E2E2E2E2E2E2E2E2E2E2E2E2E2E2E2E2E2E2E2E2E2E2E2E2E2E2E2E2E2E2E2E2E2E2E2E2E2E2E2E2E2E2E2E2E2E2E2E2E2E2E2E2E2E2E2E2E2E2E2E2E2E2E2E2E2E2E2E2E2E2E2E2E2E2E2E2E2E2E2E2E2E2E2E2E2E2E22DE2E2E2E2E2E2E2E2E2E2E2E2E2E2
310
E2E2E2E2E2E2E2E22D2D2D2DE2E2E22DE2E2E2E2E2E2E2E2E2E2E2E2E2E2E2E2F5E2E2E2E2E2E2E2E2E2E2E2E2E2E2E2E2E2E2E2E2E2E2E2E2E2E2E2E2E2E2E2E2E2E2E2E2E2E2E2E2E2E2E2E2E2E2E2E2E2E2E2E2E2E2E2E2E2E2E2E2E2E2E2E2E2E2E2E2E2E2E2E2E2E2E2E2E2E2E2E2E2E2E2E2E2E2E2E2E2E2E2E2E2E2
310
E2E2E2E2E2E2E2E2E2E2E2E2E2E2E2E2E2E2E2E2E2E2E2E2E2E2E2E2E2E2E2E2E2E2E2E2E2E2E2E2E2E2E2E2E2E2E2E2E2E2E2E2E2E2E2E2E2E2E2E2E2E2E2E2E2E2E2E2E2E2E2E2E2E2E2E2E2E2E2E2E2E2E2E2E2E2E2E2E2E2E2E2E2E2E2E2E2E2E2E2E2E2E2E2E2E2E2E2E2E2E2E2E2E22DE2E2E2E2E2E2E2E2E2E2E2E2
310
E2E2E2E2E2E2E2E2E2E22D2D2D2D2D2DE22DE2E2E2E2E2E2E2E2E2E2E2E2E2E2E2E2F5E2E2E2E2E2E2E2E2E2E2E2E2E2E2E2E2E2E2E2E2E2E2E2E2E2E2E2E2E2E2E2E2E2E2E2E2E2E2E2E2E2E2E2E2E2E2E2E2E2E2E2E2E2E2E2E2E2E2E2E2E2E2E2E2E2E2E2E2E2E2E2E2E2E2E2E2E2E2E2E2E2E2E2E2E2E2E2E2E2E2E2E2
310
E2E2E2E2E2E2E2E2E2E2E2E2E2E2E2E2E2E2E2E2E2E2E2E2E2E2E2E2E2E2E2E2E2E2E2E2E2E2E2E2E2E2E2E2E2E2E2E2E2E2E2E2E2E2E2E2E2E2E2E2E2E2E2E2E2E2E2E2E2E2E2E2E2E2E2E2E2E2E2E2E2E2E2E2E2E2E2E2E2E2E2E2E2E2E2E2E2E2E2E2E2E2E2E2E2E2E2E2E2E2E2E2E2E2E2E22DE2E2E2E2E2E2E2E2E2E2
310
E2E2E2E2E2E2E2E2E2E2E2E2E22D2DE22D2D2D2DE2E2E2E2E2E2E2E2E2E2E2E2E2E2E2E2F5E2E2E2E2E2E2E2E2E2E2E2E2E2E2E2E2E2E2E2E2E2E2E2E2E2E2E2E2E2E2E2E2E2E2E2E2E2E2E2E2E2E2E2E2E2E2E2E2E2E2E2E2E2E2E2E2E2E2E2E2E2E2E2E2E2E2E2E2E2E2E2E2E2E2E2E2E2E2E2E2E2E2E2E2E2E2E2E2E2E2
310
E2E2E2E2E2E2E2E2E2E2E2E2E2E2E2E2E2E2E2E2E2E2E2E2E2E2E2E2E2E2E2E2E2E2E2E2E2E2E2E2E2E2E2E2E2E2E2E2E2E2E2E2E2E2E2E2E2E2E2E2E2E2E2E2E2E2E2E2E2E2E2E2E2E2E2E2E2E2E2E2E2E2E2E2E2E2E2E2E2E2E2E2E2E2E2E2E2E2E2E2E2E2E2E2E2E2E2E2E2E2E2E2E2E2E2E2E2E22DE2E2E2E2E2E2E2E2
310
E2E2E2E2E2E2E2E2E2E2E2E2E2E2E22DE2E2E2E22D2DE2E2E2E2E2E2E2E2E2E2E2E2E2E2E2E2F5E2E2E2E2E2E2E2E2E2E2E2E2E2E2E2E2E2E2E2E2E2E2E2E2E2E2E2E2E2E2E2E2E2E2E2E2E2E2E2E2E2E2E2E2E2E2E2E2E2E2E2E2E2E2E2E2E2E2E2E2E2E2E2E2E2E2E2E2E2E2E2E2E2E2E2E2E2E2E2E2E2E2E2E2E2E2E2E2
310
E2E2E2E2E2E2E2E2E2E2E2E2E2E2E2E2E2E2E2E2E2E2E2E2E2E2E2E2E2E2E2E2E2E2E2E2E2E2E2E2E2E2E2E2E2E2E2E2E2E2E2E2E2E2E2E2E2E2E2E2E2E2E2E2E2E2E2E2E2E2E2E2E2E2E2E2E2E2E2E2E2E2E2E2E2E2E2E2E2E2E2E2E2E2E2E2E2E2E2E2E2E2E2E2E2E2E2E2E2E2E2E2E2E2E2E2E2E2E2E22DE2E2E2E2E2E2
310
E2E2E2E2E2E2E2E2E2E2E2E2E2E2E2E2E22DE2E2E2E22DE2E2E2E2E2E2E2E2E2E2E2E2E2E2E2E2E2F5E2E2E2E2E2E2E2E2E2E2E2E2E2E2E2E2E2E2E2E2E2E2E2E2E2E2E2E2E2E2E2E2E2E2E2E2E2E2E2E2E2E2E2E2E2E2E2E2E2E2E2E2E2E2E2E2E2E2E2E2E2E2E2E2E2E2E2E2E2E2E2E2E2E2E2E2E2E2E2E2E2E2E2E2E2E2
310
E2E2E2E2E2E2E2E2E2E2E2E2E2E2E2E2E2E2E2E2E2E2E2E2E2E2E2E2E2E2E2E2E2E2E2E2E2E2E2E2E2E2E2E2E2E2E2E2E2E2E2E2E2E2E2E2E2E2E2E2E2E2E2E2E2E2E2E2E2E2E2E2E2E2E2E2E2E2E2E2E2E2E2E2E2E2E2E2E2E2E2E2E2E2E2E2E2E2E2E2E2E2E2E2E2E2E2E2E2F5F5F5F5F5F5F5F5F5F5F5F5F52DF5F5F5F5
310
E2E2E2E2E2E2E2E2E2E2E2E2E2E2E2E2E2E22D2DE2E2E2E22DE2E2E2E2E2E2E2E2E2E2E2E2E2E2E2E2E2F5E2E2E2E2E2E2E2E2E2E2E2E2E2E2E2E2E2E2E2E2E2E2E2E2E2E2E2E2E2E2E2E2E2E2E2E2E2E2E2E2E2E2E2E2E2E2E2E2E2E2E2E2E2E2E2E2E2E2E2E2E2E2E2E2E2E2E2E2E2E2E2E2E2E2E2E2E2E2E2E2E2E2E2E2
310
E2E2E2E2E2E2E2E2E2E2E2E2E2E2E2E2E2E2E2E2E2E2E2E2E2E2E2E2E2E2E2E2E2E2E2E2E2E2E2E2E2E2E2E2E2E2E2E2E2E2E2E2E2E2E2E2E2E2E2E2E2E2E2E2E2E2E2E2E2E2E2E2E2E2E2E2E2E2E2E2E2E2E2E2E2E2E2E2E2E2E2E2E2E2E2E2E2E2E2E2E2E2E2E2E2E2E2E2E2E2E2E2F5E2E2E2E2E2E2E2E2E2E2E22DE2E2
310
E2E2E2E2E2E2E2E2E2E2E2E2E2E2E2E2E2E2E2E22DE2E2E2E2E22DE2E2E2E2E2E2E2E2E2E2E2E2E2E2E2E2E2F5E2E2E2E2E2E2E2E2E2E2E2E2E2E2E2E2E2E2E2E2E2E2E2E2E2E2E2E2E2E2E2E2E2E2E2E2E2E2E2E2E2E2E2E2E2E2E2E2E2E2E2E2E2E2E2E2E2E2E2E2E2E2E2E2E2E2E2E2E2E2E2E2E2E2E2E2E2E2E2E2E2E2
310
E2E2E2E2E2E2E2E2E2E2E2E2E2E2E2E2E2E2E2E2E2E2E2E2E2E2E2E2E2E2E2E2E2E2E2E2E2E2E2E2E2E2E2E2E2E2E2E2E2E2E2E2E2E2E2E2E2E2E2E2E2E2E2E2E2E2E2E2E2E2E2E2E2E2E2E2E2E2E2E2E2E2E2E2E2E2E2E2E2E2E2E2E2E2E2E2E2E2E2E2E2E2E2E2E2E2E2E2E2E2E2E2E2E2F5E2E2E2E2E2E2E2E2E2E2E22D
310
E2E2E2E2E2E2E2E2E2E2E2E2E2E2E2E2E2E2E2E2E2E22DE2E2E2E2E22DE2E2E2E2E2E2E2E2E2E2E2E2E2E2E2E2E2F5E2E2E2E2E2E2E2E2E2E2E2E2E2E2E2E2E2E2E2E2E2E2E2E2E2E2E2E2E2E2E2E2E2E2E2E2E2E2E2E2E2E2E2E2E2E2E2E2E2E2E2E2E2E2E2E2E2E2E2E2E2E2E2E2E2E2E2E2E2E2E2E2E2E2E2E2E2E2E2E2
310
E2E2E2E2E2E2E2E2E2E2E2E2E2E2E2E2E2E2E2E2E2E2E2E2E2E2E2E2E2E2E2E2E2E2E2E2E2E2E2E2E2E2E2E2E2E2E2E2E2E2E2E2E2E2E2E2E2E2E2E2E2E2E2E2E2E2E2E2E2E2E2E2E2E2E2E2E2E2E2E2E2E2E2E2E2E2E2E2E2E2E2E2E2E2E2E2E2E2E2E2E2E2E2E2E2E2E2E2E2E2E2E2F5F5F5F5F5E2E2E2E2E2E2E2E2E2E2
310
E22DE2E2E2E2E2E2E2E2E2E2E2E2E2E2E2E2E2E2E2E2E2E22DE2E22D2D2D2DE2E2E2E2E2E2E2E2E2E2E2E2F5F5F5F5F5F5E2E2E2E2E2E2E2E2E2E2E2E2E2E2E2E2E2E2E2E2E2E2E2E2E2E2E2E2E2E2E2E2E2E2E2E2E2E2E2E2E2E2E2E2E2E2E2E2E2E2E2E2E2E2E2E2E2E2E2E2E2E2E2E2E2E2E2E2E2E2E2E2E2E2E2E2E2E2
310
E2E2E2E2E2E2E2E2E2E2E2E2E2E2E2E2E2E2E2E2E2E2E2E2E2E2E2E2E2E2E2E2E2E2E2E2E2E2E2E2E2E2E2E2E2E2E2E2E2E2E2E2E2E2E2E2E2E2E2E2E2E2E2E2E2E2E2E2E2E2E2E2E2E2E2E2E2E2E2E2E2E2E2E2E2E2E2E2E2E2E2E2E2E2E2E2E2E2E2E2E2E2E2E2E2E2E2E2E2E2E2E2E2E2F5F5F5F5F5E2E2E2E2E2E2E2E2
310
E2E2E22DE2E2E2E2E2E2E2E2E2E2E2E2E2E2E2E2E2E2E2E2E22DE22D2D2D2D2DE2E2E2E2E2E2E2E2E2E2E2E2E2F5F5F5F5F5F5E2E2E2E2E2E2E2E2E2E2E2E2E2E2E2E2E2E2E2E2E2E2E2E2E2E2E2E2E2E2E2E2E2E2E2E2E2E2E2E2E2E2E2E2E2E2E2E2E2E2E2E2E2E2E2E2E2E2E2E2E2E2E2E2E2E2E2E2E2E2E2E2E2E2E2E2
310
E2E2E2E2E2E2E2E2E2E2E2E2E2E2E2E2E2E2E2E2E2E2E2E2E2E2E2E2E2E2E2E2E2E2E2E2E2E2E2E2E2E2E2E2E2E2E2E2E2E2E2E2E2E2E2E2E2E2E2E2E2E2E2E2E2E2E2E2E2E2E2E2E2E2E2E2E2E2E2E2E2E2E2E2E2E2E2E2E2E2E2E2E2E2E2E2E2E2E2E2E2E2E2E2E2E2E2E2E2E2E2E2E2E2E2E2F5F5F5F5F5E2E2E2E2E2E2
310
E2E2E2E2E22DE2E2E2E2E2E2E2E2E2E2E2E2E2E2E2E2E2E2E2E2E22D2DE2E22D2D2D2DE2E2E2E2E2E2E2E2E2E2E2E2F5F5F5F5F5F5E2E2E2E2E2E2E2E2E2E2E2E2E2E2E2E2E2E2E2E2E2E2E2E2E2E2E2E2E2E2E2E2E2E2E2E2E2E2E2E2E2E2E2E2E2E2E2E2E2E2E2E2E2E2E2E2E2E2E2E2E2E2E2E2E2E2E2E2E2E2E2E2E2E2
310
E2E2E2E2E2E2E2E2E2E2E2E2E2E2E2E2E2E2E2E2E2E2E2E2E2E2E2E2E2E2E2E2E2E2E2E2E2E2E2E2E2E2E2E2E2E2E2E2E2E2E2E2E2E2E2E2E2E2E2E2E2E2E2E2E2E2E2E2E2E2E2E2E2E2E2E2E2E2E2E2E2E2E2E2E2E2E2E2E2E2E2E2E2E2E2E2E2E2E2E2E2E2E2E2E2E2E2E2E2E2E2E2E2E2E2E2E2E2F5F5F5F5F5E2E2E2E2
310
E2E2E2E2E2E2E22D2D2D2DE2E2E2E2E2E2E2E2E2E2E2E2E2E2E2E22D2DE2E2E22D2DE2E22DE2E2E2E2E2E2E2E2E2E2E2E2F5F5F5F5F5F5E2E2E2E2E2E2E2E2E2E2E2E2E2E2E2E2E2E2E2E2E2E2E2E2E2E2E2E2E2E2E2E2E2E2E2E2E2E2E2E2E2E2E2E2E2E2E2E2E2E2E2E2E2E2E2E2E2E2E2E2E2E2E2E2E2E2E2E2E2E2E2E2
310
E2E2E2E2E2E2E2E2E2E2E2E2E2E2E2E2E2E2E2E2E2E2E2E2E2E2E2E2E2E2E2E2E2E2E2E2E2E2E2E2E2E2E2E2E2E2E2E2E2E2E2E2E2E2E2E2E2E2E2E2E2E2E2E2E2E2E2E2E2E2E2E2E2E2E2E2E2E2E2E2E2E2E2E2E2E2E2E2E2E2E2E2E2E2E2E2E2E2E2E2E2E2E2E2E2E2E2E2E2E2E2E2E2E2E2E2E2E2E2E2F5F5F5F5F5E2E2
310
E2E2E2E2E2E2E2E2E2E2E2E2F5E2E2E2E2E2E2E2E2E2E2E2E2E2E2E22DE2E22D2D2D2D2DE2E22DE2E2E2E2E2E2E2E2E2E2E2E2F5F5F5F5F5F5E2E2E2E2E2E2E2E2E2E2E2E2E2E2E2E2E2E2E2E2E2E2E2E2E2E2E2E2E2E2E2E2E2E2E2E2E2E2E2E2E2E2E2E2E2E2E2E2E2E2E2E2E2E2E2E2E2E2E2E2E2E2E2E2E2E2E2E2E2E2
310
E2E2E2E2E2E2E2E2E2E2E2E2E2E2E2E2E2E2E2E2E2E2E2E2E2E2E2E2E2E2E2E2E2E2E2E2E2E2E2E2E2E2E2E2E2E2E2E2E2E2E2E2E2E2E2E2E2E2E2E2E2E2E2E2E2E2E2E2E2E2E2E2E2E2E2E2E2E2E2E2E2E2E2E2E2E2E2E2E2E2E2E2E2E2E2E2E2E2E2E2E2E2E2E2E2E2E2E2E2E2E2E2E2E2E2E2E2E2E2E2E2E2F5F5F5F5F5
310
E2E2E2E2E2E2E2E2E2E2E2E2F5F5F5F5F5E2E2E2E2E2E2E2E2E2E2E22D2DE22D2DE2E2E22DE2E2E22DE2E2E2E2E2E2E2E2E2E2E2E2F5F5F5F5F5F5E2E2E2E2E2E2E2E2E2E2E2E2E2E2E2E2E2E2E2E2E2E2E2E2E2E2E2E2E2E2E2E2E2E2E2E2E2E2E2E2E2E2E2E2E2E2E2E2E2E2E2E2E2E2E2E2E2E2E2E2E2E2E2E2E2E2E2E2
310
E2E2E2E2E2E2E2E2E2E2E2E2E2E2E2E2E2E2E2E2E2E2E2E2E2E2E2E2E2E2E2E2E2E2E2E2E2E2E2E2E2E2E2E2E2E2E2E2E2E2E2E2E2E2E2E2E2E2E2E2E2E2E2E2E2E2E2E2E2E2E2E2E2E2E2E2E2E2E2E2E2E2E2E2E2E2E2E2E2E2E2E2E2E2E2E2E2E2E2E2E2E2E2E2E2E2E2E2E2E2E2E2E2E2E2E2E2E2E2E2E2E2E2E2F5F5F5
310
F5F5E2E2E2E2E2E2E2E2E2E2DCDCF5F5F5F5F5F5F5F5F5F5F5F5F5F5F5F5F5F5F5F5F5F5F5F5F5F5F5F5F5DCDCDCDCE2E2E2E2E2E2E2E2F5F5F5F5F5F5E2E2E2E2E2E2E2E2E2E2E2E2E2E2E2E2E2E2E2E2E2E2E2E2E2E2E2E2E2E2E2E2E2E2E2E2E2E2E2E2E2E2E2E2E2E2E2E2E2E2E2E2E2E2E2E2E2E2E2E2E2E2E2E2E2E2
310
E2E2E2E2E2E2E2E2E2E2E2E2E2E2E2E2E2E2E2E2E2E2E2E2E2E2E2E2E2E2E2E2E2E2E2E2E2E2E2E2E2E2E2E2E2E2E2E2E2E2E2E2E2E2E2E2E2E2E2E2E2E2E2E2E2E2E2E2E2E2E2E2E2E2E2E2E2E2E2E2E2E2E2E2E2E2E2E2E2E2E2E2E2E2E2E2E2E2E2E2E2E2E2E2E2E2E2E2E2E2E2E2E2E2E2E2E2E2E2E2E2E2E2E2E2E2F5
310
F5F5F5F5E2E2E2E2E2E2E2E2E2E2E2E2F5F5F5F5F5E2E2E2E2E2E2E2E2E22D2DE2E2E2E2E2E2E22D2D2D2D2DF52DE2E2E2E2E2E2E2E2E2E2E2F5F5F5F5F5F5E2E2E2E2E2E2E2E2E2E2E2E2E2E2E2E2E2E2E2E2E2E2E2E2E2E2E2E2E2E2E2E2E2E2E2E2E2E2E2E2E2E2E2E2E2E2E2E2E2E2E2E2E2E2E2E2E2E2E2E2E2E2E2E2
310
E2E2E2E2E2E2E2E2E2E2E2E2E2E2E2E2E2E2E2E2E2E2E2E2E2E2E2E2E2E2E2E2E2E2E2E2E2E2E2E2E2E2E2E2E2E2E2E2E2E2E2E2E2E2E2E2E2E2E2E2E2E2E2E2E2E2E2E2E2E2E2E2E2E2E2E2E2E2E2E2E2E2E2E2E2E2E2E2E2E2E2E2E2E2E2E2E2E2E2E2E2E2E2E2E2E2E2E2E2E2E2E2E2E2E2E2E2E2E2E2E2E2E2E2E2E2E2
310
E2F5F5F5F5F5E2E2E2E2E2E2E2E2E2E2E2E2E2F5F5F5E2E2E2E2E2E2E2E2E2E22DE2E2E2E2E22D2D2D2DE2E2E2E2F52DE2E2E2E2E2E2E2E2E2E2E2F5F5F5F5F5F5E2E2E2E2E2E2E2E2E2E2E2E2E2E2E2E2E2E2E2E2E2E2E2E2E2E2E2E2E2E2E2E2E2E2E2E2E2E2E2E2E2E2E2E2E2E2E2E2E2E2E2E2E2E2E2E2E2E2E2E2E2E2
310
E2E2E2E2E2E2E2E2E2E2E2E2E2E2E2E2E2E2E2E2E2E2E2E2E2E2E2E2E2E2E2E2E2E2E2E2E2E2E2E2E2E2E2E2E2E2E2E2E2E2E2E2E2E2E2E2E2E2E2E2E2E2E2E2E2E2E2E2E2E2E2E2E2E2E2E2E2E2E2E2E2E2E2E2E2E2E2E2E2E2E2E2E2E2E2E2E2E2E2E2E2E2E2E2E2E2E2E2E2E2E2E2E2E2E2E2E2E2E2E2E2E2E2E2E2E2E2
310
E2E2E2F5F5F5F5F5E2E2E2E2E2E2E2E2E2E2E2F5F5F5F5E2E2E2E2E2E2E2E2E2E22DE2E2E2E2E2E22D2D2D2DE2E2E2E2F52DE2E2E2E2E2E2E2E2E2E2E2F5F5F5F5F5F5E2E2E2E2E2E2E2E2E2E2E2E2E2E2E2E2E2E2E2E2E2E2E2E2E2E2E2E2E2E2E2E2E2E2E2E2E2E2E2E2E2E2E2E2E2E2E2E2E2E2E2E2E2E2E2E2E2E2E2E2
310
E2E2E2E2E2E2E2E2E2E2E2E2E2E2E2E2E2E2E2E2E2E2E2E2E2E2E2E2E2E2E2E2E2E2E2E2E2E2E2E2E2E2E2E2E2E2E2E2E2E2E2E2E2E2E2E2E2E2E2E2E2E2E2E2E2E2E2E2E2E2E2E2E2E2E2E2E2E2E2E2E2E2E2E2E2E2E2E2E2E2E2E2E2E2E2E2E2E2E2E2E2E2E2E2E2E2E2E2E2E2E2E2E2E2E2E2E2E2E2E2E2E2E2E2E2E2E2
310
E2E2E2E2E2F5F5F5F5F5E2E2E2E2E2E2E2E2E2E2E2F5E2E2E2E2E2E2E2E2E2E2E2E2E22DE2E2E2E2E2E22D2D2D2D2D2DE2E2F52DE2E2E2E2E2E2E2E2E2E2E2F5F5F5F5F5F5E2E2E2E2E2E2E2E2E2E2E2E2E2E2E2E2E2E2E2E2E2E2E2E2E2E2E2E2E2E2E2E2E2E2E2E2E2E2E2E2E2E2E2E2E2E2E2E2E2E2E2E2E2E2E2E2E2E2
310
E2E2E2E2E2E2E2E2E2E2E2E2E2E2E2E2E2E2E2E2E2E2E2E2E2E2E2E2E2E2E2E2E2E2E2E2E2E2E2E2E2E2E2E2E2E2E2E2E2E2E2E2E2E2E2E2E2E2E2E2E2E2E2E2E2E2E2E2E2E2E2E2E2E2E2E2E2E2E2E2E2E2E2E2E2E2E2E2E2E2E2E2E2E2E2E2E2E2E2E2E2E2E2E2E2E2E2E2E2E2E2E2E2E2E2E2E2E2E2E2E2E2E2E2E2E2E2
310
E2E2E2E2E2E2E2E2E2E2E2F5E2E2E2E2E2E2E2E2E2E2E2F5E2E2E2E2E2E2E2E2E2E2E2E2E22DE2E2E2E2E2E22D2D2D2DE22D2D2DF52DE2E2E2E2E2E2E2E2E2E2E2E2E2E2E2E2F5E2E2E2E2E2E2E2E2E2E2E2E2E2E2E2E2E2E2E2E2E2E2E2E2E2E2E2E2E2E2E2E2E2E2E2E2E2E2E2E2E2E2E2E2E2E2E2E2E2E2E2E2E2E2E2E2
310
E2E2E2E2E2E2E2E2E2E2E2E2E2E2E2E2E2E2E2E2E2E2E2E2E2E2E2E2E2E2E2E2E2E2E2E2E2E2E2E2E2E2E2E2E2E2E2E2E2E2E2E2E2E2E2E2E2E2E2E2E2E2E2E2E2E2E2E2E2E2E2E2E2E2E2E2E2E2E2E2E2E2E2E2E2E2E2E2E2E2E2E2E2E2E2E2E2E2E2E2E2E2E2E2E2E2E2E2E2E2E2E2E2E2E2E2E2E2E2E2E2E2E2E2E2E2E2
310
E2E2E2E2E2E2E2E2E2E2E2E2E2F5E2E2E2E2E2E2E2E2E2E2E2F5E2E2E2E2E2E2E2E2E2E2E2E2E22DE2E2E22D2D2D2D2D2D2D2D2D2D2DF52DE2E2E2E2E2E2E2E2E2E2E2E2E2E2E2E2F5E2E2E2E2E2E2E2E2E2E2E2E2E2E2E2E2E2E2E2E2E2E2E2E2E2E2E2E2E2E2E2E2E2E2E2E2E2E2E2E2E2E2E2E2E2E2E2E2E2E2E2E2E2E2
310
E2E2E2E2E2E2E2E2E2E2E2E2E2E2E2E2E2E2E2E2E2E2E2E2E2E2E2E2E2E2E2E2E2E2E2E2E2E2E2E2E2E2E2E2E2E2E2E2E2E2E2E2E2E2E2E2E2E2E2E2E2E2E2E2E2E2E2E2E2E2E2E2E2E2E2E2E2E2E2E2E2E2E2E2E2E2E2E2E2E2E2E2E2E2E2E2E2E2E2E2E2E2E2E2E2E2E2E2E2E2E2E2E2E2E2E2E2E2E2E2E2E2E2E2E2E2E2
310
E2E2E2E2E2E2E2E2E2E2E2E2E2E2E2F5E2E2E2E2E2E2E2E2E2E2E2F5E2E2E2E2E2E2E2E2E2E2E2E2E22DE2E2E2E2E22D2D2D2D2D2D2D2DE2F52DE2E2E2E2E2E2E2E2E2E2E2E2E2E2E2E2F5E2E2E2E2E2E2E2E2E2E2E2E2E2E2E2E2E2E2E2E2E2E2E2E2E2E2E2E2E2E2E2E2E2E2E2E2E2E2E2E2E2E2E2E2E2E2E2E2E2E2E2E2
310
E2E2E2E2E2E2E2E2E2E2E2E2E2E2E2E2E2E2E2E2E2E2E2E2E2E2E2E2E2E2E2E2E2E2E2E2E2E2E2E2E2E2E2E2E2E2E2E2E2E2E2E2E2E2E2E2E2E2E2E2E2E2E2E2E2E2E2E2E2E2E2E2E2E2E2E2E2E2E2E2E2E2E2E2E2E2E2E2E2E2E2E2E2E2E2E2E2E2E2E2E2E2E2E2E2E2E2E2E2E2E2E2E2E2E2E2E2E2E2E2E2E2E2E2E2E2E2
310
E2E2E2E2E2E2E2E2E2E2E2E2E2E2E2E2E2F5E2E2E2E2E2E2E2E2E2E2E2F5E2E2E2E2E2E2E2E2E2E2E2E2E22D2D2D2D2D2D2D2D2D2D2D2D2D2D2DF52DE2E2E2E2E2E2E2E2E2E2E2E2E2E2E2E2F5E2E2E2E2E2E2E2E2E2E2E2E2E2E2E2E2E2E2E2E2E2E2E2E2E2E2E2E2E2E2E2E2E2E2E2E2E2E2E2E2E2E2E2E2E2E2E2E2E2E2
310
E2E2E2E2E2E2E2E2E2E2E2E2E2E2E2E2E2E2E2E2E2E2E2E2E2E2E2E2E2E2E2E2E2E2E2E2E2E2E2E2E2E2E2E2E2E2E2E2E2E2E2E2E2E2E2E2E2E2E2E2E2E2E2E2E2E2E2E2E2E2E2E2E2E2E2E2E2E2E2E2E2E2E2E2E2E2E2E2E2E2E2E2E2E2E2E2E2E2E2E2E2E2E2E2E2E2E2E2E2E2E2E2E2E2E2E2E2E2E2E2E2E2E2E2E2E2E2
310
E2E2E2E2E2E2E2E2E2E2E2E2E2E2E2E2E2E2F5F5F5F5F5F5F5F5F5F5F5F5F5F5F5F5F5F5E2E2E2E2E2E2E2E2E2E2E2E2E2E2E2E2E2E22D2D2D2D2DE2F52DE2E2E2E2E2E2E2E2E2E2E2E2E2E2E2E2F5E2E2E2E2E2E2E2E2E2E2E2E2E2E2E2E2E2E2E2E2E2E2E2E2E2E2E2E2E2E2E2E2E2E2E2E2E2E2E2E2E2E2E2E2E2E2E2E2
310
E2E2E2E2E2E2E2E2E2E2E2E2E2E2E2E2E2E2E2E2E2E2E2E2E2E2E2E2E2E2E2E2E2E2E2E2E2E2E2E2E2E2E2E2E2E2E2E2E2E2E2E2E2E2E2E2E2E2E2E2E2E2E2E2E2E2E2E2E2E2E2E2E2E2E2E2E2E2E2E2E2E2E2E2E2E2E2E2E2E2E2E2E2E2E2E2E2E2E2E2E2E2E2E2E2E2E2E2E2E2E2E2E2E2E2E2E2E2E2E2E2E2E2E2E2E2E2
310
E2E2E2E2E2E2E2E2E2E2E2E2E2E2E2E2E2E2E2E2E2E2E2E2E2E2E2E2E2E2E2E2E2F5E2E2E2E2E2E2E2E2E2E2E2E2E2E2E2E2E2E2E2E2E2E2E22DE2E2E2E2F52DE2E2E2E2E2E2E2E2E2E2E2E2E2E2E2E2F5E2E2E2E2E2E2E2E2E2E2E2E2E2E2E2E2E2E2E2E2E2E2E2E2E2E2E2E2E2E2E2E2E2E2E2E2E2E2E2E2E2E2E2E2E2E2
310
E2E2E2E2E2E2E2E2E2E2E2E2E2E2E2E2E2E2E2E2E2E2E2E2E2E2E2E2E2E2E2E2E2E2E2E2E2E2E2E2E2E2E2E2E2E2E2E2E2E2E2E2E2E2E2E2E2E2E2E2E2E2E2E2E2E2E2E2E2E2E2E2E2E2E2E2E2E2E2E2E2E2E2E2E2E2E2E2E2E2E2E2E2E2E2E2E2E2E2E2E2E2E2E2E2E2E2E2E2E2E2E2E2E2E2E2E2E2E2E2E2E2E2E2E2E2E2
310
E2E2E2E2E2E2E2E2E2E2E2E2E2E2E2E2E2E2E2E2E2E2E2E2E2E2E2E2E2E2E2E2E2E2E2F5E2E2E2E2E2E2E2E2E2E2E2E2E2E2E2E2E2E2E2E2E2E22D2DE2E2E22DF52DE2E2E2E2E2E2E2E2E2E2E2E2E2E2E2E2F5E2E2E2E2E2E2E2E2E2E2E2E2E2E2E2E2E2E2E2E2E2E2E2E2E2E2E2E2E2E2E2E2E2E2E2E2E2E2E2E2E2E2E2E2
310
E2E2E2E2E2E2E2E2E2E2E2E2E2E2E2E2E2E2E2E2E2E2E2E2E2E2E2E2E2E2E2E2E2E2E2E2E2E2E2E2E2E2E2E2E2E2E2E2E2E2E2E2E2E2E2E2E2E2E2E2E2E2E2E2E2E2E2E2E2E2E2E2E2E2E2E2E2E2E2E2E2E2E2E2E2E2E2E2E2E2E2E2E2E2E2E2E2E2E2E2E2E2E2E2E2E2E2E2E2E2E2E2E2E2E2E2E2E2E2E2E2E2E2E2E2E2E2
310
E2E2E2E2E2E2E2E2E2E2E2E2E2E2E2E2E2E2E2E2E2E2E2E2E2E2E2E2E2E2E2E2E2E2E2E2E2F5E2E2E2E2E2E2E2E2E2E2E2E2E2E2E2E2E2E2E2E2E2E22DE2E22D2D2DF5E2E2E2E2E2E2E2E2E2E2E2E2E2E2E2E2E2F5E2E2E2E2E2E2E2E2E2E2E2E2E2E2E2E2E2E2E2E2E2E2E2E2E2E2E2E2E2E2E2E2E2E2E2E2E2E2E2E2E2E2
310
E2E2E2E2E2E2E2E2E2E2E2E2E2E2E2E2E2E2E2E2E2E2E2E2E2E2E2E2E2E2E2E2E2E2E2E2E2E2E2E2E2E2E2E2E2E2E2E2E2E2E2E2E2E2E2E2E2E2E2E2E2E2E2E2E2E2E2E2E2E2E2E2E2E2E2E2E2E2E2E2E2E2E2E2E2E2E2E2E2E2E2E2E2E2E2E2E2E2E2E2E2E2E2E2E2E2E2E2E2E2E2E2E2E2E2E2E2E2E2E2E2E2E2E2E2E2E2
310
E2E2E2E2E2E2E2E2E2E2E2E2E2E2E2E2E2E2E2E2E2E2E2E2E2E2E2E2E2E2E2E2E2E2E2E2E2E2E2F5E2E2E2E2E2E2E2E2E2E2E2E2E2E2E2E2E2E2E2E2E2E22D2D2D2D2DE2F5E2E2E2E2E2E2E2E2E2E2E2E2E2E2E2E2E2F5E2E2E2E2E2E2E2E2E2E2E2E2E2E2E2E2E2E2E2E2E2E2E2E2E2E2E2E2E2E2E2E2E2E2E2E2E2E2E2E2
310
E2E2E2E2E2E2E2E2E2E2E2E2E2E2E2E2E2E2E2E2E2E2E2E2E2E2E2E2E2E2E2E2E2E2E2E2E2E2E2E2E2E2E2E2E2E2E2E2E2E2E2E2E2E2E2E2E2E2E2E2E2E2E2E2E2E2E2E2E2E2E2E2E2E2E2E2E2E2E2E2E2E2E2E2E2E2E2E2E2E2E2E2E2E2E2E2E2E2E2E2E2E2E2E2E2E2E2E2E2E2E2E2E2E2E2E2E2E2E2E2E2E2E2E2E2E2E2
310
E2E2E2E2E2E2E2E2E2E2E2E2E2E2E2E2E2E2E2E2E2E2E2E2E2E2E2E2E2E2E2E2E2E2E2E2E2E2E2E2E2F5E2E2E2E2E2E2E2E2E2E2E2E2E2E2E2E2E2E2E2E2E2E2E2E22DE2E2E2F5E2E2E2E2E2E2E2E2E2E2E2E2E2E2E2E2E2F5E2E2E2E2E2E2E2E2E2E2E2E2E2E2E2E2E2E2E2E2E2E2E2E2E2E2E2E2E2E2E2E2E2E2E2E2E2E2
310
E2E2E2E2E2E2E2E2E2E2E2E2E2E2E2E2E2E2E2E2E2E2E2E2E2E2E2E2E2E2E2E2E2E2E2E2E2E2E2E2E2E2E2E2E2E2E2E2E2E2E2E2E2E2E2E2E2E2E2E2E2E2E2E2E2E2E2E2E2E2E2E2E2E2E2E2E2E2E2E2E2E2E2E2E2E2E2E2E2E2E2E2E2E2E2E2E2E2E2E2E2E2E2E2E2E2E2E2E2E2E2E2E2E2E2E2E2E2E2E2E2E2E2E2E2E2E2
310
E2E2E2E2E2E2E2E2E2E2E2E2E2E2E2E2E2E2E2E2E2E2E2E2E2E2E2E2E2E2E2E2E2E2E2E2E2E2E2E2E2E2E2F5E2E2E2E2E2E2E2E2E2E2E2E2E2E2E2E2E2E2E2E2E2E2E22D2DE2E2E2F5E2E2E2E2E2E2E2E2E2E2E2E2E2E2E2E2E2F5E2E2E2E2E2E2E2E2E2E2E2E2E2E2E2E2E2E2E2E2E2E2E2E2E2E2E2E2E2E2E2E2E2E2E2E2
310
E2E2E2E2E2E2E2E2E2E2E2E2E2E2E2E2E2E2E2E2E2E2E2E2E2E2E2E2E2E2E2E2E2E2E2E2E2E2E2E2E2E2E2E2E2E2E2E2E2E2E2E2E2E2E2E2E2E2E2E2E2E2E2E2E2E2E2E2E2E2E2E2E2E2E2E2E2E2E2E2E2E2E2E2E2E2E2E2E2E2E2E2E2E2E2E2E2E2E2E2E2E2E2E2E2E2E2E2E2E2E2E2E2E2E2E2E2E2E2E2E2E2E2E2E2E2E2
310
E2E2E2E2E2E2E2E2E2E2E2E2E2E2E2E2E2E2E2E2E2E2E2E2E2E2E2E2E2E2E2E2E2E2E2E2E2E2E2E2E2E2E2E2E2F5E2E2E2E2E2E2E2E2E2E2E2E2E2E2E2E2E2E2E2E2E2E2E22DE2E2E22DF5E2E2E2E2E2E2E2E2E2E2E2E2E2E2E2E2E2F5E2E2E2E2E2E2E2E2E2E2E2E2E2E2E2E2E2E2E2E2E2E2E2E2E2E2E2E2E2E2E2E2E2E2
310
E2E2E2E2E2E2E2E2E2E2E2E2E2E2E2E2E2E2E2E2E2E2E2E2E2E2E2E2E2E2E2E2E2E2E2E2E2E2E2E2E2E2E2E2E2E2E2E2E2E2E2E2E2E2E2E2E2E2E2E2E2E2E2E2E2E2E2E2E2E2E2E2E2E2E2E2E2E2E2E2E2E2E2E2E2E2E2E2E2E2E2E2E2E2E2E2E2E2E2E2E2E2E2E2E2E2E2E2E2E2E2E2E2E2E2E2E2E2E2E2E2E2E2E2E2E2E2
310
E2E2E2E2E2E2E2E2E2E2E2E2E2E2E2E2E2E2E2E2E2E2E2E2E2E2E2E2E2E2E2E2E2E2E2E2E2E2E2E2E2E2E2E2E2E2E2F5E2E2E2E2E2E2E2E2E2E2E2E2E2E2E2E2E2E2E2E2E2E2E22DE22D2DE2F5E2E2E2E2E2E2E2E2E2E2E2E2E2E2E2E2E2F5E2E2E2E2E2E2E2E2E2E2E2E2E2E2E2E2E2E2E2E2E2E2E2E2E2E2E2E2E2E2E2E2
310
E2E2E2E2E2E2E2E2E2E2E2E2E2E2E2E2E2E2E2E2E2E2E2E2E2E2E2E2E2E2E2E2E2E2E2E2E2E2E2E2E2E2E2E2E2E2E2E2E2E2E2E2E2E2E2E2E2E2E2E2E2E2E2E2E2E2E2E2E2E2E2E2E2E2E2E2E2E2E2E2E2E2E2E2E2E2E2E2E2E2E2E2E2E2E2E2E2E2E2E2E2E2E2E2E2E2E2E2E2E2E2E2E2E2E2E2E2E2E2E2E2E2E2E2E2E2E2
310
E2E2E2E2E2E2E2E2E2E2E2E2E2E2E2E2E2E2E2E2E2E2E2E2E2E2E2E2E2E2E2E2E2E2E2E2E2E2E2E2E2E2E2E2E2E2E2E2E2F5E2E2E2E2E2E2E2E2E2E2E2E2E2E2E2E2E2E2E2E2E2E2E22DE22D2D2DF5E2E2E2E2E2E2E2E2E2E2E2E2E2E2E2E2E2F5E2E2E2E2E2E2E2E2E2E2E2E2E2E2E2E2E2E2E2E2E2E2E2E2E2E2E2E2E2E2
310
E2E2E2E2E2E2E2E2E2E2E2E2E2E2E2E2E2E2E2E2E2E2E2E2E2E2E2E2E2E2E2E2E2E2E2E2E2E2E2E2E2E2E2E2E2E2E2E2E2E2E2E2E2E2E2E2E2E2E2E2E2E2E2E2E2E2E2E2E2E2E2E2E2E2E2E2E2E2E2E2E2E2E2E2E2E2E2E2E2E2E2E2E2E2E2E2E2E2E2E2E2E2E2E2E2E2E2E2E2E2E2E2E2E2E2E2E2E2E2E2E2E2E2E2E2E2E2
310
E2E2E2E2E2E2E2E2E2E2E2E2E2E2E2E2E2E2E2E2E2E2E2E2E2E2E2E2E2E2E2E2E2E2E2E2E2E2E2E2E2E2E2E2E2E2E2E2E2E2E2F5F5F5F5F5F5F5F5F5F5F5E2E2E2E2E2E2E2E2E2E2E2E22DE22D2DE22DF5E2E2E2E2E2E2E2E2E2E2E2E2E2E2E2E2E2F5E2E2E2E2E2E2E2E2E2E2E2E2E2E2E2E2E2E2E2E2E2E2E2E2E2E2E2E2
310
E2E2E2E2E2E2E2E2E2E2E2E2E2E2E2E2E2E2E2E2E2E2E2E2E2E2E2E2E2E2E2E2E2E2E2E2E2E2E2E2E2E2E2E2E2E2E2E2E2E2E2E2E2E2E2E2E2E2E2E2E2E2E2E2E2E2E2E2E2E2E2E2E2E2E2E2E2E2E2E2E2E2E2E2E2E2E2E2E2E2E2E2E2E2E2E2E2E2E2E2E2E2E2E2E2E2E2E2E2E2E2E2E2E2E2E2E2E2E2E2E2E2E2E2E2E2E2
310
E2E2E2E2E2E2E2E2E2E2E2E2E2E2E2E2E2E2E2E2E2E2E2E2E2E2E2E2E2E2E2E2E2E2E2E2E2E2E2E2E2E2E2E2E2E2E2E2E2E2E2E2E2F5E2E2E2E2E2E2E2E2E2F5F5E2E2E2E2E2E2E2E2E2E2E22D2DE22D2D2DF52DE2E2E2E2E2E2E2E2E2E2E2E2E2E2E2E2F5E2E2E2E2E2E2E2E2E2E2E2E2E2E2E2E2E2E2E2E2E2E2E2E2E2E2
310
E2E2E2E2E2E2E2E2E2E2E2E2E2E2E2E2E2E2E2E2E2E2E2E2E2E2E2E2E2E2E2E2E2E2E2E2E2E2E2E2E2E2E2E2E2E2E2E2E2E2E2E2E2E2E2E2E2E2E2E2E2E2E2E2E2E2E2E2E2E2E2E2E2E2E2E2E2E2E2E2E2E2E2E2E2E2E2E2E2E2E2E2E2E2E2E2E2E2E2E2E2E2E2E2E2E2E2E2E2E2E2E2E2E2E2E2E2E2E2E2E2E2E2E2E2E2E2
310
E2E2E2E2E2E2E2E2E2E2E2E2E2E2E2E2E2E2E2E2E2E2E2E2E2E2E2E2E2E2E2E2E2E2E2E2E2E2E2E2E2E2E2E2E2E2E2E2E2E2E2E2E2E2E2F5E2E2E2E2E2E2E2E2E2E2F5E2E2E2E2E2E2E2E2E2E22DBEBEBEBE2D2DF52DE2E2E2E2E2E2E2E2E2E2E2E2E2E2E2E2F5E2E2E2E2E2E2E2E2E2E2E2E2E2E2E2E2E2E2E2E2E2E2E2E2
310
E2E2E2E2E2E2E2E2E2E2E2E2E2E2E2E2E2E2E2E2E2E2E2E2E2E2E2E2E2E2E2E2E2E2E2E2E2E2E2E2E2E2E2E2E2E2E2E2E2E2E2E2E2E2E2E2E2E2E2E2E2E2E2E2E2E2E2E2E2E2E2E2E2E2E2E2E2E2E2E2E2E2E2E2E2E2E2E2E2E2E2E2E2E2E2E2E2E2E2E2E2E2E2E2E2E2E2E2E2E2E2E2E2E2E2E2E2E2E2E2E2E2E2E2E2E2E2
310
E2E2E2E2E2E2E2E2E2E2E2E2E2E2E2E2E2E2E2E2E2E2E2E2E2E2E2E2E2E2E2E2E2E2E2E2E2E2E2E2E2E2E2E2E2E2E2E2E2E2E2E2E2E2E2E2E2F5E2E2E2E2E2E2E2E2E2E2F5E2E2E2E2E2E2E2E22D2D2DBE2D2D2DBE2DF52DE2E2E2E2E2E2E2E2E2E2E2E2E2E2E2E2F5E2E2E2E2E2E2E2E2E2E2E2E2E2E2E2E2E2E2E2E2E2E2
310
E2E2E2E2E2E2E2E2E2E2E2E2E2E2E2E2E2E2E2E2E2E2E2E2E2E2E2E2E2E2E2E2E2E2E2E2E2E2E2E2E2E2E2E2E2E2E2E2E2E2E2E2E2E2E2E2E2E2E2E2E2E2E2E2E2E2E2E2E2E2E2E2E2E2E2E2E2E2E2E2E2E2E2E2E2E2E2E2E2E2E2E2E2E2E2E2E2E2E2E2E2E2E2E2E2E2E2E2E2E2E2E2E2E2E2E2E2E2E2E2E2E2E2E2E2E2E2
310
E2E2E2E2E2E2E2E2E2E2E2E2E2E2E2E2E2E2E2E2E2E2E2E2E2E2E2E2E2E2E2E2E2E2E2E2E2E2E2E2E2E2E2E2E2E2E2E2E2E2E2E2E2E2E2E2E2E2E2F5E2E2E2E2E2E2E2E2E2E2E2F5E2E2E2E2E22D2D2DE2BE2D2D2D2D2DBEF52DE2E2E2E2E2E2E2E2E2E2E2E2E2E2E2E2F5E2E2E2E2E2E2E2E2E2E2E2E2E2E2E2E2E2E2E2E2
310
E2E2E2E2E2E2E2E2E2E2E2E2E2E2E2E2E2E2E2E2E2E2E2E2E2E2E2E2E2E2E2E2E2E2E2E2E2E2E2E2E2E2E2E2E2E2E2E2E2E2E2E2E2E2E2E2E2E2E2E2E2E2E2E2E2E2E2E2E2E2E2E2E2E2E2E2E2E2E2E2E2E2E2E2E2E2E2E2E2E2E2E2E2E2E2E2E2E2E2E2E2E2E2E2E2E2E2E2E2E2E2E2E2E2E2E2E2E2E2E2E2E2E2E2E2E2E2
310
E2E2E2E2E2E2E2E2E2E2E2E2E2E2E2E2E2E2E2E2E2E2E2E2E2E2E2E2E2E2E2E2E2E2E2E2E2E2E2E2E2E2E2E2E2E2E2E2E2E2E2E2E2E2E2E2E2E2E2E2E2F5E2E2E2E2E2E2E2E2E2E2E2F5E2E22D2D2D2D2D2DBE2D2D2D2D2D2DE2BE2DE2E2E2E2E2E2E2E2E2E2E2E2E2E2E2E2F5E2E2E2E2E2E2E2E2E2E2E2E2E2E2E2E2E2E2
310
E2E2E2E2E2E2E2E2E2E2E2E2E2E2E2E2E2E2E2E2E2E2E2E2E2E2E2E2E2E2E2E2E2E2E2E2E2E2E2E2E2E2E2E2E2E2E2E2E2E2E2E2E2E2E2E2E2E2E2E2E2E2E2E2E2E2E2E2E2E2E2E2E2E2E2E2E2E2E2E2E2E2E2E2E2E2E2E2E2E2E2E2E2E2E2E2E2E2E2E2E2E2E2E2E2E2E2E2E2E2E2E2E2E2E2E2E2E2E2E2E2E2E2E2E2E2E2
310
E2E2E2E2E2E2E2E2E2E2E2E2E2E2E2E2E2E2E2E2E2E2E2E2E2E2E2E2E2E2E2E2E2E2E2E2E2E2E2E2E2E2E2E2E2E2E2E2E2E2E2E2E2E2E2E2E2E2E2E2E2E2E2F5E2E2E2E2E2E2E2E2E2E2E2F5E22D2DE2E2E22DBE2D2D2D2D2D2D2D2DF5BEE2E2E2E2E2E2E2E2E2E2E2E2E2E2E2E2F5E2E2E2E2E2E2E2E2E2E2E2E2E2E2E2E2
310
E2E2E2E2E2E2E2E2E2E2E2E2E2E2E2E2E2E2E2E2E2E2E2E2E2E2E2E2E2E2E2E2E2E2E2E2E2E2E2E2E2E2E2E2E2E2E2E2E2E2E2E2E2E2E2E2E2E2E2E2E2E2E2E2E2E2E2E2E2E2E2E2E2E2E2E2E2E2E2E2E2E2E2E2E2E2E2E2E2E2E2E2E2E2E2E2E2E2E2E2E2E2E2E2E2E2E2E2E2E2E2E2E2E2E2E2E2E2E2E2E2E2E2E2E2E2E2
310
E2E2E2E2E2E2E2E2E2E2E2E2E2E2E2E2E2E2E2E2E2E2E2E2E2E2E2E2E2E2E2E2E2E2E2E2E2E2E2E2E2E2E2E2E2E2E2E2E2E2E2E2E2E2E2E2E2E2E2E2E2E2E2E2E2F5E2E2E2E2E2E2E2E2E2E2E2F5E22DE2E2E2E2BE2D2D2D2D2D2D2DE22DF5F5F5F5F5F5F5F5F5F5F5F5F5F5F5F5F5F5F5F5E2E2E2E2E2E2E2E2E2E2E2E2E2
310
E2E2E2E2E2E2E2E2E2E2E2E2E2E2E2E2E2E2E2E2E2E2E2E2E2E2E2E2E2E2E2E2E2E2E2E2E2E2E2E2E2E2E2E2E2E2E2E2E2E2E2E2E2E2E2E2E2E2E2E2E2E2E2E2E2E2E2E2E2E2E2E2E2E2E2E2E2E2E2E2E2E2E2E2E2E2E2E2E2E2E2E2E2E2E2E2E2E2E2E2E2E2E2E2E2E2E2E2E2E2E2E2E2E2E2E2E2E2E2E2E2E2E2E2E2E2E2
310
E2E2E2E2E2E2E2E2E2E2E2E2E2E2E2E2E2E2E2E2E2E2E2E2E2E2E2E2E2E2E2E2E2E2E2E2E2E2E2E2E2E2E2E2E2E2E2E2E2E2E2E2E2E2E2E2E2E2E2E2E2E2E2E2E2E2E2F5E2E2E2E2E2E2E2E2E2E2E2E2F52DE2E2E2E2BEBEE22D2DE2E22D2D2DF5F5E2E2E2E2E2F5F5E2E2E2E2E2E2E2E2E2E2E2E2E2E2E2E2E2E2E2E2E2E2
310
E2E2E2E2E2E2E2E2E2E2E2E2E2E2E2E2E2E2E2E2E2E2E2E2E2E2E2E2E2E2E2E2E2E2E2E2E2E2E2E2E2E2E2E2E2E2E2E2E2E2E2E2E2E2E2E2E2E2E2E2E2E2E2E2E2E2E2E2E2E2E2E2E2E2E2E2E2E2E2E2E2E2E2E2E2E2E2E2E2E2E2E2E2E2E2E2E2E2E2E2E2E2E2E2E2E2E2E2E2E2E2E2E2E2E2E2E2E2E2E2E2E2E2E2E2E2E2
310
E2E2E2E2E2E2E2E2E2E2E2E2E2E2E2E2E2E2E2E2E2E2E2E2E2E2E2E2E2E2E2E2E2E2E2E2E2E2E2E2E2E2E2E2E2E2E2E2E2E2E2E2E2E2E2E2E2E2E2E2E2E2E2E2E2E2E2E2E2F5E2E2E2E2E2E2E2E2E2E2E2E2F52D2D2D2D2D2D2DBE2D2D2DE22D2DF5BEF5E2E2E2E2E2F5F5F5F5E2E2E2E2E2E2E2E2E2E2E2E2E2E2E2E2E2E2
310
E2E2E2E2E2E2E2E2E2E2E2E2E2E2E2E2E2E2E2E2E2E2E2E2E2E2E2E2E2E2E2E2E2E2E2E2E2E2E2E2E2E2E2E2E2E2E2E2E2E2E2E2E2E2E2E2E2E2E2E2E2E2E2E2E2E2E2E2E2E2E2E2E2E2E2E2E2E2E2E2E2E2E2E2E2E2E2E2E2E2E2E2E2E2E2E2E2E2E2E2E2E2E2E2E2E2E2E2E2E2E2E2E2E2E2E2E2E2E2E2E2E2E2E2E2E2E2
310
E2E2E2E2E2E2E2E2E2E2E2E2E2E2E2E2E2E2E2E2E2E2E2E2E2E2E2E2E2E2E2E2E2E2E2E2E2E2E2E2E2E2E2E2E2E2E2E2E2E2E2E2E2E2E2E2E2E2E2E2E2E2E2E2E2E2E2E2E2E2E2F5E2E2E2E2E2E2E2E2E2E2E2E2F5F5E2E2E2E2E2E2E2BE2D2D2DF5F5F5E2F5E2E2E2E2F5F5F5F5F5F5E2E2E2E2E2E2E2E2E2E2E2E2E2E2E2
310
E2E2E2E2E2E2E2E2E2E2E2E2E2E2E2E2E2E2E2E2E2E2E2E2E2E2E2E2E2E2E2E2E2E2E2E2E2E2E2E2E2E2E2E2E2E2E2E2E2E2E2E2E2E2E2E2E2E2E2E2E2E2E2E2E2E2E2E2E2E2E2E2E2E2E2E2E2E2E2E2E2E2E2E2E2E2E2E2E2E2E2E2E2E2E2E2E2E2E2E2E2E2E2E2E2E2E2E2E2E2E2E2E2E2E2E2E2E2E2E2E2E2E2E2E2E2E2
310
E2E2E2E2E2E2E2E2E2E2E2E2E2E2E2E2E2E2E2E2E2E2E2E2E2E2E2E2E2E2E2E2E2E2E2E2E2E2E2E2E2E2E2E2E2E2E2E2E2E2E2E2E2E2F0E2E2E2E2E2E2E2E2E2E2E2E2E2E2E2E2E2E2F5E2E2E2E2E2E2E2E2E2E2E2E2E2F5F5E2E2E2E2E2E2E2BE2D2DF5BEF5E2F5E2E2E2F5F5F5F5F5F5E2E2E2E2E2E2E2E2E2E2E2E2E2E2
310
E2E2E2E2E2E2E2E2E2E2E2E2E2E2E2E2E2E2E2E2E2E2E2E2E2E2E2E2E2E2E2E2E2E2E2E2E2E2E2E2E2E2E2E2E2E2E2E2E2E2E2E2E2E2E2E2E2E2E2E2E2E2E2E2E2E2E2E2E2E2E2E2E2E2E2E2E2E2E2E2E2E2E2E2E2E2E2E2E2E2E2E2E2E2E2E2E2E2E2E2E2E2E2E2E2E2E2E2E2E2E2E2E2E2E2E2E2E2E2E2E2E2E2E2E2E2E2
310
E2E2E2E2E2E2E2E2E2E2E2E2E2E2E2E2E2E2E2E2E2E2E2E2E2E2E2E2E2E2E2E2E2E2E2E2E2E2E2E2E2E2E2E2E2E2E2E2E2E2E2E2E2E2E2E2F0E2E2E2E2E2E2E2E2E2E2E2E2E2E2E2E2E2E2F5E2E2E2E2E2E2E2E2E2E2E2E2E2E2F5F5F5F5F5F5F5F5F5BEBEF5F5F5E2F5E2E2F5F5F5F5F5F5E2E2E2E2E2E2E2E2E2E2E2E2E2
310
E2E2E2E2E2E2E2E2E2E2E2E2E2E2E2E2E2E2E2E2E2E2E2E2E2E2E2E2E2E2E2E2E2E2E2E2E2E2E2E2E2E2E2E2E2E2E2E2E2E2E2E2E2E2E2E2E2E2E2E2E2E2E2E2E2E2E2E2E2E2E2E2E2E2E2E2E2E2E2E2E2E2E2E2E2E2E2E2E2E2E2E2E2E2E2E2E2E2E2E2E2E2E2E2E2E2E2E2E2E2E2E2E2E2E2E2E2E2E2E2E2E2E2E2E2E2E2
310
E2E2E2E2E2E2E2E2E2E2E2E2E2E2E2E2E2E2E2E2E2E2E2E2E2E2E2E2E2E2E2E2E2E2E2E2E2E2E2E2E2E2E2E2E2E2E2E2E2E2E2E2E2E2E2E2E2E2F0E2E2E2E2E2E2E2E2E2E2E2E2E2E2E2E2E2E2F5E2E2E2E2E2E2E2E2E2E2E2E2E2E2E2E2E2E2E2E2E2E2E2E2F5F5F5F5F5F5E2E2F5F5F5F5F5E2E2E2E2E2E2E2E2E2E2E2E2
310
E2E2E2E2E2E2E2E2E2E2E2E2E2E2E2E2E2E2E2E2E2E2E2E2E2E2E2E2E2E2E2E2E2E2E2E2E2E2E2E2E2E2E2E2E2E2E2E2E2E2E2E2E2E2E2E2E2E2E2E2E2E2E2E2E2E2E2E2E2E2E2E2E2E2E2E2E2E2E2E2E2E2E2E2E2E2E2E2E2E2E2E2E2E2E2E2E2E2E2E2E2E2E2E2E2E2E2E2E2E2E2E2E2E2E2E2E2E2E2E2E2E2E2E2E2E2E2
310
E2E2E2E2E2E2E2E2E2E2E2E2E2E2E2E2E2E2E2E2E2E2E2E2E2E2E2E2E2E2E2E2E2E2E2E2E2E2E2E2E2E2E2E2E2E2E2E2E2E2E2E2E2E2E2E2E2E2E2E2F0E2E2E2E2E2E2E2E2E2E2E2E2E2E2E2E2E2E2F5E2E2E2E2E2E2E2E2E2E2E2E2E2E2E2E2E2E2E2E2E2E2E2F5E2F5E2F5E2F5E2F5F5F5F5F5E2E2E2E2E2E2E2E2E2E2E2
310
E2E2E2E2E2E2E2E2E2E2E2E2E2E2E2E2E2E2E2E2E2E2E2E2E2E2E2E2E2E2E2E2E2E2E2E2E2E2E2E2E2E2E2E2E2E2E2E2E2E2E2E2E2E2E2E2E2E2E2E2E2E2E2E2E2E2E2E2E2E2E2E2E2E2E2E2E2E2E2E2E2E2E2E2E2E2E2E2E2E2E2E2E2E2E2E2E2E2E2E2E2E2E2E2E2E2E2E2E2E2E2E2E2E2E2E2E2E2E2E2E2E2E2E2E2E2E2
310
E2E2E2E2E2E2E2E2E2E2E2E2E2E2E2E2E2E2E2E2E2E2E2E2E2E2E2E2E2E2E2E2E2E2E2E2E2E2E2E2E2E2E2E2E2E2E2E2E2E2E2E2E2E2E2E2E2E2E2E2E2E2F0E2E2E2E2E2E2E2E2E2E2E2E2E2E2E2E2E2E2F5E2E2E2E2E2E2E2E2E2E2E2E2E2E2E2E2E2E2E2E2E2E2F5E2E2F5E2F5E2F5F5F5F5F5F5E2E2E2E2E2E2E2E2E2E2
310
E2E2E2E2E2E2E2E2E2E2E2E2E2E2E2E2E2E2E2E2E2E2E2E2E2E2E2E2E2E2E2E2E2E2E2E2E2E2E2E2E2E2E2E2E2E2E2E2E2E2E2E2E2E2E2E2E2E2E2E2E2E2E2E2E2E2E2E2E2E2E2E2E2E2E2E2E2E2E2E2E2E2E2E2E2E2E2E2E2E2E2E2E2E2E2E2E2E2E2E2E2E2E2E2E2E2E2E2E2E2E2E2E2E2E2E2E2E2E2E2E2E2E2E2E2E2E2
310
E2E2E2E2E2E2E2E2E2E2E2E2E2E2E2E2E2E2E2E2E2E2E2E2E2E2E2E2E2E2E2E2E2E2E2E2E2E2E2E2E2E2E2E2E2E2E2E2E2E2E2E2E2E2E2E2E2E2E2E2E2E2E2E2F0E2E2E2E2E2E2E2E2E2E2E2E2E2E2E2E2E2E2F5E2E2E2E2E2E2E2E2E2E2E2E2E2E2E2E2E2E2E2E2E2F5E2E2E2F5E2F5E2F5E2E2F5F5E2E2E2E2E2E2E2E2E2
310
E2E2E2E2E2E2E2E2E2E2E2E2E2E2E2E2E2E2E2E2E2E2E2E2E2E2E2E2E2E2E2E2E2E2E2E2E2E2E2E2E2E2E2E2E2E2E2E2E2E2E2E2E2E2E2E2E2E2E2E2E2E2E2E2E2E2E2E2E2E2E2E2E2E2E2E2E2E2E2E2E2E2E2E2E2E2E2E2E2E2E2E2E2E2E2E2E2E2E2E2E2E2E2E2E2E2E2E2E2E2E2E2E2E2E2E2E2E2E2E2E2E2E2E2E2E2E2
310
E2E2E2E2E2E2E2E2E2E2E2E2E2E2E2E2E2E2E2E2E2E2E2E2E2E2E2E2E2E2E2E2E2E2E2E2E2E2E2E2E2E2E2E2E2E2E2E2E2E2E2E2E2E2E2E2E2E2E2E2E2E2E2E2E2E2F0E2E2E2E2E2E2E2E2E2E2E2E2E2E2E2E2E2E2F5E2E2E2E2E2E2E2E2E2E2E2E2E2E2E2E2E2E2E2E2F5E2E2E2E2F5E2F5E2F5E2E2E2E2E2E2E2E2E2E2E2
310
E2E2E2E2E2E2E2E2E2E2E2E2E2E2E2E2E2E2E2E2E2E2E2E2E2E2E2E2E2E2E2E2E2E2E2E2E2E2E2E2E2E2E2E2E2E2E2E2E2E2E2E2E2E2E2E2E2E2E2E2E2E2E2E2E2E2E2E2E2E2E2E2E2E2E2E2E2E2E2E2E2E2E2E2E2E2E2E2E2E2E2E2E2E2E2E2E2E2E2E2E2E2E2E2E2E2E2E2E2E2E2E2E2E2E2E2E2E2E2E2E2E2E2E2E2E2E2
310
E2E2E2E2E2E2E2E2E2E2E2E2E2E2E2E2E2E2E2E2E2E2E2E2E2E2E2E2E2E2E2E2E2E2E2E2E2E2E2E2E2E2E2E2E2E2E2E2E2E2E2E2E2E2E2E2E2E2E2E2E2E2E2E2E2E2E2E2F0E2E2E2E2E2E2E2E2E2E2E2E2E2E2E2E2E2E2F5E2E2E2E2E2E2E2E2E2E2E2E2E2E2E2E2E2E2E2F5E2E2E2E2E2F5E2F5E2F5E2E2E2E2E2E2E2E2E2
310
E2E2E2E2E2E2E2E2E2E2E2E2E2E2E2E2E2E2E2E2E2E2E2E2E2E2E2E2E2E2E2E2E2E2E2E2E2E2E2E2E2E2E2E2E2E2E2E2E2E2E2E2E2E2E2E2E2E2E2E2E2E2E2E2E2E2E2E2E2E2E2E2E2E2E2E2E2E2E2E2E2E2E2E2E2E2E2E2E2E2E2E2E2E2E2E2E2E2E2E2E2E2E2E2E2E2E2E2E2E2E2E2E2E2E2E2E2E2E2E2E2E2E2E2E2E2E2
310
E2E2E2E2E2E2E2E2E2E2E2E2E2E2E2E2E2E2E2E2E2E2E2E2E2E2E2E2E2E2E2E2E2E2E2E2E2E2E2E2E2E2E2E2E2E2E2E2E2E2E2E2E2E2E2E2E2E2E2E2E2E2E2E2E2E2E2E2E2E2F0E2E2E2E2E2E2E2E2E2E2E2E2E2E2E2E2E2E2F5E2E2E2E2E2E2E2E2E2E2E2E2E2E2E2E2E2E2F5E2E2E2E2E2E2F5E2F5E2F5E2E2E2E2E2E2E2
310
E2E2E2E2E2E2E2E2E2E2E2E2E2E2E2E2E2E2E2E2E2E2E2E2E2E2E2E2E2E2E2E2E2E2E2E2E2E2E2E2E2E2E2E2E2E2E2E2E2E2E2E2E2E2E2E2E2E2E2E2E2E2E2E2E2E2E2E2E2E2E2E2E2E2E2E2E2E2E2E2E2E2E2E2E2E2E2E2E2E2E2E2E2E2E2E2E2E2E2E2E2E2E2E2E2E2E2E2E2E2E2E2E2E2E2E2E2E2E2E2E2E2E2E2E2E2E2
310
E2E2E2E2E2E2E2E2E2E2E2E2E2E2E2E2E2E2E2E2E2E2E2E2E2E2E2E2E2E2E2E2E2E2E2E2E2E2E2E2E2E2E2E2E2E2E2E2E2E2E2E2E2E2E2E2E2E2E2E2E2E2E2E2E2E2E2E2E2E2E2E2F0E2E2E2E2E2E2E2E2E2E2E2E2E2E2E2E2E2E2F5E2E2E2E2E2E2E2E2E2E2E2E2E2E2E2E2E2F5E2E2E2E2E2E2E2F5E2F5E2F5E2E2E2E2E2
310
E2E2E2E2E2E2E2E2E2E2E2E2E2E2E2E2E2E2E2E2E2E2E2E2E2E2E2E2E2E2E2E2E2E2E2E2E2E2E2E2E2E2E2E2E2E2E2E2E2E2E2E2E2E2E2E2E2E2E2E2E2E2E2E2E2E2E2E2E2E2E2E2E2E2E2E2E2E2E2E2E2E2E2E2E2E2E2E2E2E2E2E2E2E2E2E2E2E2E2E2E2E2E2E2E2E2E2E2E2E2E2E2E2E2E2E2E2E2E2E2E2E2E2E2E2E2E2
310
E2E2E2E2E2E2E2E2E2E2E2E2E2E2E2E2E2E2E2E2E2E2E2E2E2E2E2E2E2E2E2E2E2E2E2E2E2E2E2E2E2E2E2E2E2E2E2E2E2E2E2E2E2E2E2E2E2E2E2E2E2E2E2E2E2E2E2E2E2E2E2E2E2E2F0E2E2E2E2E2E2E2E2E2E2E2E2E2E2E2E2E2E2F5E2E2E2E2E2E2E2E2E2E2E2E2E2E2E2E2F5E2E2E2E2E2E2F5F5F5F5F5E2F5F5F5F5
310
F5F5F5F5F5F5F5E2E2E2E2E2E2E2E2E2E2E2E2E2E2E2E2E2E2E2E2E2E2E2E2E2E2E2E2E2E2E2E2E2E2E2E2E2E2E2E2E2E2E2E2E2E2E2E2E2E2E2E2E2E2E2E2E2E2E2E2E2E2E2E2E2E2E2E2E2E2E2E2E2E2E2E2E2E2E2E2E2E2E2E2E2E2E2E2E2E2E2E2E2E2E2E2E2E2E2E2E2E2E2E2E2E2E2E2E2E2E2E2E2E2E2E2E2E2E2E2
310
E2E2E2E2E2E2E2E2E2E2E2E2E2E2E2E2E2E2E2E2E2E2E2E2E2E2E2E2E2E2E2E2E2E2E2E2E2E2E2E2E2E2E2E2E2E2E2E2E2E2E2E2E2E2E2E2E2E2E2E2E2E2E2E2E2E2E2E2E2E2E2E2E2E2E2E2F0E2E2E2E2E2E2E2E2E2E2E2E2E2E2E2E2E2E2F5E2E2E2E2E2E2E2E2E2E2E2E2E2E2E2F5E2E2E2E2E2E2E2E2E2F5F5F5E2F5F5
310
F5E2F5F5F5F5F5F5E2E2E2E2E2E2E2E2E2E2E2E2E2E2E2E2E2E2E2E2E2E2E2E2E2E2E2E2E2E2E2E2E2E2E2E2E2E2E2E2E2E2E2E2E2E2E2E2E2E2E2E2E2E2E2E2E2E2E2E2E2E2E2E2E2E2E2E2E2E2E2E2E2E2E2E2E2E2E2E2E2E2E2E2E2E2E2E2E2E2E2E2E2E2E2E2E2E2E2E2E2E2E2E2E2E2E2E2E2E2E2E2E2E2E2E2E2E2E2
310
E2E2E2E2E2E2E2E2E2E2E2E2E2E2E2E2E2E2E2E2E2E2E2E2E2E2E2E2E2E2E2E2E2E2E2E2E2E2E2E2E2E2E2E2E2E2E2E2E2E2E2E2E2E2E2E2E2E2E2E2E2E2E2E2E2E2E2E2E2E2E2E2E2E2E2E2E2E2F0E2E2E2E2E2E2E2E2E2E2E2E2E2E2E2E2E2E2F5E2E2E2E2E2E2E2E2E2E2E2E2E2E2F5E2E2E2E2E2E2E2E2E2E2F5E2E2E2
310
F5E2E2E2F5F5F5F5F5F5E2E2E2E2E2E2E2E2E2E2E2E2E2E2E2E2E2E2E2E2E2E2E2E2E2E2E2E2E2E2E2E2E2E2E2E2E2E2E2E2E2E2E2E2E2E2E2E2E2E2E2E2E2E2E2E2E2E2E2E2E2E2E2E2E2E2E2E2E2E2E2E2E2E2E2E2E2E2E2E2E2E2E2E2E2E2E2E2E2E2E2E2E2E2E2E2E2E2E2E2E2E2E2E2E2E2E2E2E2E2E2E2E2E2E2E2E2
310
E2E2E2E2E2E2E2E2E2E2E2E2E2E2E2E2E2E2E2E2E2E2E2E2E2E2E2E2E2E2E2E2E2E2E2E2E2E2E2E2E2E2E2E2E2E2E2E2E2E2E2E2E2E2E2E2E2E2E2E2E2E2E2E2E2E2E2E2E2E2E2E2E2E2E2E2E2E2E2E2F0E2E2E2E2E2E2E2E2E2E2E2E2E2E2E2E2E2E2F5E2E2E2E2E2E2E2E2E2E2E2E2E2F5E2E2E2E2E2E2E2E2E2E2E2F5E2
310
E2E2F5E2E2E2F5F5F5F5F5F5E2E2E2E2E2E2E2E2E2E2E2E2E2E2E2E2E2E2E2E2E2E2E2E2E2E2E2E2E2E2E2E2E2E2E2E2E2E2E2E2E2E2E2E2E2E2E2E2E2E2E2E2E2E2E2E2E2E2E2E2E2E2E2E2E2E2E2E2E2E2E2E2E2E2E2E2E2E2E2E2E2E2E2E2E2E2E2E2E2E2E2E2E2E2E2E2E2E2E2E2E2E2E2E2E2E2E2E2E2E2E2E2E2E2E2
310
E2E2E2E2E2E2E2E2E2E2E2E2E2E2E2E2E2E2E2E2E2E2E2E2E2E2E2E2E2E2E2E2E2E2E2E2E2E2E2E2E2E2E2E2E2E2E2E2E2E2E2E2E2E2E2E2E2E2E2E2E2E2E2E2E2E2E2E2E2E2E2E2E2E2E2E2E2E2E2E2E2E2F0E2E2E2E2E2E2E2E2E2E2E2E2E2E2E2E2E2E2F5E2E2E2E2E2E2E2E2E2E2E2E2E2E2F5F5F5E2E2E2E2E2E2E2E2
310
F5E2E2E2F5E2E2E2E2E2E2E2E2E2E2E2E2E2E2E2E2E2E2E2E2E2E2E2E2E2E2E2E2E2E2E2E2E2E2E2E2E2E2E2E2E2E2E2E2E2E2E2E2E2E2E2E2E2E2E2E2E2E2E2E2E2E2E2E2E2E2E2E2E2E2E2E2E2E2E2E2E2E2E2E2E2E2E2E2E2E2E2E2E2E2E2E2E2E2E2E2E2E2E2E2E2E2E2E2E2E2E2E2E2E2E2E2E2E2E2E2E2E2E2E2E2E2
310
E2E2E2E2E2E2E2E2E2E2E2E2E2E2E2E2E2E2E2E2E2E2E2E2E2E2E2E2E2E2E2E2E2E2E2E2E2E2E2E2E2E2E2E2E2E2E2E2E2E2E2E2E2E2E2E2E2E2E2E2E2E2E2E2E2E2E2E2E2E2E2E2E2E2E2E2E2E2E2E2E2E2E2E2F0E2E2E2E2E2E2E2E2E2E2E2E2E2E2E2E2E2E2F5E2E2E2E2E2E2E2E2E2E2E2E2E2E2E2E2F5F5E2E2E2E2F5
310
F5F5F5F5F5F5F5F5F5F5F5E2E2E2E2E2E2E2E2E2E2E2E2E2E2E2E2E2E2E2E2E2E2E2E2E2E2E2E2E2E2E2E2E2E2E2E2E2E2E2E2E2E2E2E2E2E2E2E2E2E2E2E2E2E2E2E2E2E2E2E2E2E2E2E2E2E2E2E2E2E2E2E2E2E2E2E2E2E2E2E2E2E2E2E2E2E2E2E2E2E2E2E2E2E2E2E2E2E2E2E2E2E2E2E2E2E2E2E2E2E2E2E2E2E2E2E2
310
E2E2E2E2E2E2E2E2E2E2E2E2E2E2E2E2E2E2E2E2E2E2E2E2E2E2E2E2E2E2E2E2E2E2E2E2E2E2E2E2E2E2E2E2E2E2E2E2E2E2E2E2E2E2E2E2E2E2E2E2E2E2E2E2E2E2E2E2E2E2E2E2E2E2E2E2E2E2E2E2E2E2E2E2E2E2F0E2E2E2E2E2E2E2E2E2E2E2E2E2E2E2E2E2E2F5E2E2E2E2E2E2E2E2E2E2E2E2E2E2E2E2F5F5F5F5E2
310
E2E2F5F5F5F5F5F5F5F5F5E2E2E2E2E2E2E2E2E2E2E2E2E2E2E2E2E2E2E2E2E2E2E2E2E2E2E2E2E2E2E2E2E2E2E2E2E2E2E2E2E2E2E2E2E2E2E2E2E2E2E2E2E2E2E2E2E2E2E2E2E2E2E2E2E2E2E2E2E2E2E2E2E2E2E2E2E2E2E2E2E2E2E2E2E2E2E2E2E2E2E2E2E2E2E2E2E2E2E2E2E2E2E2E2E2E2E2E2E2E2E2E2E2E2E2E2
310
E2E2E2E2E2E2E2E2E2E2E2E2E2E2E2E2E2E2E2E2E2E2E2E2E2E2E2E2E2E2E2E2E2E2E2E2E2E2E2E2E2E2E2E2E2E2E2E2E2E2E2E2E2E2E2E2E2E2E2E2E2E2E2E2E2E2E2E2E2E2E2E2E2E2E2E2E2E2E2E2E2E2E2E2E2E2E2E2F0E2E2E2E2E2E2E2E2E2E2E2E2E2E2E2E2E2E2F5E2E2E2E2E2E2E2E2E2E2E2E2E2E2E2F5F5F5F5
310
F5F5F5E2E2E2E2F5F5F5F5E2E2E2E2E2E2E2E2E2E2E2E2E2E2E2E2E2E2E2E2E2E2E2E2E2E2E2E2E2E2E2E2E2E2E2E2E2E2E2E2E2E2E2E2E2E2E2E2E2E2E2E2E2E2E2E2E2E2E2E2E2E2E2E2E2E2E2E2E2E2E2E2E2E2E2E2E2E2E2E2E2E2E2E2E2E2E2E2E2E2E2E2E2E2E2E2E2E2E2E2E2E2E2E2E2E2E2E2E2E2E2E2E2E2E2E2
310
E2E2E2E2E2E2E2E2E2E2E2E2E2E2E2E2E2E2E2E2E2E2E2E2E2E2E2E2E2E2E2E2E2E2E2E2E2E2E2E2E2E2E2E2E2E2E2E2E2E2E2E2E2E2E2E2E2E2E2E2E2E2E2E2E2E2E2E2E2E2E2E2E2E2E2E2E2E2E2E2E2E2E2E2E2E2E2E2E2E2F0E2E2E2E2E2E2E2E2E2E2E2E2E2E2E2E2E2E2F5E2E2E2E2E2E2E2E2E2E2E2E2E2E2E2F5F5
310
F5F5F5F5F5F5F5F5F5F5F5F5F5E2E2E2E2E2E2E2E2E2E2E2E2E2E2E2E2E2E2E2E2E2E2E2E2E2E2E2E2E2E2E2E2E2E2E2E2E2E2E2E2E2E2E2E2E2E2E2E2E2E2E2E2E2E2E2E2E2E2E2E2E2E2E2E2E2E2E2E2E2E2E2E2E2E2E2E2E2E2E2E2E2E2E2E2E2E2E2E2E2E2E2E2E2E2E2E2E2E2E2E2E2E2E2E2E2E2E2E2E2E2E2E2E2E2
310
E2E2E2E2E2E2E2E2E2E2E2E2E2E2E2E2E2E2E2E2E2E2E2E2E2E2E2E2E2E2E2E2E2E2E2E2E2E2E2E2E2E2E2E2E2E2E2E2E2E2E2E2E2E2E2E2E2E2E2E2E2E2E2E2E2E2E2E2E2E2E2E2E2E2E2E2E2E2E2E2E2E2E2E2E2E2E2E2E2E2E2E2F0E2E2E2E2E2E2E2E2E2E2E2E2E2E2E2E2E2E2F5E2E2E2E2E2E2E2E2E2E2E2E2E2E2F5
310
F5F5F5F5F5F5F5F5F5F5F5F5F5F5F5E2E2E2E2E2E2E2E2E2E2E2E2E2E2E2E2E2E2E2E2E2E2E2E2E2E2E2E2E2E2E2E2E2E2E2E2E2E2E2E2E2E2E2E2E2E2E2E2E2E2E2E2E2E2E2E2E2E2E2E2E2E2E2E2E2E2E2E2E2E2E2E2E2E2E2E2E2E2E2E2E2E2E2E2E2E2E2E2E2E2E2E2E2E2E2E2E2E2E2E2E2E2E2E2E2E2E2E2E2E2E2E2
310
E2E2E2E2E2E2E2E2E2E2E2E2E2E2E2E2E2E2E2E2E2E2E2E2E2E2E2E2E2E2E2E2E2E2E2E2E2E2E2E2E2E2E2E2E2E2E2E2E2E2E2E2E2E2E2E2E2E2E2E2E2E2E2E2E2E2E2E2E2E2E2E2E2E2E2E2E2E2E2E2E2E2E2E2E2E2E2E2E2E2E2E2E2E2F0E2E2E2E2E2E2E2E2E2E2E2E2E2E2E2E2E2E2F5E2E2E2E2E2E2E2E2E2E2E2E2E2
310
E2E2E2E2F5F5F5F5F5F5F5F5E2E2E2E2F5E2E2E2E2E2E2E2E2E2E2E2E2E2E2E2E2E2E2E2E2E2E2E2E2E2E2E2E2E2E2E2E2E2E2E2E2E2E2E2E2E2E2E2E2E2E2E2E2E2E2E2E2E2E2E2E2E2E2E2E2E2E2E2E2E2E2E2E2E2E2E2E2E2E2E2E2E2E2E2E2E2E2E2E2E2E2E2E2E2E2E2E2E2E2E2E2E2E2E2E2E2E2E2E2E2E2E2E2E2E2
310
E2E2E2E2E2E2E2E2E2E2E2E2E2E2E2E2E2E2E2E2E2E2E2E2E2E2E2E2E2E2E2E2E2E2E2E2E2E2E2E2E2E2E2E2E2E2E2E2E2E2E2E2E2E2E2E2E2E2E2E2E2E2E2E2E2E2E2E2E2E2E2E2E2E2E2E2E2E2E2E2E2E2E2E2E2E2E2E2E2E2E2E2E2E2E2E2F0E2E2E2E2E2E2E2E2E2E2E2E2E2E2E2E2E2E2F5E2E2E2E2E2E2E2E2E2E2E2
310
E2E2E2E2E2E2E2E2F5F5F5F5F5F5E2E2E2E2F5E2E2E2E2E2E2E2E2E2E2E2E2E2E2E2E2E2E2E2E2E2E2E2E2E2E2E2E2E2E2E2E2E2E2E2E2E2E2E2E2E2E2E2E2E2E2E2E2E2E2E2E2E2E2E2E2E2E2E2E2E2E2E2E2E2E2E2E2E2E2E2E2E2E2E2E2E2E2E2E2E2E2E2E2E2E2E2E2E2E2E2E2E2E2E2E2E2E2E2E2E2E2E2E2E2E2E2E2
310
E2E2E2E2E2E2E2E2E2E2E2E2E2E2E2E2E2E2E2E2E2E2E2E2E2E2E2E2E2E2E2E2E2E2E2E2E2E2E2E2E2E2E2E2E2E2E2E2E2E2E2E2E2E2E2E2E2E2E2E2E2E2E2E2E2E2E2E2E2E2E2E2E2E2E2E2E2E2E2E2E2E2E2E2E2E2E2E2E2E2E2E2E2E2E2E2E2E2F0E2E2E2E2E2E2E2E2E2E2E2E2E2E2E2E2E2E2F5E2E2E2E2E2E2E2E2E2
310
E2E2E2E2E2E2E2E2E2E2E2E2E2F5F5E2E2E2E2E2F5E2E2E2E2E2E2E2E2E2E2E2E2E2E2E2E2E2E2E2E2E2E2E2E2E2E2E2E2E2E2E2E2E2E2E2E2E2E2E2E2E2E2E2E2E2E2E2E2E2E2E2E2E2E2E2E2E2E2E2E2E2E2E2E2E2E2E2E2E2E2E2E2E2E2E2E2E2E2E2E2E2E2E2E2E2E2E2E2E2E2E2E2E2E2E2E2E2E2E2E2E2E2E2E2E2E2
310
E2E2E2E2E2E2E2E2E2E2E2E2E2E2E2E2E2E2E2E2E2E2E2E2E2E2E2E2E2E2E2E2E2E2E2E2E2E2E2E2E2E2E2E2E2E2E2E2E2E2E2E2E2E2E2E2E2E2E2E2E2E2E2E2E2E2E2E2E2E2E2E2E2E2E2E2E2E2E2E2E2E2E2E2E2E2E2E2E2E2E2E2E2E2E2E2E2E2E2E2F0E2E2E2E2E2E2E2E2E2E2E2E2E2E2E2E2E2E2F5E2E2E2E2E2E2E2
310
E2E2E2E2E2E2E2E2E2E2E2E2E2E2E2E2E2E2E2E2E2E2F5E2E2E2E2E2E2E2E2E2E2E2E2E2E2E2E2E2E2E2E2E2E2E2E2E2E2E2E2E2E2E2E2E2E2E2E2E2E2E2E2E2E2E2E2E2E2E2E2E2E2E2E2E2E2E2E2E2E2E2E2E2E2E2E2E2E2E2E2E2E2E2E2E2E2E2E2E2E2E2E2E2E2E2E2E2E2E2E2E2E2E2E2E2E2E2E2E2E2E2E2E2E2E2E2
310
E2E2E2E2E2E2E2E2E2E2E2E2E2E2E2E2E2E2E2E2E2E2E2E2E2E2E2E2E2E2E2E2E2E2E2E2E2E2E2E2E2E2E2E2E2E2E2E2E2E2E2E2E2E2E2E2E2E2E2E2E2E2E2E2E2E2E2E2E2E2E2E2E2E2E2E2E2E2E2E2E2E2E2E2E2E2E2E2E2E2E2E2E2E2E2E2E2E2E2E2E2E2F0E2E2E2E2E2E2E2E2E2E2E2E2E2E2E2E2E2E2F5F5E2E2E2E2
310
E2E2E2F5F5F5F5F5F5F5F5F5F5F5E2E2E2E2E2E2E2E2F5E2F5E2E2E2E2E2E2E2E2E2E2E2E2E2E2E2E2E2E2E2E2E2E2E2E2E2E2E2E2E2E2E2E2E2E2E2E2E2E2E2E2E2E2E2E2E2E2E2E2E2E2E2E2E2E2E2E2E2E2E2E2E2E2E2E2E2E2E2E2E2E2E2E2E2E2E2E2E2E2E2E2E2E2E2E2E2E2E2E2E2E2E2E2E2E2E2E2E2E2E2E2E2E2
310
E2E2E2E2E2E2E2E2E2E2E2E2E2E2E2E2E2E2E2E2E2E2E2E2E2E2E2E2E2E2E2E2E2E2E2E2E2E2E2E2E2E2E2E2E2E2E2E2E2E2E2E2E2E2E2E2E2E2E2E2E2E2E2E2E2E2E2E2E2E2E2E2E2E2E2E2E2E2E2E2E2E2E2E2E2E2E2E2E2E2E2E2E2E2E2E2E2E2E2E2E2E2E2E2F0E2E2E2E2E2E2E2E2E2E2E2E2E2E2E2E2E2E2F5F5F5F5
310
F5F5F5F5F5F5F5F5F5F5F5F5F5F5F5F5F5F5F5F5F5F5F5F5F5F5F5E2E2E2E2E2E2E2E2E2E2E2E2E2E2E2E2E2E2E2E2E2E2E2E2E2E2E2E2E2E2E2E2E2E2E2E2E2E2E2E2E2E2E2E2E2E2E2E2E2E2E2E2E2E2E2E2E2E2E2E2E2E2E2E2E2E2E2E2E2E2E2E2E2E2E2E2E2E2E2E2E2E2E2E2E2E2E2E2E2E2E2E2E2E2E2E2E2E2E2E2
310
E2E2E2E2E2E2E2E2E2E2E2E2E2E2E2E2E2E2E2E2E2E2E2E2E2E2E2E2E2E2E2E2E2E2E2E2E2E2E2E2E2E2E2E2E2E2E2E2E2E2E2E2E2E2E2E2E2E2E2E2E2E2E2E2E2E2E2E2E2E2E2E2E2E2E2E2E2E2E2E2E2E2E2E2E2E2E2E2E2E2E2E2E2E2E2E2E2E2E2E2E2E2E2E2E2E2F0E2E2E2E2E2E2E2E2E2E2E2E2E2E2E2E2E2E2E2E2
310
E2E2E2E2E2E2E2F5F5F5F5F5F5F5F5F5F5F5E2E2E2E2E2E2E2E2E2E2E2E2E2E2E2E2E2E2E2E2E2E2E2E2E2E2E2E2E2E2E2E2E2E2E2E2E2E2E2E2E2E2E2E2E2E2E2E2E2E2E2E2E2E2E2E2E2E2E2E2E2E2E2E2E2E2E2E2E2E2E2E2E2E2E2E2E2E2E2E2E2E2E2E2E2E2E2E2E2E2E2E2E2E2E2E2E2E2E2E2E2E2E2E2E2E2E2E2E2
310
E2E2E2E2E2E2E2E2E2E2E2E2E2E2E2E2E2E2E2E2E2E2E2E2E2E2E2E2E2E2E2E2E2E2E2E2E2E2E2E2E2E2E2E2E2E2E2E2E2E2E2E2E2E2E2E2E2E2E2E2E2E2E2E2E2E2E2E2E2E2E2E2E2E2E2E2E2E2E2E2E2E2E2E2E2E2E2E2E2E2E2E2E2E2E2E2E2E2E2E2E2E2E2E2E2E2E2E2F0E2E2E2E2E2E2E2E2E2E2E2E2E2E2E2E2E2E2
310
E2E2E2E2E2E2E2E2E2F5F5F5F5F5F5F5F5F5F5F5E2E2E2E2E2E2E2E2E2E2E2E2E2E2E2E2E2E2E2E2E2E2E2E2E2E2E2E2E2E2E2E2E2E2E2E2E2E2E2E2E2E2E2E2E2E2E2E2E2E2E2E2E2E2E2E2E2E2E2E2E2E2E2E2E2E2E2E2E2E2E2E2E2E2E2E2E2E2E2E2E2E2E2E2E2E2E2E2E2E2E2E2E2E2E2E2E2E2E2E2E2E2E2E2E2E2E2
310
E2E2E2E2E2E2E2E2E2E2E2E2E2E2E2E2E2E2E2E2E2E2E2E2E2E2E2E2E2E2E2E2E2E2E2E2E2E2E2E2E2E2E2E2E2E2E2E2E2E2E2E2E2E2E2E2E2E2E2E2E2E2E2E2E2E2E2E2E2E2E2E2E2E2E2E2E2E2E2E2E2E2E2E2E2E2E2E2E2E2E2E2E2E2E2E2E2E2E2E2E2E2E2E2E2E2E2E2E2E2F0E2E2E2E2E2E2E2E2E2E2E2E2E2E2E2E2
310
E2E2E2E2E2E2E2E2E2E2E2E2E2E2E2E2E2E2E2E2E2E2E2E2E2E2E2E2E2E2E2E2E2E2E2E2E2E2E2E2E2E2E2E2E2E2E2E2E2E2E2E2E2E2E2E2E2E2E2E2E2E2E2E2E2E2E2E2E2E2E2E2E2E2E2E2E2E2E2E2E2E2E2E2E2E2E2E2E2E2E2E2E2E2E2E2E2E2E2E2E2E2E2E2E2E2E2E2E2E2E2E2E2E2E2E2E2E2E2E2E2E2E2E2E2E2E2
310
E2E2E2E2E2E2E2E2E2E2E2E2E2E2E2E2E2E2E2E2E2E2E2E2E2E2E2E2E2E2E2E2E2E2E2E2E2E2E2E2E2E2E2E2E2E2E2E2E2E2E2E2E2E2E2E2E2E2E2E2E2E2E2E2E2E2E2E2E2E2E2E2E2E2E2E2E2E2E2E2E2E2E2E2E2E2E2E2E2E2E2E2E2E2E2E2E2E2E2E2E2E2E2E2E2E2E2E2E2E2E2E2F0E2E2E2E2E2E2E2E2E2E2E2E2E2E2
310
E2E2E2E2E2E2E2E2E2E2E2E2E2E2E2E2E2E2E2E2E2E2E2E2E2E2E2E2E2E2E2E2E2E2E2E2E2E2E2E2E2E2E2E2E2E2E2E2E2E2E2E2E2E2E2E2E2E2E2E2E2E2E2E2E2E2E2E2E2E2E2E2E2E2E2E2E2E2E2E2E2E2E2E2E2E2E2E2E2E2E2E2E2E2E2E2E2E2E2E2E2E2E2E2E2E2E2E2E2E2E2E2E2E2E2E2E2E2E2E2E2E2E2E2E2E2E2
310
E2E2E2E2E2E2E2E2E2E2E2E2E2E2E2E2E2E2E2E2E2E2E2E2E2E2E2E2E2E2E2E2E2E2E2E2E2E2E2E2E2E2E2E2E2E2E2E2E2E2E2E2E2E2E2E2E2E2E2E2E2E2E2E2E2E2E2E2E2E2E2E2E2E2E2E2E2E2E2E2E2E2E2E2E2E2E2E2E2E2E2E2E2E2E2E2E2E2E2E2E2E2E2E2E2E2E2E2E2E2E2E2E2E2F0E2E2E2E2E2E2E2E2E2E2E2E2
310
E2E2E2E2E2E2E2E2E2E2E2E2E2E2E2E2E2E2E2E2E2E2E2E2E2E2E2E2E2E2E2E2E2E2E2E2E2E2E2E2E2E2E2E2E2E2E2E2E2E2E2E2E2E2E2E2E2E2E2E2E2E2E2E2E2E2E2E2E2E2E2E2E2E2E2E2E2E2E2E2E2E2E2E2E2E2E2E2E2E2E2E2E2E2E2E2E2E2E2E2E2E2E2E2E2E2E2E2E2E2E2E2E2E2E2E2E2E2E2E2E2E2E2E2E2E2E2
310
E2E2E2E2E2E2E2E2E2E2E2E2E2E2E2E2E2E2E2E2E2E2E2E2E2E2E2E2E2E2E2E2E2E2E2E2E2E2E2E2E2E2E2E2E2E2E2E2E2E2E2E2E2E2E2E2E2E2E2E2E2E2E2E2E2E2E2E2E2E2E2E2E2E2E2E2E2E2E2E2E2E2E2E2E2E2E2E2E2E2E2E2E2E2E2E2E2E2E2E2E2E2E2E2E2E2E2E2E2E2E2E2E2E2E2E2F0E2E2E2E2E2E2E2E2E2E2
310
E2E2E2E2E2E2E2E2E2E2E2E2E2E2E2E2E2E2E2E2E2E2E2E2E2E2E2E2E2E2E2E2E2E2E2E2E2E2E2E2E2E2E2E2E2E2E2E2E2E2E2E2E2E2E2E2E2E2E2E2E2E2E2E2E2E2E2E2E2E2E2E2E2E2E2E2E2E2E2E2E2E2E2E2E2E2E2E2E2E2E2E2E2E2E2E2E2E2E2E2E2E2E2E2E2E2E2E2E2E2E2E2E2E2E2E2E2E2E2E2E2E2E2E2E2E2E2
310
E2E2E2E2E2E2E2E2E2E2E2E2E2E2E2E2E2E2E2E2E2E2E2E2E2E2E2E2E2E2E2E2E2E2E2E2E2E2E2E2E2E2E2E2E2E2E2E2E2E2E2E2E2E2E2E2E2E2E2E2E2E2E2E2E2E2E2E2E2E2E2E2E2E2E2E2E2E2E2E2E2E2E2E2E2E2E2E2E2E2E2E2E2E2E2E2E2E2E2E2E2E2E2E2E2E2E2E2E2E2E2E2E2E2E2E2E2E2F0E2E2E2E2E2E2E2E2
310
E2E2E2E2E2E2E2E2E2E2E2E2E2E2E2E2E2E2E2E2E2E2E2E2E2E2E2E2E2E2E2E2E2E2E2E2E2E2E2E2E2E2E2E2E2E2E2E2E2E2E2E2E2E2E2E2E2E2E2E2E2E2E2E2E2E2E2E2E2E2E2E2E2E2E2E2E2E2E2E2E2E2E2E2E2E2E2E2E2E2E2E2E2E2E2E2E2E2E2E2E2E2E2E2E2E2E2E2E2E2E2E2E2E2E2E2E2E2E2E2E2E2E2E2E2E2E2
310
E2E2E2E2E2E2E2E2E2E2E2E2E2E2E2E2E2E2E2E2E2E2E2E2E2E2E2E2E2E2E2E2E2E2E2E2E2E2E2E2E2E2E2E2E2E2E2E2E2E2E2E2E2E2E2E2E2E2E2E2E2E2E2E2E2E2E2E2E2E2E2E2E2E2E2E2E2E2E2E2E2E2E2E2E2E2E2E2E2E2E2E2E2E2E2E2E2E2E2E2E2E2E2E2E2E2E2E2E2E2E2E2E2E2E2E2E2E2E2E2F0E2E2E2E2E2E2
310
E2E2E2E2E2E2E2E2E2E2E2E2E2E2E2E2E2E2E2E2E2E2E2E2E2E2E2E2E2E2E2E2E2E2E2E2E2E2E2E2E2E2E2E2E2E2E2E2E2E2E2E2E2E2E2E2E2E2E2E2E2E2E2E2E2E2E2E2E2E2E2E2E2E2E2E2E2E2E2E2E2E2E2E2E2E2E2E2E2E2E2E2E2E2E2E2E2E2E2E2E2E2E2E2E2E2E2E2E2E2E2E2E2E2E2E2E2E2E2E2E2E2E2E2E2E2E2
310
E2E2E2E2E2E2E2E2E2E2E2E2E2E2E2E2E2E2E2E2E2E2E2E2E2E2E2E2E2E2E2E2E2E2E2E2E2E2E2E2E2E2E2E2E2E2E2E2E2E2E2E2E2E2E2E2E2E2E2E2E2E2E2E2E2E2E2E2E2E2E2E2E2E2E2E2E2E2E2E2E2E2E2E2E2E2E2E2E2E2E2E2E2E2E2E2E2E2E2E2E2E2E2E2E2E2E2E2E2E2E2E2E2E2E2E2E2E2E2E2E2E2F0F0F0F0F0
310
F0F0F0F0F0F0F0F0F0F0F0F0F0F0F0F0F0F0F0F0F0F0F0F0F0F0F0F0F0F0E2E2E2E2E2E2E2E2E2E2E2E2E2E2E2E2E2E2E2E2E2E2E2E2E2E2E2E2E2E2E2E2E2E2E2E2E2E2E2E2E2E2E2E2E2E2E2E2E2E2E2E2E2E2E2E2E2E2E2E2E2E2E2E2E2E2E2E2E2E2E2E2E2E2E2E2E2E2E2E2E2E2E2E2E2E2E2E2E2E2E2E2E2E2E2E2E2
310
E2E2E2E2E2E2E2E2E2E2E2E2E2E2E2E2E2E2E2E2E2E2E2E2E2E2E2E2E2E2E2E2E2E2E2E2E2E2E2E2E2E2E2E2E2E2E2E2E2E2E2E2E2E2E2E2E2E2E2E2E2E2E2E2E2E2E2E2E2E2E2E2E2E2E2E2E2E2E2E2E2E2E2E2E2E2E2E2E2E2E2E2E2E2E2E2E2E2E2E2E2E2E2E2E2E2E2E2E2E2E2E2E2E2E2E2E2E2E2E2E2E2E2E2E2E2E2
310
E2E2E2E2E2E2E2E2E2E2E2E2E2E2E2E2E2E2E2E2E2E2E2E2E2E2E2E2E2E2E2E2E2E2E2E2E2E2E2E2E2E2E2E2E2E2E2E2E2E2E2E2E2E2E2E2E2E2E2E2E2E2E2E2E2E2E2E2E2E2E2E2E2E2E2E2E2E2E2E2E2E2E2E2E2E2E2E2E2E2E2E2E2E2E2E2E2E2E2E2E2E2E2E2E2E2E2E2E2E2E2E2E2E2E2E2E2E2E2E2E2E2E2E2E2E2E2
310
E2E2E2E2E2E2E2E2E2E2E2E2E2E2E2E2E2E2E2E2E2E2E2E2E2E2E2E2E2E2E2E2E2E2E2E2E2E2E2E2E2E2E2E2E2E2E2E2E2E2E2E2E2E2E2E2E2E2E2E2E2E2E2E2E2E2E2E2E2E2E2E2E2E2E2E2E2E2E2E2E2E2E2E2E2E2E2E2E2E2E2E2E2E2E2E2E2E2E2E2E2E2E2E2E2E2E2E2E2E2E2E2E2E2E2E2E2E2E2E2E2E2E2E2E2E2E2
310
E2E2E2E2E2E2E2E2E2E2E2E2E2E2E2E2E2E2E2E2E2E2E2E2E2E2E2E2E2E2E2E2E2E2E2E2E2E2E2E2E2E2E2E2E2E2E2E2E2E2E2E2E2E2E2E2E2E2E2E2E2E2E2E2E2E2E2E2E2E2E2E2E2E2E2E2E2E2E2E2E2E2E2E2E2E2E2E2E2E2E2E2E2E2E2E2E2E2E2E2E2E2E2E2E2E2E2E2E2E2E2E2E2E2E2E2E2E2E2E2E2E2E2E2E2E2E2
310
E2E2E2E2E2E2E2E2E2E2E2E2E2E2E2E2E2E2E2E2E2E2E2E2E2E2E2E2E2E2E2E2E2E2E2E2E2E2E2E2E2E2E2E2E2E2E2E2E2E2E2E2E2E2E2E2E2E2E2E2E2E2E2E2E2E2E2E2E2E2E2E2E2E2E2E2E2E2E2E2E2E2E2E2E2E2E2E2E2E2E2E2E2E2E2E2E2E2E2E2E2E2E2E2E2E2E2E2E2E2E2E2E2E2E2E2E2E2E2E2E2E2E2E2E2E2E2
310
E2E2E2E2E2E2E2E2E2E2E2E2E2E2E2E2E2E2E2E2E2E2E2E2E2E2E2E2E2E2E2E2E2E2E2E2E2E2E2E2E2E2E2E2E2E2E2E2E2E2E2E2E2E2E2E2E2E2E2E2E2E2E2E2E2E2E2E2E2E2E2E2E2E2E2E2E2E2E2E2E2E2E2E2E2E2E2E2E2E2E2E2E2E2E2E2E2E2E2E2E2E2E2E2E2E2E2E2E2E2E2E2E2E2E2E2E2E2E2E2E2E2E2E2E2E2E2
310
E2E2E2E2E2E2E2E2E2E2E2E2E2E2E2E2E2E2E2E2E2E2E2E2E2E2E2E2E2E2E2E2E2E2E2E2E2E2E2E2E2E2E2E2E2E2E2E2E2E2E2E2E2E2E2E2E2E2E2E2E2E2E2E2E2E2E2E2E2E2E2E2E2E2E2E2E2E2E2E2E2E2E2E2E2E2E2E2E2E2E2E2E2E2E2E2E2E2E2E2E2E2E2E2E2E2E2E2E2E2E2E2E2E2E2E2E2E2E2E2E2E2E2E2E2E2E2
310
E2E2E2E2E2E2E2E2E2E2E2E2E2E2E2E2E2E2E2E2E2E2E2E2E2E2E2E2E2E2E2E2E2E2E2E2E2E2E2E2E2E2E2E2E2E2E2E2E2E2E2E2E2E2E2E2E2E2E2E2E2E2E2E2E2E2E2E2E2E2E2E2E2E2E2E2E2E2E2E2E2E2E2E2E2E2E2E2E2E2E2E2E2E2E2E2E2E2E2E2E2E2E2E2E2E2E2E2E2E2E2E2E2E2E2E2E2E2E2E2E2E2E2E2E2E2E2
310
E2E2E2E2E2E2E2E2E2E2E2E2E2E2E2E2E2E2E2E2E2E2E2E2E2E2E2E2E2E2E2E2E2E2E2E2E2E2E2E2E2E2E2E2E2E2
  0
XRECORD
  5
4607
102
{ACAD_REACTORS
330
4606
102
}
330
4606
100
AcDbXrecord
280
     1
102
MATERIAL
148
0.0
149
0.0
149
0.0
 93
        0
 94
      127
282
     0
 72
     1
 77
     1
171
     1
175
     1
179
     1
273
     0
  0
XRECORD
  5
4605
102
{ACAD_REACTORS
330
4604
102
}
330
4604
100
AcDbXrecord
280
     1
102
MATERIAL
148
0.0
149
0.0
149
0.0
 93
        0
 94
      127
282
     0
 72
     1
 77
     1
171
     1
175
     1
179
     1
273
     0
  0
XRECORD
  5
4609
102
{ACAD_REACTORS
330
4608
102
}
330
4608
100
AcDbXrecord
280
     1
102
MATERIAL
148
0.0
149
0.0
149
0.0
 93
        0
 94
      127
282
     0
 72
     1
 77
     1
171
     1
175
     1
179
     1
273
     0
  0
CELLSTYLEMAP
  5
12D09
102
{ACAD_REACTORS
330
444
102
}
330
444
100
AcDbCellStyleMap
 90
        3
300
CELLSTYLE
  1
TABLEFORMAT_BEGIN
 90
        5
170
     1
 91
        0
 92
    32768
 62
   257
 93
        1
300
CONTENTFORMAT
  1
CONTENTFORMAT_BEGIN
 90
        0
 91
        0
 92
        4
 93
        0
300

 40
0.0
140
1.0
 94
        5
 62
     0
340
10
144
6.0
309
CONTENTFORMAT_END
171
     1
301
MARGIN
  1
CELLMARGIN_BEGIN
 40
1.5
 40
1.5
 40
1.5
 40
1.5
 40
0.18
 40
0.18
309
CELLMARGIN_END
 94
        6
 95
        1
302
GRIDFORMAT
  1
GRIDFORMAT_BEGIN
 90
        0
 91
        1
 62
     0
 92
       -2
340
0
 93
        0
 40
0.045
309
GRIDFORMAT_END
 95
        2
302
GRIDFORMAT
  1
GRIDFORMAT_BEGIN
 90
        0
 91
        1
 62
     0
 92
       -2
340
0
 93
        0
 40
0.045
309
GRIDFORMAT_END
 95
        4
302
GRIDFORMAT
  1
GRIDFORMAT_BEGIN
 90
        0
 91
        1
 62
     0
 92
       -2
340
0
 93
        0
 40
0.045
309
GRIDFORMAT_END
 95
        8
302
GRIDFORMAT
  1
GRIDFORMAT_BEGIN
 90
        0
 91
        1
 62
     0
 92
       -2
340
0
 93
        0
 40
0.045
309
GRIDFORMAT_END
 95
       16
302
GRIDFORMAT
  1
GRIDFORMAT_BEGIN
 90
        0
 91
        1
 62
     0
 92
       -2
340
0
 93
        0
 40
0.045
309
GRIDFORMAT_END
 95
       32
302
GRIDFORMAT
  1
GRIDFORMAT_BEGIN
 90
        0
 91
        1
 62
     0
 92
       -2
340
0
 93
        0
 40
0.045
309
GRIDFORMAT_END
309
TABLEFORMAT_END
  1
CELLSTYLE_BEGIN
 90
        1
 91
        1
300
_TITLE
309
CELLSTYLE_END
300
CELLSTYLE
  1
TABLEFORMAT_BEGIN
 90
        5
170
     1
 91
        0
 92
        0
 62
   257
 93
        1
300
CONTENTFORMAT
  1
CONTENTFORMAT_BEGIN
 90
        0
 91
        0
 92
        4
 93
        0
300

 40
0.0
140
1.0
 94
        5
 62
     0
340
10
144
4.5
309
CONTENTFORMAT_END
171
     1
301
MARGIN
  1
CELLMARGIN_BEGIN
 40
1.5
 40
1.5
 40
1.5
 40
1.5
 40
0.18
 40
0.18
309
CELLMARGIN_END
 94
        6
 95
        1
302
GRIDFORMAT
  1
GRIDFORMAT_BEGIN
 90
        0
 91
        1
 62
     0
 92
       -2
340
0
 93
        0
 40
0.045
309
GRIDFORMAT_END
 95
        2
302
GRIDFORMAT
  1
GRIDFORMAT_BEGIN
 90
        0
 91
        1
 62
     0
 92
       -2
340
0
 93
        0
 40
0.045
309
GRIDFORMAT_END
 95
        4
302
GRIDFORMAT
  1
GRIDFORMAT_BEGIN
 90
        0
 91
        1
 62
     0
 92
       -2
340
0
 93
        0
 40
0.045
309
GRIDFORMAT_END
 95
        8
302
GRIDFORMAT
  1
GRIDFORMAT_BEGIN
 90
        0
 91
        1
 62
     0
 92
       -2
340
0
 93
        0
 40
0.045
309
GRIDFORMAT_END
 95
       16
302
GRIDFORMAT
  1
GRIDFORMAT_BEGIN
 90
        0
 91
        1
 62
     0
 92
       -2
340
0
 93
        0
 40
0.045
309
GRIDFORMAT_END
 95
       32
302
GRIDFORMAT
  1
GRIDFORMAT_BEGIN
 90
        0
 91
        1
 62
     0
 92
       -2
340
0
 93
        0
 40
0.045
309
GRIDFORMAT_END
309
TABLEFORMAT_END
  1
CELLSTYLE_BEGIN
 90
        2
 91
        1
300
_HEADER
309
CELLSTYLE_END
300
CELLSTYLE
  1
TABLEFORMAT_BEGIN
 90
        5
170
     1
 91
        0
 92
        0
 62
   257
 93
        1
300
CONTENTFORMAT
  1
CONTENTFORMAT_BEGIN
 90
        0
 91
        0
 92
        4
 93
        0
300

 40
0.0
140
1.0
 94
        2
 62
     0
340
10
144
4.5
309
CONTENTFORMAT_END
171
     1
301
MARGIN
  1
CELLMARGIN_BEGIN
 40
1.5
 40
1.5
 40
1.5
 40
1.5
 40
0.18
 40
0.18
309
CELLMARGIN_END
 94
        6
 95
        1
302
GRIDFORMAT
  1
GRIDFORMAT_BEGIN
 90
        0
 91
        1
 62
     0
 92
       -2
340
0
 93
        0
 40
0.045
309
GRIDFORMAT_END
 95
        2
302
GRIDFORMAT
  1
GRIDFORMAT_BEGIN
 90
        0
 91
        1
 62
     0
 92
       -2
340
0
 93
        0
 40
0.045
309
GRIDFORMAT_END
 95
        4
302
GRIDFORMAT
  1
GRIDFORMAT_BEGIN
 90
        0
 91
        1
 62
     0
 92
       -2
340
0
 93
        0
 40
0.045
309
GRIDFORMAT_END
 95
        8
302
GRIDFORMAT
  1
GRIDFORMAT_BEGIN
 90
        0
 91
        1
 62
     0
 92
       -2
340
0
 93
        0
 40
0.045
309
GRIDFORMAT_END
 95
       16
302
GRIDFORMAT
  1
GRIDFORMAT_BEGIN
 90
        0
 91
        1
 62
     0
 92
       -2
340
0
 93
        0
 40
0.045
309
GRIDFORMAT_END
 95
       32
302
GRIDFORMAT
  1
GRIDFORMAT_BEGIN
 90
        0
 91
        1
 62
     0
 92
       -2
340
0
 93
        0
 40
0.045
309
GRIDFORMAT_END
309
TABLEFORMAT_END
  1
CELLSTYLE_BEGIN
 90
        3
 91
        2
300
_DATA
309
CELLSTYLE_END
  0
XRECORD
  5
12D0F
102
{ACAD_REACTORS
330
444
102
}
330
444
100
AcDbXrecord
280
     1
102
ACAD_ROUNDTRIP_PRE2007_TABLESTYLE
 90
        4
 91
        0
  1

 92
        4
 93
        0
  2

 94
        4
 95
        0
  3

  0
XRECORD
  5
12D1B
102
{ACAD_REACTORS
330
12D1A
102
}
330
12D1A
100
AcDbXrecord
280
     1
102
RTVSPropertyOp0
 70
     1
102
RTVSPropertyOp1
 70
     1
102
RTVSPropertyOp2
 70
     1
102
RTVSPropertyOp3
 70
     1
102
RTVSPropertyOp4
 70
     1
102
RTVSPropertyOp5
 70
     1
102
RTVSPropertyOp6
 70
     1
102
RTVSPropertyOp7
 70
     1
102
RTVSPropertyOp8
 70
     1
102
RTVSPropertyOp9
 70
     1
102
RTVSPropertyOp10
 70
     1
102
RTVSPropertyOp11
 70
     1
102
RTVSPropertyOp12
 70
     1
102
RTVSPropertyOp13
 70
     1
102
RTVSPropertyOp14
 70
     1
102
RTVSPropertyOp15
 70
     1
102
RTVSPropertyOp16
 70
     1
102
RTVSPropertyOp17
 70
     1
102
RTVSPropertyOp18
 70
     1
102
RTVSPropertyOp19
 70
     1
102
RTVSPropertyOp20
 70
     1
102
RTVSPropertyOp21
 70
     1
102
RTVSPropertyOp22
 70
     1
102
RTVSPropertyOp23
 70
     1
102
RTVSPropertyOp24
 70
     1
102
RTVSPropertyOp25
 70
     1
102
RTVSPropertyOp26
 70
     1
102
RTVSPropertyOp27
 70
     1
  0
XRECORD
  5
12D1F
102
{ACAD_REACTORS
330
12D1E
102
}
330
12D1E
100
AcDbXrecord
280
     1
102
RTVSPropertyOp0
 70
     1
102
RTVSPropertyOp1
 70
     1
102
RTVSPropertyOp2
 70
     1
102
RTVSPropertyOp3
 70
     1
102
RTVSPropertyOp4
 70
     1
102
RTVSPropertyOp5
 70
     1
102
RTVSPropertyOp6
 70
     1
102
RTVSPropertyOp7
 70
     1
102
RTVSPropertyOp8
 70
     1
102
RTVSPropertyOp9
 70
     1
102
RTVSPropertyOp10
 70
     1
102
RTVSPropertyOp11
 70
     1
102
RTVSPropertyOp12
 70
     1
102
RTVSPropertyOp13
 70
     1
102
RTVSPropertyOp14
 70
     1
102
RTVSPropertyOp15
 70
     1
102
RTVSPropertyOp16
 70
     1
102
RTVSPropertyOp17
 70
     1
102
RTVSPropertyOp18
 70
     1
102
RTVSPropertyOp19
 70
     1
102
RTVSPropertyOp20
 70
     1
102
RTVSPropertyOp21
 70
     1
102
RTVSPropertyOp22
 70
     1
102
RTVSPropertyOp23
 70
     1
102
RTVSPropertyOp24
 70
     1
102
RTVSPropertyOp25
 70
     1
102
RTVSPropertyOp26
 70
     1
102
RTVSPropertyOp27
 70
     1
  0
XRECORD
  5
12D1D
102
{ACAD_REACTORS
330
12D1C
102
}
330
12D1C
100
AcDbXrecord
280
     1
102
RTVSPropertyOp0
 70
     1
102
RTVSPropertyOp1
 70
     1
102
RTVSPropertyOp2
 70
     1
102
RTVSPropertyOp3
 70
     1
102
RTVSPropertyOp4
 70
     1
102
RTVSPropertyOp5
 70
     1
102
RTVSPropertyOp6
 70
     1
102
RTVSPropertyOp7
 70
     1
102
RTVSPropertyOp8
 70
     1
102
RTVSPropertyOp9
 70
     1
102
RTVSPropertyOp10
 70
     1
102
RTVSPropertyOp11
 70
     1
102
RTVSPropertyOp12
 70
     1
102
RTVSPropertyOp13
 70
     1
102
RTVSPropertyOp14
 70
     1
102
RTVSPropertyOp15
 70
     1
102
RTVSPropertyOp16
 70
     1
102
RTVSPropertyOp17
 70
     1
102
RTVSPropertyOp18
 70
     1
102
RTVSPropertyOp19
 70
     1
102
RTVSPropertyOp20
 70
     1
102
RTVSPropertyOp21
 70
     1
102
RTVSPropertyOp22
 70
     1
102
RTVSPropertyOp23
 70
     1
102
RTVSPropertyOp24
 70
     1
102
RTVSPropertyOp25
 70
     1
102
RTVSPropertyOp26
 70
     1
102
RTVSPropertyOp27
 70
     1
  0
XRECORD
  5
12D19
102
{ACAD_REACTORS
330
12D18
102
}
330
12D18
100
AcDbXrecord
280
     1
102
RTVSPropertyOp0
 70
     1
102
RTVSPropertyOp1
 70
     1
102
RTVSPropertyOp2
 70
     1
102
RTVSPropertyOp3
 70
     1
102
RTVSPropertyOp4
 70
     1
102
RTVSPropertyOp5
 70
     1
102
RTVSPropertyOp6
 70
     1
102
RTVSPropertyOp7
 70
     1
102
RTVSPropertyOp8
 70
     1
102
RTVSPropertyOp9
 70
     1
102
RTVSPropertyOp10
 70
     1
102
RTVSPropertyOp11
 70
     1
102
RTVSPropertyOp12
 70
     1
102
RTVSPropertyOp13
 70
     1
102
RTVSPropertyOp14
 70
     1
102
RTVSPropertyOp15
 70
     1
102
RTVSPropertyOp16
 70
     1
102
RTVSPropertyOp17
 70
     1
102
RTVSPropertyOp18
 70
     1
102
RTVSPropertyOp19
 70
     1
102
RTVSPropertyOp20
 70
     1
102
RTVSPropertyOp21
 70
     1
102
RTVSPropertyOp22
 70
     1
102
RTVSPropertyOp23
 70
     1
102
RTVSPropertyOp24
 70
     1
102
RTVSPropertyOp25
 70
     1
102
RTVSPropertyOp26
 70
     1
102
RTVSPropertyOp27
 70
     1
  0
XRECORD
  5
12D27
102
{ACAD_REACTORS
330
12D26
102
}
330
12D26
100
AcDbXrecord
280
     1
102
RTVSPropertyOp0
 70
     1
102
RTVSPropertyOp1
 70
     1
102
RTVSPropertyOp2
 70
     1
102
RTVSPropertyOp3
 70
     1
102
RTVSPropertyOp4
 70
     1
102
RTVSPropertyOp5
 70
     1
102
RTVSPropertyOp6
 70
     1
102
RTVSPropertyOp7
 70
     1
102
RTVSPropertyOp8
 70
     1
102
RTVSPropertyOp9
 70
     1
102
RTVSPropertyOp10
 70
     1
102
RTVSPropertyOp11
 70
     1
102
RTVSPropertyOp12
 70
     1
102
RTVSPropertyOp13
 70
     1
102
RTVSPropertyOp14
 70
     1
102
RTVSPropertyOp15
 70
     1
102
RTVSPropertyOp16
 70
     1
102
RTVSPropertyOp17
 70
     1
102
RTVSPropertyOp18
 70
     1
102
RTVSPropertyOp19
 70
     1
102
RTVSPropertyOp20
 70
     1
102
RTVSPropertyOp21
 70
     1
102
RTVSPropertyOp22
 70
     1
102
RTVSPropertyOp23
 70
     1
102
RTVSPropertyOp24
 70
     1
102
RTVSPropertyOp25
 70
     1
102
RTVSPropertyOp26
 70
     1
102
RTVSPropertyOp27
 70
     1
  0
XRECORD
  5
12D2F
102
{ACAD_REACTORS
330
12D2E
102
}
330
12D2E
100
AcDbXrecord
280
     1
102
RTVSPropertyOp0
 70
     1
102
RTVSPropertyOp1
 70
     1
102
RTVSPropertyOp2
 70
     1
102
RTVSPropertyOp3
 70
     1
102
RTVSPropertyOp4
 70
     1
102
RTVSPropertyOp5
 70
     1
102
RTVSPropertyOp6
 70
     1
102
RTVSPropertyOp7
 70
     1
102
RTVSPropertyOp8
 70
     1
102
RTVSPropertyOp9
 70
     1
102
RTVSPropertyOp10
 70
     1
102
RTVSPropertyOp11
 70
     1
102
RTVSPropertyOp12
 70
     1
102
RTVSPropertyOp13
 70
     1
102
RTVSPropertyOp14
 70
     1
102
RTVSPropertyOp15
 70
     1
102
RTVSPropertyOp16
 70
     1
102
RTVSPropertyOp17
 70
     1
102
RTVSPropertyOp18
 70
     1
102
RTVSPropertyOp19
 70
     1
102
RTVSPropertyOp20
 70
     1
102
RTVSPropertyOp21
 70
     1
102
RTVSPropertyOp22
 70
     1
102
RTVSPropertyOp23
 70
     1
102
RTVSPropertyOp24
 70
     1
102
RTVSPropertyOp25
 70
     1
102
RTVSPropertyOp26
 70
     1
102
RTVSPropertyOp27
 70
     1
  0
XRECORD
  5
12D21
102
{ACAD_REACTORS
330
12D20
102
}
330
12D20
100
AcDbXrecord
280
     1
102
RTVSPropertyOp0
 70
     1
102
RTVSPropertyOp1
 70
     1
102
RTVSPropertyOp2
 70
     1
102
RTVSPropertyOp3
 70
     1
102
RTVSPropertyOp4
 70
     1
102
RTVSPropertyOp5
 70
     1
102
RTVSPropertyOp6
 70
     1
102
RTVSPropertyOp7
 70
     1
102
RTVSPropertyOp8
 70
     1
102
RTVSPropertyOp9
 70
     1
102
RTVSPropertyOp10
 70
     1
102
RTVSPropertyOp11
 70
     1
102
RTVSPropertyOp12
 70
     1
102
RTVSPropertyOp13
 70
     1
102
RTVSPropertyOp14
 70
     1
102
RTVSPropertyOp15
 70
     1
102
RTVSPropertyOp16
 70
     1
102
RTVSPropertyOp17
 70
     1
102
RTVSPropertyOp18
 70
     1
102
RTVSPropertyOp19
 70
     1
102
RTVSPropertyOp20
 70
     1
102
RTVSPropertyOp21
 70
     1
102
RTVSPropertyOp22
 70
     1
102
RTVSPropertyOp23
 70
     1
102
RTVSPropertyOp24
 70
     1
102
RTVSPropertyOp25
 70
     1
102
RTVSPropertyOp26
 70
     1
102
RTVSPropertyOp27
 70
     1
  0
XRECORD
  5
12D25
102
{ACAD_REACTORS
330
12D24
102
}
330
12D24
100
AcDbXrecord
280
     1
102
RTVSPropertyOp0
 70
     1
102
RTVSPropertyOp1
 70
     1
102
RTVSPropertyOp2
 70
     1
102
RTVSPropertyOp3
 70
     1
102
RTVSPropertyOp4
 70
     1
102
RTVSPropertyOp5
 70
     1
102
RTVSPropertyOp6
 70
     1
102
RTVSPropertyOp7
 70
     1
102
RTVSPropertyOp8
 70
     1
102
RTVSPropertyOp9
 70
     1
102
RTVSPropertyOp10
 70
     1
102
RTVSPropertyOp11
 70
     1
102
RTVSPropertyOp12
 70
     1
102
RTVSPropertyOp13
 70
     1
102
RTVSPropertyOp14
 70
     1
102
RTVSPropertyOp15
 70
     1
102
RTVSPropertyOp16
 70
     1
102
RTVSPropertyOp17
 70
     1
102
RTVSPropertyOp18
 70
     1
102
RTVSPropertyOp19
 70
     1
102
RTVSPropertyOp20
 70
     1
102
RTVSPropertyOp21
 70
     1
102
RTVSPropertyOp22
 70
     1
102
RTVSPropertyOp23
 70
     1
102
RTVSPropertyOp24
 70
     1
102
RTVSPropertyOp25
 70
     1
102
RTVSPropertyOp26
 70
     1
102
RTVSPropertyOp27
 70
     1
  0
XRECORD
  5
12D35
102
{ACAD_REACTORS
330
12D34
102
}
330
12D34
100
AcDbXrecord
280
     1
102
RTVSPropertyOp0
 70
     0
102
RTVSPropertyOp1
 70
     0
102
RTVSPropertyOp2
 70
     0
102
RTVSPropertyOp3
 70
     0
102
RTVSPropertyOp4
 70
     0
102
RTVSPropertyOp5
 70
     0
102
RTVSPropertyOp6
 70
     0
102
RTVSPropertyOp7
 70
     0
102
RTVSPropertyOp8
 70
     0
102
RTVSPropertyOp9
 70
     0
102
RTVSPropertyOp10
 70
     0
102
RTVSPropertyOp11
 70
     0
102
RTVSPropertyOp12
 70
     0
102
RTVSPropertyOp13
 70
     0
102
RTVSPropertyOp14
 70
     2
102
RTVSPropertyOp15
 70
     0
102
RTVSPropertyOp16
 70
     0
102
RTVSPropertyOp17
 70
     0
102
RTVSPropertyOp18
 70
     0
102
RTVSPropertyOp19
 70
     0
102
RTVSPropertyOp20
 70
     0
102
RTVSPropertyOp21
 70
     0
102
RTVSPropertyOp22
 70
     0
102
RTVSPropertyOp23
 70
     0
102
RTVSPropertyOp24
 70
     0
102
RTVSPropertyOp25
 70
     0
102
RTVSPropertyOp26
 70
     0
102
RTVSPropertyOp27
 70
     0
  0
XRECORD
  5
12D2D
102
{ACAD_REACTORS
330
12D2C
102
}
330
12D2C
100
AcDbXrecord
280
     1
102
RTVSPropertyOp0
 70
     1
102
RTVSPropertyOp1
 70
     1
102
RTVSPropertyOp2
 70
     1
102
RTVSPropertyOp3
 70
     1
102
RTVSPropertyOp4
 70
     1
102
RTVSPropertyOp5
 70
     1
102
RTVSPropertyOp6
 70
     1
102
RTVSPropertyOp7
 70
     1
102
RTVSPropertyOp8
 70
     1
102
RTVSPropertyOp9
 70
     1
102
RTVSPropertyOp10
 70
     1
102
RTVSPropertyOp11
 70
     1
102
RTVSPropertyOp12
 70
     1
102
RTVSPropertyOp13
 70
     1
102
RTVSPropertyOp14
 70
     1
102
RTVSPropertyOp15
 70
     1
102
RTVSPropertyOp16
 70
     1
102
RTVSPropertyOp17
 70
     1
102
RTVSPropertyOp18
 70
     1
102
RTVSPropertyOp19
 70
     1
102
RTVSPropertyOp20
 70
     1
102
RTVSPropertyOp21
 70
     1
102
RTVSPropertyOp22
 70
     1
102
RTVSPropertyOp23
 70
     1
102
RTVSPropertyOp24
 70
     1
102
RTVSPropertyOp25
 70
     1
102
RTVSPropertyOp26
 70
     1
102
RTVSPropertyOp27
 70
     1
  0
XRECORD
  5
12D11
102
{ACAD_REACTORS
330
12D10
102
}
330
12D10
100
AcDbXrecord
280
     1
102
RTVSPropertyOp0
 70
     1
102
RTVSPropertyOp1
 70
     1
102
RTVSPropertyOp2
 70
     1
102
RTVSPropertyOp3
 70
     1
102
RTVSPropertyOp4
 70
     1
102
RTVSPropertyOp5
 70
     1
102
RTVSPropertyOp6
 70
     1
102
RTVSPropertyOp7
 70
     1
102
RTVSPropertyOp8
 70
     1
102
RTVSPropertyOp9
 70
     1
102
RTVSPropertyOp10
 70
     1
102
RTVSPropertyOp11
 70
     1
102
RTVSPropertyOp12
 70
     1
102
RTVSPropertyOp13
 70
     1
102
RTVSPropertyOp14
 70
     1
102
RTVSPropertyOp15
 70
     1
102
RTVSPropertyOp16
 70
     1
102
RTVSPropertyOp17
 70
     1
102
RTVSPropertyOp18
 70
     1
102
RTVSPropertyOp19
 70
     1
102
RTVSPropertyOp20
 70
     1
102
RTVSPropertyOp21
 70
     1
102
RTVSPropertyOp22
 70
     1
102
RTVSPropertyOp23
 70
     1
102
RTVSPropertyOp24
 70
     1
102
RTVSPropertyOp25
 70
     1
102
RTVSPropertyOp26
 70
     1
102
RTVSPropertyOp27
 70
     1
  0
XRECORD
  5
12D13
102
{ACAD_REACTORS
330
12D12
102
}
330
12D12
100
AcDbXrecord
280
     1
102
RTVSPropertyOp0
 70
     1
102
RTVSPropertyOp1
 70
     1
102
RTVSPropertyOp2
 70
     1
102
RTVSPropertyOp3
 70
     1
102
RTVSPropertyOp4
 70
     1
102
RTVSPropertyOp5
 70
     1
102
RTVSPropertyOp6
 70
     1
102
RTVSPropertyOp7
 70
     1
102
RTVSPropertyOp8
 70
     1
102
RTVSPropertyOp9
 70
     1
102
RTVSPropertyOp10
 70
     1
102
RTVSPropertyOp11
 70
     1
102
RTVSPropertyOp12
 70
     1
102
RTVSPropertyOp13
 70
     1
102
RTVSPropertyOp14
 70
     1
102
RTVSPropertyOp15
 70
     1
102
RTVSPropertyOp16
 70
     1
102
RTVSPropertyOp17
 70
     1
102
RTVSPropertyOp18
 70
     1
102
RTVSPropertyOp19
 70
     1
102
RTVSPropertyOp20
 70
     1
102
RTVSPropertyOp21
 70
     1
102
RTVSPropertyOp22
 70
     1
102
RTVSPropertyOp23
 70
     1
102
RTVSPropertyOp24
 70
     1
102
RTVSPropertyOp25
 70
     1
102
RTVSPropertyOp26
 70
     1
102
RTVSPropertyOp27
 70
     1
  0
XRECORD
  5
12D15
102
{ACAD_REACTORS
330
12D14
102
}
330
12D14
100
AcDbXrecord
280
     1
102
RTVSPropertyOp0
 70
     1
102
RTVSPropertyOp1
 70
     1
102
RTVSPropertyOp2
 70
     1
102
RTVSPropertyOp3
 70
     1
102
RTVSPropertyOp4
 70
     1
102
RTVSPropertyOp5
 70
     1
102
RTVSPropertyOp6
 70
     1
102
RTVSPropertyOp7
 70
     1
102
RTVSPropertyOp8
 70
     1
102
RTVSPropertyOp9
 70
     1
102
RTVSPropertyOp10
 70
     1
102
RTVSPropertyOp11
 70
     1
102
RTVSPropertyOp12
 70
     1
102
RTVSPropertyOp13
 70
     1
102
RTVSPropertyOp14
 70
     1
102
RTVSPropertyOp15
 70
     1
102
RTVSPropertyOp16
 70
     1
102
RTVSPropertyOp17
 70
     1
102
RTVSPropertyOp18
 70
     1
102
RTVSPropertyOp19
 70
     1
102
RTVSPropertyOp20
 70
     1
102
RTVSPropertyOp21
 70
     1
102
RTVSPropertyOp22
 70
     1
102
RTVSPropertyOp23
 70
     1
102
RTVSPropertyOp24
 70
     1
102
RTVSPropertyOp25
 70
     1
102
RTVSPropertyOp26
 70
     1
102
RTVSPropertyOp27
 70
     1
  0
XRECORD
  5
12D17
102
{ACAD_REACTORS
330
12D16
102
}
330
12D16
100
AcDbXrecord
280
     1
102
RTVSPropertyOp0
 70
     1
102
RTVSPropertyOp1
 70
     1
102
RTVSPropertyOp2
 70
     1
102
RTVSPropertyOp3
 70
     1
102
RTVSPropertyOp4
 70
     1
102
RTVSPropertyOp5
 70
     1
102
RTVSPropertyOp6
 70
     1
102
RTVSPropertyOp7
 70
     1
102
RTVSPropertyOp8
 70
     1
102
RTVSPropertyOp9
 70
     1
102
RTVSPropertyOp10
 70
     1
102
RTVSPropertyOp11
 70
     1
102
RTVSPropertyOp12
 70
     1
102
RTVSPropertyOp13
 70
     1
102
RTVSPropertyOp14
 70
     1
102
RTVSPropertyOp15
 70
     1
102
RTVSPropertyOp16
 70
     1
102
RTVSPropertyOp17
 70
     1
102
RTVSPropertyOp18
 70
     1
102
RTVSPropertyOp19
 70
     1
102
RTVSPropertyOp20
 70
     1
102
RTVSPropertyOp21
 70
     1
102
RTVSPropertyOp22
 70
     1
102
RTVSPropertyOp23
 70
     1
102
RTVSPropertyOp24
 70
     1
102
RTVSPropertyOp25
 70
     1
102
RTVSPropertyOp26
 70
     1
102
RTVSPropertyOp27
 70
     1
  0
XRECORD
  5
12D31
102
{ACAD_REACTORS
330
12D30
102
}
330
12D30
100
AcDbXrecord
280
     1
102
RTVSPropertyOp0
 70
     0
102
RTVSPropertyOp1
 70
     0
102
RTVSPropertyOp2
 70
     0
102
RTVSPropertyOp3
 70
     0
102
RTVSPropertyOp4
 70
     0
102
RTVSPropertyOp5
 70
     0
102
RTVSPropertyOp6
 70
     0
102
RTVSPropertyOp7
 70
     0
102
RTVSPropertyOp8
 70
     0
102
RTVSPropertyOp9
 70
     0
102
RTVSPropertyOp10
 70
     0
102
RTVSPropertyOp11
 70
     0
102
RTVSPropertyOp12
 70
     0
102
RTVSPropertyOp13
 70
     0
102
RTVSPropertyOp14
 70
     2
102
RTVSPropertyOp15
 70
     0
102
RTVSPropertyOp16
 70
     0
102
RTVSPropertyOp17
 70
     0
102
RTVSPropertyOp18
 70
     0
102
RTVSPropertyOp19
 70
     0
102
RTVSPropertyOp20
 70
     0
102
RTVSPropertyOp21
 70
     0
102
RTVSPropertyOp22
 70
     0
102
RTVSPropertyOp23
 70
     0
102
RTVSPropertyOp24
 70
     0
102
RTVSPropertyOp25
 70
     0
102
RTVSPropertyOp26
 70
     0
102
RTVSPropertyOp27
 70
     0
  0
XRECORD
  5
12D2B
102
{ACAD_REACTORS
330
12D2A
102
}
330
12D2A
100
AcDbXrecord
280
     1
102
RTVSPropertyOp0
 70
     1
102
RTVSPropertyOp1
 70
     1
102
RTVSPropertyOp2
 70
     1
102
RTVSPropertyOp3
 70
     1
102
RTVSPropertyOp4
 70
     1
102
RTVSPropertyOp5
 70
     1
102
RTVSPropertyOp6
 70
     1
102
RTVSPropertyOp7
 70
     1
102
RTVSPropertyOp8
 70
     1
102
RTVSPropertyOp9
 70
     1
102
RTVSPropertyOp10
 70
     1
102
RTVSPropertyOp11
 70
     1
102
RTVSPropertyOp12
 70
     1
102
RTVSPropertyOp13
 70
     1
102
RTVSPropertyOp14
 70
     1
102
RTVSPropertyOp15
 70
     1
102
RTVSPropertyOp16
 70
     1
102
RTVSPropertyOp17
 70
     1
102
RTVSPropertyOp18
 70
     1
102
RTVSPropertyOp19
 70
     1
102
RTVSPropertyOp20
 70
     1
102
RTVSPropertyOp21
 70
     1
102
RTVSPropertyOp22
 70
     1
102
RTVSPropertyOp23
 70
     1
102
RTVSPropertyOp24
 70
     1
102
RTVSPropertyOp25
 70
     1
102
RTVSPropertyOp26
 70
     1
102
RTVSPropertyOp27
 70
     1
  0
XRECORD
  5
12D33
102
{ACAD_REACTORS
330
12D32
102
}
330
12D32
100
AcDbXrecord
280
     1
102
RTVSPropertyOp0
 70
     0
102
RTVSPropertyOp1
 70
     0
102
RTVSPropertyOp2
 70
     0
102
RTVSPropertyOp3
 70
     0
102
RTVSPropertyOp4
 70
     0
102
RTVSPropertyOp5
 70
     0
102
RTVSPropertyOp6
 70
     0
102
RTVSPropertyOp7
 70
     0
102
RTVSPropertyOp8
 70
     0
102
RTVSPropertyOp9
 70
     0
102
RTVSPropertyOp10
 70
     0
102
RTVSPropertyOp11
 70
     0
102
RTVSPropertyOp12
 70
     0
102
RTVSPropertyOp13
 70
     0
102
RTVSPropertyOp14
 70
     2
102
RTVSPropertyOp15
 70
     0
102
RTVSPropertyOp16
 70
     0
102
RTVSPropertyOp17
 70
     0
102
RTVSPropertyOp18
 70
     0
102
RTVSPropertyOp19
 70
     0
102
RTVSPropertyOp20
 70
     0
102
RTVSPropertyOp21
 70
     0
102
RTVSPropertyOp22
 70
     0
102
RTVSPropertyOp23
 70
     0
102
RTVSPropertyOp24
 70
     0
102
RTVSPropertyOp25
 70
     0
102
RTVSPropertyOp26
 70
     0
102
RTVSPropertyOp27
 70
     0
  0
XRECORD
  5
12D23
102
{ACAD_REACTORS
330
12D22
102
}
330
12D22
100
AcDbXrecord
280
     1
102
RTVSPropertyOp0
 70
     1
102
RTVSPropertyOp1
 70
     1
102
RTVSPropertyOp2
 70
     1
102
RTVSPropertyOp3
 70
     1
102
RTVSPropertyOp4
 70
     1
102
RTVSPropertyOp5
 70
     1
102
RTVSPropertyOp6
 70
     1
102
RTVSPropertyOp7
 70
     1
102
RTVSPropertyOp8
 70
     1
102
RTVSPropertyOp9
 70
     1
102
RTVSPropertyOp10
 70
     1
102
RTVSPropertyOp11
 70
     1
102
RTVSPropertyOp12
 70
     1
102
RTVSPropertyOp13
 70
     1
102
RTVSPropertyOp14
 70
     1
102
RTVSPropertyOp15
 70
     1
102
RTVSPropertyOp16
 70
     1
102
RTVSPropertyOp17
 70
     1
102
RTVSPropertyOp18
 70
     1
102
RTVSPropertyOp19
 70
     1
102
RTVSPropertyOp20
 70
     1
102
RTVSPropertyOp21
 70
     1
102
RTVSPropertyOp22
 70
     1
102
RTVSPropertyOp23
 70
     1
102
RTVSPropertyOp24
 70
     1
102
RTVSPropertyOp25
 70
     1
102
RTVSPropertyOp26
 70
     1
102
RTVSPropertyOp27
 70
     1
  0
XRECORD
  5
12D29
102
{ACAD_REACTORS
330
12D28
102
}
330
12D28
100
AcDbXrecord
280
     1
102
RTVSPropertyOp0
 70
     1
102
RTVSPropertyOp1
 70
     1
102
RTVSPropertyOp2
 70
     1
102
RTVSPropertyOp3
 70
     1
102
RTVSPropertyOp4
 70
     1
102
RTVSPropertyOp5
 70
     1
102
RTVSPropertyOp6
 70
     1
102
RTVSPropertyOp7
 70
     1
102
RTVSPropertyOp8
 70
     1
102
RTVSPropertyOp9
 70
     1
102
RTVSPropertyOp10
 70
     1
102
RTVSPropertyOp11
 70
     1
102
RTVSPropertyOp12
 70
     1
102
RTVSPropertyOp13
 70
     1
102
RTVSPropertyOp14
 70
     1
102
RTVSPropertyOp15
 70
     1
102
RTVSPropertyOp16
 70
     1
102
RTVSPropertyOp17
 70
     1
102
RTVSPropertyOp18
 70
     1
102
RTVSPropertyOp19
 70
     1
102
RTVSPropertyOp20
 70
     1
102
RTVSPropertyOp21
 70
     1
102
RTVSPropertyOp22
 70
     1
102
RTVSPropertyOp23
 70
     1
102
RTVSPropertyOp24
 70
     1
102
RTVSPropertyOp25
 70
     1
102
RTVSPropertyOp26
 70
     1
102
RTVSPropertyOp27
 70
     1
  0
XRECORD
  5
4508
102
{ACAD_REACTORS
330
4507
102
}
330
4507
100
AcDbXrecord
280
     1
330
41B
  0
ENDSEC
  0
EOF
