  0
SECTION
  2
HEADER
  9
$ACADVER
  1
AC1015
  9
$ACADMAINTVER
 70
    10
  9
$DWGCODEPAGE
  3
ANSI_1252
  9
$INSBASE
 10
0.0
 20
0.0
 30
0.0
  9
$EXTMIN
 10
-323.8899858668005
 20
-53.16459382244182
 30
-0.0000000000000032
  9
$EXTMAX
 10
114.6371227965769
 20
53.53361082737979
 30
0.000000000000012
  9
$LIMMIN
 10
0.0
 20
0.0
  9
$LIMMAX
 10
420.0
 20
297.0
  9
$ORTHOMODE
 70
     0
  9
$REGENMODE
 70
     1
  9
$FILLMODE
 70
     1
  9
$QTEXTMODE
 70
     0
  9
$MIRRTEXT
 70
     1
  9
$LTSCALE
 40
1.0
  9
$ATTMODE
 70
     1
  9
$TEXTSIZE
 40
0.0
  9
$TRACEWID
 40
1.0
  9
$TEXTSTYLE
  7
STANDARD
  9
$CLAYER
  8
0
  9
$CELTYPE
  6
ByLayer
  9
$CECOLOR
 62
   256
  9
$CELTSCALE
 40
1.0
  9
$DISPSILH
 70
     0
  9
$DIMSCALE
 40
1.0
  9
$DIMASZ
 40
2.5
  9
$DIMEXO
 40
0.625
  9
$DIMDLI
 40
3.75
  9
$DIMRND
 40
0.0
  9
$DIMDLE
 40
0.0
  9
$DIMEXE
 40
1.25
  9
$DIMTP
 40
0.0
  9
$DIMTM
 40
0.0
  9
$DIMTXT
 40
3.5
  9
$DIMCEN
 40
2.5
  9
$DIMTSZ
 40
0.0
  9
$DIMTOL
 70
     0
  9
$DIMLIM
 70
     0
  9
$DIMTIH
 70
     0
  9
$DIMTOH
 70
     0
  9
$DIMSE1
 70
     0
  9
$DIMSE2
 70
     0
  9
$DIMTAD
 70
     1
  9
$DIMZIN
 70
     8
  9
$DIMBLK
  1

  9
$DIMASO
 70
     1
  9
$DIMSHO
 70
     1
  9
$DIMPOST
  1

  9
$DIMAPOST
  1

  9
$DIMALT
 70
     0
  9
$DIMALTD
 70
     3
  9
$DIMALTF
 40
0.03937
  9
$DIMLFAC
 40
1.0
  9
$DIMTOFL
 70
     1
  9
$DIMTVP
 40
0.0
  9
$DIMTIX
 70
     0
  9
$DIMSOXD
 70
     0
  9
$DIMSAH
 70
     0
  9
$DIMBLK1
  1

  9
$DIMBLK2
  1

  9
$DIMSTYLE
  2
STANDARD
  9
$DIMCLRD
 70
     0
  9
$DIMCLRE
 70
     0
  9
$DIMCLRT
 70
     0
  9
$DIMTFAC
 40
1.0
  9
$DIMGAP
 40
0.625
  9
$DIMJUST
 70
     0
  9
$DIMSD1
 70
     0
  9
$DIMSD2
 70
     0
  9
$DIMTOLJ
 70
     0
  9
$DIMTZIN
 70
     8
  9
$DIMALTZ
 70
     0
  9
$DIMALTTZ
 70
     0
  9
$DIMUPT
 70
     0
  9
$DIMDEC
 70
     1
  9
$DIMTDEC
 70
     1
  9
$DIMALTU
 70
     2
  9
$DIMALTTD
 70
     3
  9
$DIMTXSTY
  7
STANDARD
  9
$DIMAUNIT
 70
     0
  9
$DIMADEC
 70
     0
  9
$DIMALTRND
 40
0.0
  9
$DIMAZIN
 70
     0
  9
$DIMDSEP
 70
    46
  9
$DIMATFIT
 70
     0
  9
$DIMFRAC
 70
     0
  9
$DIMLDRBLK
  1

  9
$DIMLUNIT
 70
     2
  9
$DIMLWD
 70
    -2
  9
$DIMLWE
 70
    -2
  9
$DIMTMOVE
 70
     0
  9
$LUNITS
 70
     2
  9
$LUPREC
 70
     4
  9
$SKETCHINC
 40
1.0
  9
$FILLETRAD
 40
2.5
  9
$AUNITS
 70
     0
  9
$AUPREC
 70
     0
  9
$MENU
  1
.
  9
$ELEVATION
 40
0.0
  9
$PELEVATION
 40
0.0
  9
$THICKNESS
 40
0.0
  9
$LIMCHECK
 70
     0
  9
$CHAMFERA
 40
2.5
  9
$CHAMFERB
 40
2.5
  9
$CHAMFERC
 40
0.0
  9
$CHAMFERD
 40
0.0
  9
$SKPOLY
 70
     0
  9
$TDCREATE
 40
2455379.211286342
  9
$TDUCREATE
 40
2455379.169619675
  9
$TDUPDATE
 40
2455512.543835439
  9
$TDUUPDATE
 40
2455512.502168773
  9
$TDINDWG
 40
0.1120612963
  9
$TDUSRTIMER
 40
0.1120607523
  9
$USRTIMER
 70
     1
  9
$ANGBASE
 50
0.0
  9
$ANGDIR
 70
     0
  9
$PDMODE
 70
     0
  9
$PDSIZE
 40
0.0
  9
$PLINEWID
 40
0.0
  9
$SPLFRAME
 70
     0
  9
$SPLINETYPE
 70
     6
  9
$SPLINESEGS
 70
     8
  9
$HANDSEED
  5
98C
  9
$SURFTAB1
 70
     6
  9
$SURFTAB2
 70
     6
  9
$SURFTYPE
 70
     6
  9
$SURFU
 70
     6
  9
$SURFV
 70
     6
  9
$UCSBASE
  2

  9
$UCSNAME
  2

  9
$UCSORG
 10
0.0
 20
0.0
 30
0.0
  9
$UCSXDIR
 10
1.0
 20
0.0
 30
0.0
  9
$UCSYDIR
 10
0.0
 20
1.0
 30
0.0
  9
$UCSORTHOREF
  2

  9
$UCSORTHOVIEW
 70
     0
  9
$UCSORGTOP
 10
306.2120311571177
 20
31.90078130625257
 30
0.0
  9
$UCSORGBOTTOM
 10
0.0
 20
0.0
 30
0.0
  9
$UCSORGLEFT
 10
0.0
 20
0.0
 30
0.0
  9
$UCSORGRIGHT
 10
0.0
 20
0.0
 30
0.0
  9
$UCSORGFRONT
 10
0.0
 20
0.0
 30
0.0
  9
$UCSORGBACK
 10
0.0
 20
0.0
 30
0.0
  9
$PUCSBASE
  2

  9
$PUCSNAME
  2

  9
$PUCSORG
 10
0.0
 20
0.0
 30
0.0
  9
$PUCSXDIR
 10
1.0
 20
0.0
 30
0.0
  9
$PUCSYDIR
 10
0.0
 20
1.0
 30
0.0
  9
$PUCSORTHOREF
  2

  9
$PUCSORTHOVIEW
 70
     0
  9
$PUCSORGTOP
 10
0.0
 20
0.0
 30
0.0
  9
$PUCSORGBOTTOM
 10
0.0
 20
0.0
 30
0.0
  9
$PUCSORGLEFT
 10
0.0
 20
0.0
 30
0.0
  9
$PUCSORGRIGHT
 10
0.0
 20
0.0
 30
0.0
  9
$PUCSORGFRONT
 10
0.0
 20
0.0
 30
0.0
  9
$PUCSORGBACK
 10
0.0
 20
0.0
 30
0.0
  9
$USERI1
 70
     0
  9
$USERI2
 70
     0
  9
$USERI3
 70
     0
  9
$USERI4
 70
     0
  9
$USERI5
 70
     0
  9
$USERR1
 40
0.0
  9
$USERR2
 40
0.0
  9
$USERR3
 40
0.0
  9
$USERR4
 40
0.0
  9
$USERR5
 40
0.0
  9
$WORLDVIEW
 70
     1
  9
$SHADEDGE
 70
     3
  9
$SHADEDIF
 70
    70
  9
$TILEMODE
 70
     1
  9
$MAXACTVP
 70
    48
  9
$PINSBASE
 10
0.0
 20
0.0
 30
0.0
  9
$PLIMCHECK
 70
     0
  9
$PEXTMIN
 10
0.0
 20
0.0
 30
0.0
  9
$PEXTMAX
 10
383.416809
 20
109.7479709999999
 30
2.0
  9
$PLIMMIN
 10
0.0
 20
0.0
  9
$PLIMMAX
 10
420.0
 20
297.0
  9
$UNITMODE
 70
     0
  9
$VISRETAIN
 70
     0
  9
$PLINEGEN
 70
     0
  9
$PSLTSCALE
 70
     1
  9
$TREEDEPTH
 70
  3020
  9
$CMLSTYLE
  2
Standard
  9
$CMLJUST
 70
     0
  9
$CMLSCALE
 40
20.0
  9
$PROXYGRAPHICS
 70
     1
  9
$MEASUREMENT
 70
     1
  9
$CELWEIGHT
370
    -1
  9
$ENDCAPS
280
     0
  9
$JOINSTYLE
280
     0
  9
$LWDISPLAY
290
     0
  9
$INSUNITS
 70
     0
  9
$HYPERLINKBASE
  1

  9
$STYLESHEET
  1

  9
$XEDIT
290
     1
  9
$CEPSNTYPE
380
     0
  9
$PSTYLEMODE
290
     0
  9
$FINGERPRINTGUID
  2

  9
$VERSIONGUID
  2
{BA5A0E29-ED41-4EDE-BB59-F2E9DDB77905}
  9
$EXTNAMES
290
     0
  9
$PSVPSCALE
 40
0.0
  9
$OLESTARTUP
290
     0
  0
ENDSEC
  0
SECTION
  2
CLASSES
  0
CLASS
  1
IMAGE
  2
AcDbRasterImage
  3
ISM
 90
    34943
280
     0
281
     1
  0
CLASS
  1
DICTIONARYVAR
  2
AcDbDictionaryVar
  3
AutoCAD 2000
 90
        0
280
     0
281
     0
  0
CLASS
  1
RASTERVARIABLES
  2
AcDbRasterVariables
  3
ISM
 90
    32768
280
     0
281
     0
  0
CLASS
  1
IMAGEDEF
  2
AcDbRasterImageDef
  3
ISM
 90
    32768
280
     0
281
     0
  0
CLASS
  1
IMAGEDEF_REACTOR
  2
AcDbRasterImageDefReactor
  3
ISM
 90
    32769
280
     0
281
     0
  0
CLASS
  1
IDBUFFER
  2
AcDbIdBuffer
  3
AutoCAD 2000
 90
    32768
280
     0
281
     0
  0
CLASS
  1
SPATIAL_FILTER
  2
AcDbSpatialFilter
  3
AutoCAD 2000
 90
    32768
280
     0
281
     0
  0
CLASS
  1
SORTENTSTABLE
  2
AcDbSortentsTable
  3
AutoCAD 2000
 90
        0
280
     0
281
     0
  0
CLASS
  1
LAYER_INDEX
  2
AcDbLayerIndex
  3
AutoCAD 2000
 90
    32768
280
     0
281
     0
  0
CLASS
  1
SPATIAL_INDEX
  2
AcDbSpatialIndex
  3
AutoCAD 2000
 90
    32768
280
     0
281
     0
  0
CLASS
  1
OBJECT_PTR
  2
CAseDLPNTableRecord
  3
"ASE-LPNTableRecord"
 90
    32769
280
     0
281
     0
  0
CLASS
  1
LAYOUT
  2
AcDbLayout
  3
AutoCAD 2000
 90
        0
280
     0
281
     0
  0
CLASS
  1
PLOTSETTINGS
  2
AcDbPlotSettings
  3
AutoCAD 2000
 90
    32768
280
     0
281
     0
  0
CLASS
  1
ACDBDICTIONARYWDFLT
  2
AcDbDictionaryWithDefault
  3
AutoCAD 2000
 90
        0
280
     0
281
     0
  0
CLASS
  1
ACDBPLACEHOLDER
  2
AcDbPlaceHolder
  3
AutoCAD 2000
 90
        0
280
     0
281
     0
  0
CLASS
  1
VBA_PROJECT
  2
AcDbVbaProject
  3
acad
 90
    32768
280
     0
281
     0
  0
CLASS
  1
WIPEOUT
  2
AcDbWipeout
  3
"WipeOut|Product Desc: Object Enabler for WipeOut entity                        |Company: Autodesk, Inc.                        |WEB Address: www.autodesk.com"
 90
    34943
280
     0
281
     1
  0
CLASS
  1
WIPEOUTVARIABLES
  2
AcDbWipeoutVariables
  3
"WipeOut|Product Desc:     WipeOut Dbx Application|Company:          Autodesk, Inc.|WEB Address:      www.autodesk.com"
 90
        0
280
     0
281
     0
  0
CLASS
  1
RTEXT
  2
RText
  3
RText|AutoCAD Express Tool|expresstools@autodesk.com
 90
    32768
280
     0
281
     1
  0
CLASS
  1
ARCALIGNEDTEXT
  2
AcDbArcAlignedText
  3
ATEXT|AutoCAD Express Tool|expresstools@autodesk.com
 90
    32768
280
     0
281
     1
  0
CLASS
  1
TABLESTYLE
  2
AcDbTableStyle
  3
ObjectDBX Classes
 90
     4095
280
     0
281
     0
  0
CLASS
  1
MATERIAL
  2
AcDbMaterial
  3
ObjectDBX Classes
 90
     1153
280
     0
281
     0
  0
CLASS
  1
VISUALSTYLE
  2
AcDbVisualStyle
  3
ObjectDBX Classes
 90
     4095
280
     0
281
     0
  0
CLASS
  1
SCALE
  2
AcDbScale
  3
ObjectDBX Classes
 90
     1153
280
     0
281
     0
  0
CLASS
  1
MLEADERSTYLE
  2
AcDbMLeaderStyle
  3
ACDB_MLEADERSTYLE_CLASS
 90
     4095
280
     0
281
     0
  0
CLASS
  1
CELLSTYLEMAP
  2
AcDbCellStyleMap
  3
ObjectDBX Classes
 90
     1152
280
     0
281
     0
  0
ENDSEC
  0
SECTION
  2
TABLES
  0
TABLE
  2
VPORT
  5
7
330
0
100
AcDbSymbolTable
 70
     2
  0
VPORT
  5
98B
330
7
100
AcDbSymbolTableRecord
100
AcDbViewportTableRecord
  2
*Active
 70
     0
 10
0.0
 20
0.0
 11
1.0
 21
1.0
 12
-104.6264315351117
 22
0.1845085024689865
 13
0.0
 23
0.0
 14
1.0
 24
1.0
 15
0.0
 25
0.0
 16
0.0
 26
0.0
 36
1.0
 17
0.0
 27
0.0
 37
0.0
 40
179.3273363526107
 41
2.460199004975124
 42
50.0
 43
0.0
 44
0.0
 50
0.0
 51
0.0
 71
     0
 72
   100
 73
     1
 74
     3
 75
     0
 76
     0
 77
     0
 78
     0
281
     0
 65
     0
110
0.0
120
0.0
130
0.0
111
1.0
121
0.0
131
0.0
112
0.0
122
1.0
132
0.0
 79
     0
146
0.0
  0
ENDTAB
  0
TABLE
  2
LTYPE
  5
4
330
0
100
AcDbSymbolTable
 70
     2
  0
LTYPE
  5
11
330
4
100
AcDbSymbolTableRecord
100
AcDbLinetypeTableRecord
  2
ByBlock
 70
     0
  3

 72
    65
 73
     0
 40
0.0
  0
LTYPE
  5
12
330
4
100
AcDbSymbolTableRecord
100
AcDbLinetypeTableRecord
  2
ByLayer
 70
     0
  3

 72
    65
 73
     0
 40
0.0
  0
LTYPE
  5
13
330
4
100
AcDbSymbolTableRecord
100
AcDbLinetypeTableRecord
  2
Continuous
 70
     0
  3
Solid line
 72
    65
 73
     0
 40
0.0
  0
LTYPE
  5
262
330
4
100
AcDbSymbolTableRecord
100
AcDbLinetypeTableRecord
  2
CENTER2
 70
     0
  3
Center (.5x) ___ _ ___ _ ___ _ ___ _ ___ _ ___
 72
    65
 73
     4
 40
28.57499999999999
 49
19.05
 74
     0
 49
-3.174999999999998
 74
     0
 49
3.174999999999998
 74
     0
 49
-3.174999999999998
 74
     0
  0
ENDTAB
  0
TABLE
  2
LAYER
  5
2
102
{ACAD_XDICTIONARY
360
2A3
102
}
330
0
100
AcDbSymbolTable
 70
    12
  0
LAYER
  5
14
102
{ACAD_XDICTIONARY
360
6FA
102
}
330
2
100
AcDbSymbolTableRecord
100
AcDbLayerTableRecord
  2
0
 70
     0
 62
     7
  6
Continuous
370
    -3
390
1D
  0
LAYER
  5
264
102
{ACAD_XDICTIONARY
360
265
102
}
330
2
100
AcDbSymbolTableRecord
100
AcDbLayerTableRecord
  2
1
 70
     0
 62
     4
  6
Continuous
370
    50
390
1D
  0
LAYER
  5
267
102
{ACAD_XDICTIONARY
360
268
102
}
330
2
100
AcDbSymbolTableRecord
100
AcDbLayerTableRecord
  2
2
 70
     0
 62
     7
  6
Continuous
370
    25
390
1D
  0
LAYER
  5
26A
102
{ACAD_XDICTIONARY
360
26B
102
}
330
2
100
AcDbSymbolTableRecord
100
AcDbLayerTableRecord
  2
SK2
 70
     0
 62
     7
  6
Continuous
370
    25
390
1D
  0
LAYER
  5
270
102
{ACAD_XDICTIONARY
360
271
102
}
330
2
100
AcDbSymbolTableRecord
100
AcDbLayerTableRecord
  2
4
 70
     0
 62
     2
  6
CENTER2
370
    25
390
1D
  0
LAYER
  5
276
102
{ACAD_XDICTIONARY
360
277
102
}
330
2
100
AcDbSymbolTableRecord
100
AcDbLayerTableRecord
  2
SK6
 70
     0
 62
     5
  6
Continuous
370
    -3
390
1D
  0
LAYER
  5
279
330
2
100
AcDbSymbolTableRecord
100
AcDbLayerTableRecord
  2
DEFPOINTS
 70
     0
 62
     7
  6
Continuous
290
     0
370
    25
390
1D
  0
LAYER
  5
280
102
{ACAD_XDICTIONARY
360
281
102
}
330
2
100
AcDbSymbolTableRecord
100
AcDbLayerTableRecord
  2
INFTOTAL
 70
     0
 62
     9
  6
Continuous
370
    18
390
1D
1001
AcAecLayerStandard
1000

1000

  0
LAYER
  5
284
102
{ACAD_XDICTIONARY
360
6FC
102
}
330
2
100
AcDbSymbolTableRecord
100
AcDbLayerTableRecord
  2
SK1
 70
     0
 62
     4
  6
Continuous
370
    50
390
1D
1001
AcAecLayerStandard
1000

1000

  0
LAYER
  5
285
102
{ACAD_XDICTIONARY
360
6FE
102
}
330
2
100
AcDbSymbolTableRecord
100
AcDbLayerTableRecord
  2
INSERT
 70
     0
 62
     4
  6
Continuous
370
    50
390
1D
1001
AcAecLayerStandard
1000

1000

  0
LAYER
  5
7E6
102
{ACAD_XDICTIONARY
360
7E7
102
}
330
2
100
AcDbSymbolTableRecord
100
AcDbLayerTableRecord
  2
7
 70
     0
 62
     5
  6
Continuous
370
    25
390
1D
1001
AcAecLayerStandard
1000

1000

  0
LAYER
  5
94B
330
2
100
AcDbSymbolTableRecord
100
AcDbLayerTableRecord
  2
SK4
 70
     0
 62
     2
  6
CENTER2
370
    25
390
1D
1001
AcAecLayerStandard
1000

1000

  0
ENDTAB
  0
TABLE
  2
STYLE
  5
3
330
0
100
AcDbSymbolTable
 70
     1
  0
STYLE
  5
17
330
3
100
AcDbSymbolTableRecord
100
AcDbTextStyleTableRecord
  2
STANDARD
 70
     0
 40
0.0
 41
1.0
 50
0.0
 71
     0
 42
0.0
  3
monos.ttf
  4

1001
ACAD
1000
Monospac821 BT
1071
       49
  0
ENDTAB
  0
TABLE
  2
VIEW
  5
5
330
0
100
AcDbSymbolTable
 70
     0
  0
ENDTAB
  0
TABLE
  2
UCS
  5
6
330
0
100
AcDbSymbolTable
 70
     0
  0
ENDTAB
  0
TABLE
  2
APPID
  5
8
330
0
100
AcDbSymbolTable
 70
    19
  0
APPID
  5
16
330
8
100
AcDbSymbolTableRecord
100
AcDbRegAppTableRecord
  2
ACAD
 70
     0
  0
APPID
  5
287
330
8
100
AcDbSymbolTableRecord
100
AcDbRegAppTableRecord
  2
ACAD_PSEXT
 70
     0
  0
APPID
  5
288
330
8
100
AcDbSymbolTableRecord
100
AcDbRegAppTableRecord
  2
ACAD_EXEMPT_FROM_CAD_STANDARDS
 70
     0
  0
APPID
  5
289
330
8
100
AcDbSymbolTableRecord
100
AcDbRegAppTableRecord
  2
ACAD_MLEADERVER
 70
     0
  0
APPID
  5
28A
330
8
100
AcDbSymbolTableRecord
100
AcDbRegAppTableRecord
  2
ACAD_DSTYLE_DIMJAG
 70
     0
  0
APPID
  5
28B
330
8
100
AcDbSymbolTableRecord
100
AcDbRegAppTableRecord
  2
ACAD_DSTYLE_DIMBREAK
 70
     0
  0
APPID
  5
28C
330
8
100
AcDbSymbolTableRecord
100
AcDbRegAppTableRecord
  2
ACAD_DSTYLE_DIMTALN
 70
     0
  0
APPID
  5
28D
330
8
100
AcDbSymbolTableRecord
100
AcDbRegAppTableRecord
  2
AcAecLayerStandard
 70
     0
  0
APPID
  5
28E
330
8
100
AcDbSymbolTableRecord
100
AcDbRegAppTableRecord
  2
DCO15
 70
     0
  0
APPID
  5
28F
330
8
100
AcDbSymbolTableRecord
100
AcDbRegAppTableRecord
  2
AcadAnnoPO
 70
     0
  0
APPID
  5
290
330
8
100
AcDbSymbolTableRecord
100
AcDbRegAppTableRecord
  2
ACAD_DSTYLE_DIMRADIAL_EXTENSION
 70
     0
  0
APPID
  5
291
330
8
100
AcDbSymbolTableRecord
100
AcDbRegAppTableRecord
  2
ACAD_DSTYLE_DIMTEXT_FILL
 70
     0
  0
APPID
  5
292
330
8
100
AcDbSymbolTableRecord
100
AcDbRegAppTableRecord
  2
ACAD_DSTYLE_DIMEXT_LENGTH
 70
     0
  0
APPID
  5
293
330
8
100
AcDbSymbolTableRecord
100
AcDbRegAppTableRecord
  2
ACAD_DSTYLE_DIMEXT_ENABLED
 70
     0
  0
APPID
  5
294
330
8
100
AcDbSymbolTableRecord
100
AcDbRegAppTableRecord
  2
ACAD_DSTYLE_DIM_LINETYPE
 70
     0
  0
APPID
  5
295
330
8
100
AcDbSymbolTableRecord
100
AcDbRegAppTableRecord
  2
ACAD_DSTYLE_DIM_EXT1_LINETYPE
 70
     0
  0
APPID
  5
296
330
8
100
AcDbSymbolTableRecord
100
AcDbRegAppTableRecord
  2
ACAD_DSTYLE_DIM_EXT2_LINETYPE
 70
     0
  0
APPID
  5
297
330
8
100
AcDbSymbolTableRecord
100
AcDbRegAppTableRecord
  2
ACAD_DSTYLE_DIMJOGGED_JOGANGLE_SYMBOL
 70
     0
  0
APPID
  5
298
330
8
100
AcDbSymbolTableRecord
100
AcDbRegAppTableRecord
  2
ACAD_DSTYLE_DIMARC_LENGTH_SYMBOL
 70
     0
  0
ENDTAB
  0
TABLE
  2
DIMSTYLE
  5
9
330
0
100
AcDbSymbolTable
 70
     2
100
AcDbDimStyleTable
 71
     2
340
18
340
286
  0
DIMSTYLE
105
18
102
{ACAD_REACTORS
330
5BA
330
5C7
330
5D4
330
5E1
102
}
330
9
100
AcDbSymbolTableRecord
100
AcDbDimStyleTableRecord
  2
STANDARD
 70
     0
 41
2.5
 42
0.625
 43
3.75
 44
1.25
 73
     0
 74
     0
 77
     1
 78
     8
140
3.5
141
2.5
143
0.03937
147
0.625
171
     3
172
     1
271
     1
272
     1
274
     3
283
     0
284
     8
289
     0
340
17
1001
ACAD_DSTYLE_DIMEXT_LENGTH
1070
   378
1040
1.25
1001
ACAD_DSTYLE_DIMJOGGED_JOGANGLE_SYMBOL
1070
   384
1040
1.570796326794896
  0
DIMSTYLE
105
286
102
{ACAD_REACTORS
330
596
102
}
330
9
100
AcDbSymbolTableRecord
100
AcDbDimStyleTableRecord
  2
DIAMETER
 70
     0
 41
2.5
 42
0.0
 43
3.75
 44
1.25
 73
     0
 74
     0
 76
     1
 77
     1
 78
     8
 79
     2
140
3.5
141
0.0
143
0.039370078
147
0.625
171
     3
173
     1
179
     2
271
     1
272
     1
274
     3
283
     0
284
     8
340
17
344
122
1001
ACAD_DSTYLE_DIMBREAK
1070
   391
1040
3.75
1001
ACAD_DSTYLE_DIMJAG
1070
   388
1040
1.5
1001
ACAD_DSTYLE_DIMTALN
1070
   392
1070
     0
1001
ACAD_DSTYLE_DIMEXT_LENGTH
1070
   378
1040
1.25
1001
ACAD_DSTYLE_DIMJOGGED_JOGANGLE_SYMBOL
1070
   384
1040
1.570796326794896
  0
ENDTAB
  0
TABLE
  2
BLOCK_RECORD
  5
1
330
0
100
AcDbSymbolTable
 70
     7
  0
BLOCK_RECORD
  5
A
102
{ACAD_XDICTIONARY
360
335
102
}
330
1
100
AcDbSymbolTableRecord
100
AcDbBlockTableRecord
  2
*MODEL_SPACE
340
20
  0
BLOCK_RECORD
  5
B
330
1
100
AcDbSymbolTableRecord
100
AcDbBlockTableRecord
  2
*PAPER_SPACE
340
21
  0
BLOCK_RECORD
  5
122
330
1
100
AcDbSymbolTableRecord
100
AcDbBlockTableRecord
  2
_None
340
0
  0
BLOCK_RECORD
  5
125
330
1
100
AcDbSymbolTableRecord
100
AcDbBlockTableRecord
  2
CERO_POINT
340
0
310
2800000020000000200000000100080000000000000400000000000000000000000000000000000000000000000080000080000000808000800000008000800080800000C0C0C000C0DCC000F0CAA6000020400000206000002080000020A0000020C0000020E00000400000004020000040400000406000004080000040A0
310
000040C0000040E00000600000006020000060400000606000006080000060A0000060C0000060E00000800000008020000080400000806000008080000080A0000080C0000080E00000A0000000A0200000A0400000A0600000A0800000A0A00000A0C00000A0E00000C0000000C0200000C0400000C0600000C0800000C0
310
A00000C0C00000C0E00000E0000000E0200000E0400000E0600000E0800000E0A00000E0C00000E0E00040000000400020004000400040006000400080004000A0004000C0004000E00040200000402020004020400040206000402080004020A0004020C0004020E000404000004040200040404000404060004040800040
310
40A0004040C0004040E00040600000406020004060400040606000406080004060A0004060C0004060E00040800000408020004080400040806000408080004080A0004080C0004080E00040A0000040A0200040A0400040A0600040A0800040A0A00040A0C00040A0E00040C0000040C0200040C0400040C0600040C08000
310
40C0A00040C0C00040C0E00040E0000040E0200040E0400040E0600040E0800040E0A00040E0C00040E0E00080000000800020008000400080006000800080008000A0008000C0008000E00080200000802020008020400080206000802080008020A0008020C0008020E00080400000804020008040400080406000804080
310
008040A0008040C0008040E00080600000806020008060400080606000806080008060A0008060C0008060E00080800000808020008080400080806000808080008080A0008080C0008080E00080A0000080A0200080A0400080A0600080A0800080A0A00080A0C00080A0E00080C0000080C0200080C0400080C0600080C0
310
800080C0A00080C0C00080C0E00080E0000080E0200080E0400080E0600080E0800080E0A00080E0C00080E0E000C0000000C0002000C0004000C0006000C0008000C000A000C000C000C000E000C0200000C0202000C0204000C0206000C0208000C020A000C020C000C020E000C0400000C0402000C0404000C0406000C0
310
408000C040A000C040C000C040E000C0600000C0602000C0604000C0606000C0608000C060A000C060C000C060E000C0800000C0802000C0804000C0806000C0808000C080A000C080C000C080E000C0A00000C0A02000C0A04000C0A06000C0A08000C0A0A000C0A0C000C0A0E000C0C00000C0C02000C0C04000C0C06000
310
C0C08000C0C0A000F0FBFF00A4A0A000808080000000FF0000FF000000FFFF00FF000000FF00FF00FFFF0000FFFFFF00000000000000000000000000000000000000000000000000000000000000000000000000000000000000000000000000FF0000000000000000000000000000000000000000000000000000000000FF
310
FFFFFFFF000000000000000000000000000000000000000000FFFFFFFFFFFF0000FF0000FFFF00FF00000000000000000000000000000000FF00000000000000FFFFFF0000FFFFFFFF000000000000000000000000000000FF0000000000000000FF00FF0000FF00FFFF00000000000000000000000000FF00000000000000
310
0000FFFF00FF0000FF0000FFFF00000000000000000000FF000000000000000000FFFF00FF00FF0000FF0000FF000000000000000000FF0000000000000000000000FF0000FF00FF0000FF0000FF0000000000000000FF00000000000000000000FFFFFF0000FFFFFF0000FF00FFFF000000000000FF000000000000000000
310
000000FF00FF000000FFFF0000FF00FF0000000000FF00000000000000000000000000FFFF00FFFF0000FFFF0000FFFF0000000000FF000000000000000000000000FFFF00FF0000FF0000FFFF0000FF0000000000FF00000000000000000000000000FF0000FF0000FF0000FFFF0000FF00000000FF000000000000000000
310
000000FFFFFF0000FF0000FF0000FFFF00FF00000000FF00FF00000000FF0000FF00FF00FFFFFF0000FF0000FF0000FFFF00FF0000FFFFFFFFFFFFFFFFFFFFFFFFFFFFFFFFFFFFFFFFFFFFFFFFFFFFFFFFFFFF000000FF00FF00FF00FF0000FF0000FFFFFF00000000000000000000000000FF000000FF0000FF00FF00FF00
310
00FF0000FFFF000000000000000000000000FF00000000FFFF0000FF00FF00FF00FF000000FF000000000000000000000000FF00000000FF00FF0000FF00FF00FF00FF0000FF0000000000000000000000FF000000000000FF00FF0000FFFF0000FF00FF00FF0000000000000000000000FF000000000000FFFF00FF00FF00
310
FF0000FF00FFFF00000000000000000000FF0000000000000000FF0000FF00FF00FF0000FF00FF00000000000000000000FF000000000000000000FF0000FF00FF00FF0000FFFF000000000000000000FF0000000000000000000000FF0000FF00FF00FF0000FF000000000000000000FF000000000000000000000000FF00
310
00FF00FF00FF00FF00000000000000FFFF00000000000000000000000000FFFF0000FF00FF00FFFF0000000000FFFF00000000000000000000000000000000FFFFFFFFFF00FF00FF000000FFFF0000000000000000000000000000000000000000000000FFFFFFFFFFFFFF0000000000000000000000000000000000000000
310
0000000000000000FF0000000000000000000000000000000000000000000000000000000000000000000000000000000000000000000000
102
{BLKREFS
331
2B2
102
}
1001
ACAD
1000
DesignCenter Data
1002
{
1070
     1
1070
     4
1002
}
  0
BLOCK_RECORD
  5
597
330
1
100
AcDbSymbolTableRecord
100
AcDbBlockTableRecord
  2
*D2
340
0
  0
BLOCK_RECORD
  5
5BB
330
1
100
AcDbSymbolTableRecord
100
AcDbBlockTableRecord
  2
*D3
340
0
  0
BLOCK_RECORD
  5
5C8
330
1
100
AcDbSymbolTableRecord
100
AcDbBlockTableRecord
  2
*D4
340
0
  0
BLOCK_RECORD
  5
5D5
330
1
100
AcDbSymbolTableRecord
100
AcDbBlockTableRecord
  2
*D5
340
0
  0
BLOCK_RECORD
  5
5E2
330
1
100
AcDbSymbolTableRecord
100
AcDbBlockTableRecord
  2
*D6
340
0
  0
ENDTAB
  0
ENDSEC
  0
SECTION
  2
BLOCKS
  0
BLOCK
  5
D
330
A
100
AcDbEntity
  8
0
100
AcDbBlockBegin
  2
*MODEL_SPACE
 70
     0
 10
0.0
 20
0.0
 30
0.0
  3
*MODEL_SPACE
  1

  0
ENDBLK
  5
E
330
A
100
AcDbEntity
  8
0
100
AcDbBlockEnd
  0
BLOCK
  5
F
330
B
100
AcDbEntity
 67
     1
  8
0
100
AcDbBlockBegin
  2
*PAPER_SPACE
 70
     0
 10
0.0
 20
0.0
 30
0.0
  3
*PAPER_SPACE
  1

  0
ENDBLK
  5
10
330
B
100
AcDbEntity
 67
     1
  8
0
100
AcDbBlockEnd
  0
BLOCK
  5
123
330
122
100
AcDbEntity
  8
0
100
AcDbBlockBegin
  2
_None
 70
     0
 10
0.0
 20
0.0
 30
0.0
  3
_None
  1

  0
ENDBLK
  5
124
330
122
100
AcDbEntity
  8
0
100
AcDbBlockEnd
  0
BLOCK
  5
126
330
125
100
AcDbEntity
  8
0
100
AcDbBlockBegin
  2
CERO_POINT
 70
     0
 10
0.0
 20
0.0
 30
0.0
  3
CERO_POINT
  1

  0
CIRCLE
  5
127
102
{ACAD_REACTORS
330
12C
102
}
330
125
100
AcDbEntity
  8
SK2
100
AcDbCircle
 10
0.0
 20
0.0
 30
0.0
 40
2.5
  0
LINE
  5
128
330
125
100
AcDbEntity
  8
SK2
100
AcDbLine
 10
0.0900000000037835
 20
0.0
 30
0.0
 11
-0.0899999999965076
 21
0.0
 31
0.0
  0
LINE
  5
129
330
125
100
AcDbEntity
  8
SK2
100
AcDbLine
 10
0.0
 20
0.0899999999999182
 30
0.0
 11
0.0
 21
-0.0899999999999182
 31
0.0
  0
LINE
  5
12A
102
{ACAD_REACTORS
330
12C
102
}
330
125
100
AcDbEntity
  8
SK2
100
AcDbLine
 10
0.0
 20
-2.5
 30
0.0
 11
0.0
 21
2.5
 31
0.0
  0
LINE
  5
12B
102
{ACAD_REACTORS
330
12C
102
}
330
125
100
AcDbEntity
  8
SK2
100
AcDbLine
 10
2.5
 20
0.0
 30
0.0
 11
-2.5
 21
0.0
 31
0.0
  0
HATCH
  5
12C
330
125
100
AcDbEntity
  8
SK2
100
AcDbHatch
 10
0.0
 20
0.0
 30
0.0
210
0.0
220
0.0
230
1.0
  2
ANSI31
 70
     0
 71
     1
 91
        2
 92
        7
 72
     1
 73
     1
 93
        3
 10
0.0
 20
-2.5
 42
0.4142135623730951
 10
2.5
 20
0.0
 42
0.0
 10
0.0
 20
0.0
 42
0.0
 97
        3
330
127
330
12B
330
12A
 92
        7
 72
     1
 73
     1
 93
        3
 10
0.0
 20
0.0
 42
0.0
 10
0.0
 20
2.5
 42
0.4142135623730951
 10
-2.5
 20
0.0
 42
0.0
 97
        3
330
12B
330
12A
330
127
 75
     0
 76
     1
 52
180.0
 41
0.1
 77
     0
 78
     1
 53
225.0
 43
5.170976743218488
 44
0.0
 45
0.2245064030267288
 46
-0.2245064030267289
 79
     0
 47
0.0243816376539857
 98
        2
 10
0.8789156907296272
 20
-1.044463114528752
 10
-0.8545028512526187
 20
0.7841600866017872
  0
ENDBLK
  5
12D
330
125
100
AcDbEntity
  8
0
100
AcDbBlockEnd
  0
BLOCK
  5
5A1
330
597
100
AcDbEntity
  8
0
100
AcDbBlockBegin
  2
*D2
 70
     1
 10
0.0
 20
0.0
 30
0.0
  3
*D2
  1

  0
LINE
  5
91D
330
597
100
AcDbEntity
  8
SK2
 62
     0
370
    -2
100
AcDbLine
 10
-293.5
 20
-25.0
 30
0.0
 11
-315.6275255668274
 21
-25.0
 31
0.0
  0
LINE
  5
91E
330
597
100
AcDbEntity
  8
SK2
 62
     0
370
    -2
100
AcDbLine
 10
-314.3775255668275
 20
-22.5
 30
0.0
 11
-314.3775255668275
 21
25.00000000000005
 31
0.0
  0
SOLID
  5
91F
330
597
100
AcDbEntity
  8
SK2
 62
     0
100
AcDbTrace
 10
-314.7941922334942
 20
-22.5
 30
0.0
 11
-313.9608589001608
 21
-22.5
 31
0.0
 12
-314.3775255668275
 22
-25.0
 32
0.0
 13
-314.3775255668275
 23
-25.0
 33
0.0
  0
MTEXT
  5
920
330
597
100
AcDbEntity
  8
SK2
 62
     0
100
AcDbMText
 10
-316.8140153770875
 20
1.249999999999982
 30
0.0
 40
3.5
 41
0.0
 71
     5
 72
     1
  1
D50
 11
0.0000000000000001
 21
1.0
 31
0.0
 73
     1
 44
1.0
1001
ACAD
1000
MTEXTBEGIN
1070
    73
1070
     1
1070
    44
1040
1.0
1070
    74
1070
     0
1000
MTEXTEND
  0
POINT
  5
921
330
597
100
AcDbEntity
  8
DEFPOINTS
 62
     0
100
AcDbPoint
 10
-293.5
 20
-25.0
 30
0.0
  0
POINT
  5
922
330
597
100
AcDbEntity
  8
DEFPOINTS
 62
     0
100
AcDbPoint
 10
-293.5
 20
25.00000000000005
 30
0.0
  0
POINT
  5
923
330
597
100
AcDbEntity
  8
DEFPOINTS
 62
     0
100
AcDbPoint
 10
-314.3775255668275
 20
25.00000000000005
 30
0.0
  0
ENDBLK
  5
5A2
330
597
100
AcDbEntity
  8
0
100
AcDbBlockEnd
  0
BLOCK
  5
5C5
330
5BB
100
AcDbEntity
  8
0
100
AcDbBlockBegin
  2
*D3
 70
     1
 10
0.0
 20
0.0
 30
0.0
  3
*D3
  1

  0
LINE
  5
924
330
5BB
100
AcDbEntity
  8
SK2
 62
     0
370
    -2
100
AcDbLine
 10
-294.5000000000001
 20
24.125
 30
0.0
 11
-294.5000000000001
 21
45.17389161559368
 31
0.0
  0
LINE
  5
925
330
5BB
100
AcDbEntity
  8
SK2
 62
     0
370
    -2
100
AcDbLine
 10
55.50044699999999
 20
35.62499999999996
 30
0.0
 11
55.50044699999999
 21
45.17389161559368
 31
0.0
  0
LINE
  5
926
330
5BB
100
AcDbEntity
  8
SK2
 62
     0
370
    -2
100
AcDbLine
 10
-292.0000000000001
 20
43.92389161559368
 30
0.0
 11
53.00044699999999
 21
43.92389161559368
 31
0.0
  0
SOLID
  5
927
330
5BB
100
AcDbEntity
  8
SK2
 62
     0
100
AcDbTrace
 10
-292.0000000000001
 20
44.34055828226035
 30
0.0
 11
-292.0000000000001
 21
43.50722494892702
 31
0.0
 12
-294.5000000000001
 22
43.92389161559368
 32
0.0
 13
-294.5000000000001
 23
43.92389161559368
 33
0.0
  0
SOLID
  5
928
330
5BB
100
AcDbEntity
  8
SK2
 62
     0
100
AcDbTrace
 10
53.00044699999999
 20
44.34055828226035
 30
0.0
 11
53.00044699999999
 21
43.50722494892702
 31
0.0
 12
55.50044699999999
 22
43.92389161559368
 32
0.0
 13
55.50044699999999
 23
43.92389161559368
 33
0.0
  0
MTEXT
  5
929
330
5BB
100
AcDbEntity
  8
SK2
 62
     0
100
AcDbMText
 10
-119.4997764999999
 20
46.36038142585369
 30
0.0
 40
3.5
 41
0.0
 71
     5
 72
     1
  1
350
 73
     1
 44
1.0
1001
ACAD
1000
MTEXTBEGIN
1070
    73
1070
     1
1070
    44
1040
1.0
1070
    74
1070
     0
1000
MTEXTEND
  0
POINT
  5
92A
330
5BB
100
AcDbEntity
  8
DEFPOINTS
 62
     0
100
AcDbPoint
 10
-294.5000000000001
 20
23.5
 30
0.0
  0
POINT
  5
92B
330
5BB
100
AcDbEntity
  8
DEFPOINTS
 62
     0
100
AcDbPoint
 10
55.50044699999999
 20
34.99999999999996
 30
0.0
  0
POINT
  5
92C
330
5BB
100
AcDbEntity
  8
DEFPOINTS
 62
     0
100
AcDbPoint
 10
55.50044699999999
 20
43.92389161559368
 30
0.0
  0
ENDBLK
  5
5C6
330
5BB
100
AcDbEntity
  8
0
100
AcDbBlockEnd
  0
BLOCK
  5
5D2
330
5C8
100
AcDbEntity
  8
0
100
AcDbBlockBegin
  2
*D4
 70
     1
 10
0.0
 20
0.0
 30
0.0
  3
*D4
  1

  0
LINE
  5
92D
330
5C8
100
AcDbEntity
  8
2
 62
     0
370
    -2
100
AcDbLine
 10
56.12544699999999
 20
34.99999999999996
 30
0.0
 11
108.2147900075904
 21
34.99999999999996
 31
0.0
  0
LINE
  5
92E
330
5C8
100
AcDbEntity
  8
2
 62
     0
370
    -2
100
AcDbLine
 10
95.10344699999986
 20
-0.0000000000000118
 30
0.0
 11
108.2147900075904
 21
-0.0000000000000155
 31
0.0
  0
LINE
  5
92F
330
5C8
100
AcDbEntity
  8
2
 62
     0
370
    -2
100
AcDbLine
 10
106.9647900075904
 20
32.49999999999996
 30
0.0
 11
106.9647900075904
 21
2.499999999999984
 31
0.0
  0
SOLID
  5
930
330
5C8
100
AcDbEntity
  8
2
 62
     0
100
AcDbTrace
 10
106.5481233409237
 20
32.49999999999996
 30
0.0
 11
107.381456674257
 21
32.49999999999996
 31
0.0
 12
106.9647900075904
 22
34.99999999999996
 32
0.0
 13
106.9647900075904
 23
34.99999999999996
 33
0.0
  0
SOLID
  5
931
330
5C8
100
AcDbEntity
  8
2
 62
     0
100
AcDbTrace
 10
106.5481233409237
 20
2.499999999999984
 30
0.0
 11
107.381456674257
 21
2.499999999999984
 31
0.0
 12
106.9647900075904
 22
-0.0000000000000151
 32
0.0
 13
106.9647900075904
 23
-0.0000000000000151
 33
0.0
  0
MTEXT
  5
932
330
5C8
100
AcDbEntity
  8
2
 62
     0
100
AcDbMText
 10
104.5283001973303
 20
17.49999999999998
 30
0.0
 40
3.5
 41
0.0
 71
     5
 72
     1
  1
35
 11
0.0000000000000001
 21
1.0
 31
0.0
 73
     1
 44
1.0
1001
ACAD
1000
MTEXTBEGIN
1070
    73
1070
     1
1070
    44
1040
1.0
1070
    74
1070
     0
1000
MTEXTEND
  0
POINT
  5
933
330
5C8
100
AcDbEntity
  8
DEFPOINTS
 62
     0
100
AcDbPoint
 10
55.50044699999999
 20
34.99999999999996
 30
0.0
  0
POINT
  5
934
330
5C8
100
AcDbEntity
  8
DEFPOINTS
 62
     0
100
AcDbPoint
 10
94.47844699999986
 20
-0.0000000000000116
 30
0.0
  0
POINT
  5
935
330
5C8
100
AcDbEntity
  8
DEFPOINTS
 62
     0
100
AcDbPoint
 10
106.9647900075904
 20
-0.0000000000000151
 30
0.0
  0
ENDBLK
  5
5D3
330
5C8
100
AcDbEntity
  8
0
100
AcDbBlockEnd
  0
BLOCK
  5
5DF
330
5D5
100
AcDbEntity
  8
0
100
AcDbBlockBegin
  2
*D5
 70
     1
 10
0.0
 20
0.0
 30
0.0
  3
*D5
  1

  0
LINE
  5
936
330
5D5
100
AcDbEntity
  8
2
 62
     0
370
    -2
100
AcDbLine
 10
55.50044699999999
 20
34.37499999999996
 30
0.0
 11
55.50044699999998
 21
-38.91595074583209
 31
0.0
  0
LINE
  5
937
330
5D5
100
AcDbEntity
  8
2
 62
     0
370
    -2
100
AcDbLine
 10
10.49999999999999
 20
-25.12500000000003
 30
0.0
 11
10.49999999999999
 21
-38.91595074583207
 31
0.0
  0
LINE
  5
938
330
5D5
100
AcDbEntity
  8
2
 62
     0
370
    -2
100
AcDbLine
 10
53.00044699999998
 20
-37.66595074583207
 30
0.0
 11
12.99999999999999
 21
-37.66595074583207
 31
0.0
  0
SOLID
  5
939
330
5D5
100
AcDbEntity
  8
2
 62
     0
100
AcDbTrace
 10
53.00044699999998
 20
-37.24928407916542
 30
0.0
 11
53.00044699999998
 21
-38.08261741249874
 31
0.0
 12
55.50044699999998
 22
-37.66595074583207
 32
0.0
 13
55.50044699999998
 23
-37.66595074583207
 33
0.0
  0
SOLID
  5
93A
330
5D5
100
AcDbEntity
  8
2
 62
     0
100
AcDbTrace
 10
12.99999999999999
 20
-37.24928407916542
 30
0.0
 11
12.99999999999999
 21
-38.08261741249874
 31
0.0
 12
10.49999999999999
 22
-37.66595074583207
 32
0.0
 13
10.49999999999999
 23
-37.66595074583207
 33
0.0
  0
MTEXT
  5
93B
330
5D5
100
AcDbEntity
  8
2
 62
     0
100
AcDbMText
 10
33.00022349999998
 20
-35.24052910141886
 30
0.0
 40
3.5
 41
0.0
 71
     5
 72
     1
  1
45
 73
     1
 44
1.0
1001
ACAD
1000
MTEXTBEGIN
1070
    73
1070
     1
1070
    44
1040
1.0
1070
    74
1070
     0
1000
MTEXTEND
  0
POINT
  5
93C
330
5D5
100
AcDbEntity
  8
DEFPOINTS
 62
     0
100
AcDbPoint
 10
55.50044699999999
 20
34.99999999999996
 30
0.0
  0
POINT
  5
93D
330
5D5
100
AcDbEntity
  8
DEFPOINTS
 62
     0
100
AcDbPoint
 10
10.49999999999999
 20
-24.50000000000003
 30
0.0
  0
POINT
  5
93E
330
5D5
100
AcDbEntity
  8
DEFPOINTS
 62
     0
100
AcDbPoint
 10
10.49999999999999
 20
-37.66595074583207
 30
0.0
  0
ENDBLK
  5
5E0
330
5D5
100
AcDbEntity
  8
0
100
AcDbBlockEnd
  0
BLOCK
  5
5ED
330
5E2
100
AcDbEntity
  8
0
100
AcDbBlockBegin
  2
*D6
 70
     1
 10
0.0
 20
0.0
 30
0.0
  3
*D6
  1

  0
LINE
  5
93F
330
5E2
100
AcDbEntity
  8
2
 62
     0
370
    -2
100
AcDbLine
 10
52.87499999999988
 20
34.99999999999996
 30
0.0
 11
44.39851910442096
 21
34.99999999999996
 31
0.0
  0
ARC
  5
940
330
5E2
100
AcDbEntity
  8
2
 62
     0
370
    -2
100
AcDbCircle
 10
55.46911480022759
 20
34.99999999999996
 30
0.0
 40
9.820595695806618
100
AcDbArc
 50
194.6252908823186
 51
257.5518894730425
  0
SOLID
  5
941
330
5E2
100
AcDbEntity
  8
2
 62
     0
100
AcDbTrace
 10
45.55345025118678
 20
32.46729926279159
 30
0.0
 11
46.38000556342919
 21
32.57336886375393
 31
0.0
 12
45.64851910442096
 22
34.99999999999996
 32
0.0
 13
45.64851910442096
 23
34.99999999999996
 33
0.0
  0
SOLID
  5
942
330
5E2
100
AcDbEntity
  8
2
 62
     0
100
AcDbTrace
 10
53.38952902466235
 20
25.82526466910787
 30
0.0
 11
53.31493668149319
 21
24.99527646028502
 31
0.0
 12
55.84219747954636
 22
25.18649353518894
 32
0.0
 13
55.84219747954636
 23
25.18649353518894
 33
0.0
  0
MTEXT
  5
943
330
5E2
100
AcDbEntity
  8
2
 62
     0
100
AcDbMText
 10
49.12156797174737
 20
31.227246497687
 30
0.0
 40
3.5
 41
0.0
 71
     5
 72
     1
  1
93%%D
 11
0.510928954810577
 21
-0.8596229424207868
 31
0.0
 73
     1
 44
1.0
1001
ACAD
1000
MTEXTBEGIN
1070
    73
1070
     1
1070
    44
1040
1.0
1070
    74
1070
     0
1000
MTEXTEND
  0
POINT
  5
944
330
5E2
100
AcDbEntity
  8
DEFPOINTS
 62
     0
100
AcDbPoint
 10
50.77582062969714
 20
26.3734659538514
 30
0.0
  0
POINT
  5
945
330
5E2
100
AcDbEntity
  8
DEFPOINTS
 62
     0
100
AcDbPoint
 10
53.49999999999988
 20
34.99999999999996
 30
0.0
  0
POINT
  5
946
330
5E2
100
AcDbEntity
  8
DEFPOINTS
 62
     0
100
AcDbPoint
 10
56.01051399999989
 20
20.75912299999997
 30
0.0
  0
POINT
  5
947
330
5E2
100
AcDbEntity
  8
DEFPOINTS
 62
     0
100
AcDbPoint
 10
55.50101599999989
 20
34.16087599999996
 30
0.0
  0
POINT
  5
948
330
5E2
100
AcDbEntity
  8
DEFPOINTS
 62
     0
100
AcDbPoint
 10
64.77363476989208
 20
34.99999999999996
 30
0.0
  0
ENDBLK
  5
5EE
330
5E2
100
AcDbEntity
  8
0
100
AcDbBlockEnd
  0
ENDSEC
  0
SECTION
  2
ENTITIES
  0
LINE
  5
117
330
A
100
AcDbEntity
  8
4
100
AcDbLine
 10
94.47844699999986
 20
-0.0000000000000116
 30
0.0
 11
0.0
 21
0.0
 31
0.0
  0
INSERT
  5
2B2
330
A
100
AcDbEntity
  8
SK2
100
AcDbBlockReference
  2
CERO_POINT
 10
0.0
 20
0.0
 30
0.0
 50
180.0
  0
LINE
  5
2B3
330
A
100
AcDbEntity
  8
INFTOTAL
100
AcDbLine
 10
-323.8662202493177
 20
53.51570558237661
 30
0.0
 11
-273.8662202493177
 21
53.51570558237657
 31
0.0
  0
LINE
  5
2B4
330
A
100
AcDbEntity
  8
INFTOTAL
100
AcDbLine
 10
114.6353111796011
 20
-3.144094323218951
 30
0.0
 11
114.6353111796011
 21
-53.14409432321894
 31
0.0
  0
LINE
  5
2B5
330
A
100
AcDbEntity
  8
INFTOTAL
100
AcDbLine
 10
114.6353111796011
 20
-53.14409432321894
 30
0.0
 11
64.6353111796011
 21
-53.14409432321894
 31
0.0
  0
LINE
  5
2B6
330
A
100
AcDbEntity
  8
INFTOTAL
100
AcDbLine
 10
-323.8662202493177
 20
3.515705582376598
 30
0.0
 11
-323.8662202493177
 21
53.51570558237661
 31
0.0
  0
LINE
  5
2B7
102
{ACAD_REACTORS
330
34A
102
}
330
A
100
AcDbEntity
  8
SK1
 48
0.025
100
AcDbLine
 10
-294.5000000000001
 20
23.5
 30
0.0
 11
-293.5
 21
23.5
 31
0.0
  0
LINE
  5
2B8
102
{ACAD_REACTORS
330
632
102
}
330
A
100
AcDbEntity
  8
1
100
AcDbLine
 10
10.0
 20
23.49999999999996
 30
0.0
 11
0.0000000000000029
 21
23.49999999999996
 31
0.0
  0
LINE
  5
2B9
102
{ACAD_REACTORS
330
632
102
}
330
A
100
AcDbEntity
  8
1
 48
0.0125
100
AcDbLine
 10
10.5
 20
23.49999999999996
 30
0.0
 11
10.0
 21
23.49999999999996
 31
0.0
  0
LINE
  5
2BA
102
{ACAD_REACTORS
330
632
102
}
330
A
100
AcDbEntity
  8
1
 48
0.38544
100
AcDbLine
 10
25.91758099999998
 20
23.49999999999996
 30
0.0
 11
10.5
 21
23.49999999999996
 31
0.0
  0
LINE
  5
2BB
102
{ACAD_REACTORS
330
632
102
}
330
A
100
AcDbEntity
  8
1
100
AcDbLine
 10
53.49999999999988
 20
23.49999999999996
 30
0.0
 11
25.91758199999989
 21
23.49999999999996
 31
0.0
  0
LINE
  5
2BC
102
{ACAD_REACTORS
330
632
102
}
330
A
100
AcDbEntity
  8
1
 48
0.060158
100
AcDbLine
 10
53.49999999999988
 20
23.49999999999996
 30
0.0
 11
55.90631299999987
 21
23.49999999999996
 31
0.0
  0
LINE
  5
2BD
102
{ACAD_REACTORS
330
632
102
}
330
A
100
AcDbEntity
  8
1
 48
0.218096
100
AcDbLine
 10
68.55331899999986
 20
26.89181999999996
 30
0.0
 11
68.96159799999987
 21
18.17753199999994
 31
0.0
  0
LINE
  5
2BE
102
{ACAD_REACTORS
330
632
102
}
330
A
100
AcDbEntity
  8
1
 48
0.095745
100
AcDbLine
 10
72.20679899999987
 20
16.14377099999996
 30
0.0
 11
68.96159799999987
 21
18.17753199999994
 31
0.0
  0
ELLIPSE
  5
2BF
102
{ACAD_REACTORS
330
632
102
}
330
A
100
AcDbEntity
  8
1
100
AcDbEllipse
 10
70.81444499999985
 20
13.97088199999996
 30
0.0
 11
-2.063290834426879
 21
-1.558129787445065
 31
0.0
210
0.0
220
0.0
230
0.9999999999999998
 40
0.984843
 41
0.357421985041911
 42
3.500715675677251
  0
LINE
  5
2C0
102
{ACAD_REACTORS
330
632
102
}
330
A
100
AcDbEntity
  8
1
 48
0.393833
100
AcDbLine
 10
69.41841499999987
 20
11.80030099999996
 30
0.0
 11
56.08422099999998
 21
20.18878699999996
 31
0.0
  0
LINE
  5
2C1
102
{ACAD_REACTORS
330
632
102
}
330
A
100
AcDbEntity
  8
1
 48
0.007301
100
AcDbLine
 10
56.08422099999998
 20
20.18878699999996
 30
0.0
 11
56.07312899999989
 21
20.48060199999996
 31
0.0
  0
LINE
  5
2C2
102
{ACAD_REACTORS
330
632
102
}
330
A
100
AcDbEntity
  8
1
 48
0.075041
100
AcDbLine
 10
56.5
 20
-23.24086700000003
 30
0.0
 11
53.49999999999988
 21
-23.34022500000004
 31
0.0
  0
LINE
  5
2C3
102
{ACAD_REACTORS
330
632
102
}
330
A
100
AcDbEntity
  8
1
 48
0.005434
100
AcDbLine
 10
56.5
 20
-23.24086700000003
 30
0.0
 11
56.5
 21
-23.45824300000003
 31
0.0
  0
ARC
  5
2C4
102
{ACAD_REACTORS
330
632
102
}
330
A
100
AcDbEntity
  8
1
100
AcDbCircle
 10
-16.50274999999977
 20
2597.460407000001
 30
0.0
 40
2621.935153
100
AcDbArc
 50
271.5954970000004
 51
271.8510950000006
  0
LINE
  5
2C5
102
{ACAD_REACTORS
330
632
102
}
330
A
100
AcDbEntity
  8
1
 48
0.355324
100
AcDbLine
 10
80.49999999999988
 20
-16.00000000000004
 30
0.0
 11
68.19119899999987
 21
-23.10648900000003
 31
0.0
  0
LINE
  5
2C6
102
{ACAD_REACTORS
330
632
102
}
330
A
100
AcDbEntity
  8
1
100
AcDbLine
 10
80.49999999999988
 20
19.00560499999996
 30
0.0
 11
80.49999999999988
 21
-16.00000000000004
 31
0.0
  0
SPLINE
  5
2C7
102
{ACAD_REACTORS
330
632
102
}
330
A
100
AcDbEntity
  8
1
100
AcDbSpline
210
0.0
220
0.0
230
1.0
 70
     8
 71
     3
 72
    13
 73
     9
 74
     0
 42
0.0000000001
 43
0.0000000001
 40
0.0
 40
0.0
 40
0.0
 40
0.0
 40
2.132829458174108
 40
4.381229444523405
 40
6.735123668576672
 40
9.183347299587843
 40
11.71410801389558
 40
14.31545941860414
 40
14.31545941860414
 40
14.31545941860414
 40
14.31545941860414
 10
80.49999999999988
 20
19.0056051934393
 30
0.0
 10
79.91419906669318
 20
19.40844729877039
 30
0.0
 10
78.707555838432
 20
20.23115099054455
 30
0.0
 10
76.84402432662945
 20
21.48316236577024
 30
0.0
 10
74.88540897856757
 20
22.78208270608767
 30
0.0
 10
72.84130364296173
 20
24.12232462938522
 30
0.0
 10
70.72190567656519
 20
25.49811626601139
 30
0.0
 10
69.28331273150951
 20
26.4238424600852
 30
0.0
 10
68.55331889027801
 20
26.89182000572142
 30
0.0
  0
ELLIPSE
  5
2C8
102
{ACAD_REACTORS
330
631
102
}
330
A
100
AcDbEntity
  8
INSERT
100
AcDbEllipse
 10
64.30915299999998
 20
9.188865999999963
 30
0.0
 11
-3.192248106002808
 21
-2.410318851470944
 31
0.0
210
0.0
220
0.0
230
1.0
 40
0.9848449999999999
 41
4.226372233690526
 42
6.278682277437861
  0
ELLIPSE
  5
2C9
102
{ACAD_REACTORS
330
631
102
}
330
A
100
AcDbEntity
  8
INSERT
100
AcDbEllipse
 10
64.30919
 20
9.188981999999963
 30
0.0
 11
-3.191130161285399
 21
-2.411962747573851
 31
0.0
210
0.0
220
0.0
230
1.0
 40
0.984834
 41
6.278196030326447
 42
7.367455527125332
  0
ELLIPSE
  5
2CA
102
{ACAD_REACTORS
330
631
102
}
330
A
100
AcDbEntity
  8
INSERT
100
AcDbEllipse
 10
64.30911799999987
 20
9.188880999999962
 30
0.0
 11
-3.192248106002808
 21
-2.410318851470944
 31
0.0
210
0.0
220
0.0
230
1.0
 40
0.9848449999999999
 41
1.084779580196507
 42
3.137089623919726
  0
ELLIPSE
  5
2CB
102
{ACAD_REACTORS
330
631
102
}
330
A
100
AcDbEntity
  8
INSERT
100
AcDbEllipse
 10
64.30907999999988
 20
9.188764999999966
 30
0.0
 11
-3.191130161285399
 21
-2.411962747573851
 31
0.0
210
0.0
220
0.0
230
1.0
 40
0.984834
 41
3.136603376805541
 42
4.225862873624834
  0
LINE
  5
2CC
102
{ACAD_REACTORS
330
34A
102
}
330
A
100
AcDbEntity
  8
SK1
 48
0.374266
100
AcDbLine
 10
-293.5
 20
23.5
 30
0.0
 11
-293.5
 21
8.529361000000005
 31
0.0
  0
ARC
  5
2CD
102
{ACAD_REACTORS
330
34A
102
}
330
A
100
AcDbEntity
  8
SK1
100
AcDbCircle
 10
-265.611037
 20
-1.072871999999994
 30
0.0
 40
29.495135
100
AcDbArc
 50
161.0012990000005
 51
168.3691419999999
  0
LINE
  5
2CE
102
{ACAD_REACTORS
330
34A
102
}
330
A
100
AcDbEntity
  8
SK1
 48
0.4656649999999999
100
AcDbLine
 10
-294.5000000000001
 20
23.5
 30
0.0
 11
-294.5000000000001
 21
4.873396999999994
 31
0.0
  0
LINE
  5
2CF
102
{ACAD_REACTORS
330
632
102
}
330
A
100
AcDbEntity
  8
1
 48
0.027765
100
AcDbLine
 10
70.16279999999986
 20
11.56202199999996
 30
0.0
 11
69.22227099999985
 21
12.15264699999996
 31
0.0
  0
ELLIPSE
  5
2D0
102
{ACAD_REACTORS
330
632
102
}
330
A
100
AcDbEntity
  8
1
100
AcDbEllipse
 10
70.82069599999987
 20
13.95900699999996
 30
0.0
 11
2.002058982849117
 21
1.497250795364377
 31
0.0
210
0.0
220
0.0
230
1.0
 40
0.9849479999999999
 41
3.504466786774468
 42
6.283298747072956
  0
ELLIPSE
  5
2D1
102
{ACAD_REACTORS
330
632
102
}
330
A
100
AcDbEntity
  8
1
100
AcDbEllipse
 10
70.82069599999987
 20
13.95900699999996
 30
0.0
 11
2.002058982849117
 21
1.497250795364377
 31
0.0
210
0.0
220
0.0
230
1.0
 40
0.9849479999999999
 41
0.0001134398933723
 42
0.3628741331846706
  0
LINE
  5
2D2
102
{ACAD_REACTORS
330
632
102
}
330
A
100
AcDbEntity
  8
1
 48
0.004863
100
AcDbLine
 10
69.41217399999999
 20
17.34094499999996
 30
0.0
 11
69.58272599999985
 21
17.24740899999996
 31
0.0
  0
LINE
  5
2D3
102
{ACAD_REACTORS
330
632
102
}
330
A
100
AcDbEntity
  8
1
 48
0.027833
100
AcDbLine
 10
69.58272599999985
 20
17.24740899999996
 30
0.0
 11
68.88915
 21
18.11831399999996
 31
0.0
  0
LINE
  5
2D4
102
{ACAD_REACTORS
330
632
102
}
330
A
100
AcDbEntity
  8
1
 48
0.009091
100
AcDbLine
 10
69.19711599999988
 20
17.92491999999996
 30
0.0
 11
68.88915
 21
18.11831399999996
 31
0.0
  0
LINE
  5
2D5
102
{ACAD_REACTORS
330
632
102
}
330
A
100
AcDbEntity
  8
1
 48
0.087729
100
AcDbLine
 10
69.19711599999988
 20
17.92491999999996
 30
0.0
 11
72.16891299999986
 21
16.05871599999996
 31
0.0
  0
LINE
  5
2D6
102
{ACAD_REACTORS
330
632
102
}
330
A
100
AcDbEntity
  8
1
 48
0.026044
100
AcDbLine
 10
56.5
 20
-23.45824300000003
 30
0.0
 11
56.5
 21
-24.50000000000004
 31
0.0
  0
LINE
  5
2D7
102
{ACAD_REACTORS
330
632
102
}
330
A
100
AcDbEntity
  8
1
 48
0.001888
100
AcDbLine
 10
56.08422099999998
 20
20.18878699999996
 30
0.0
 11
56.08828599999998
 21
20.26418799999996
 31
0.0
  0
LINE
  5
2D8
102
{ACAD_REACTORS
330
632
102
}
330
A
100
AcDbEntity
  8
1
 48
0.132495
100
AcDbLine
 10
60.57648699999987
 20
17.44572599999996
 30
0.0
 11
56.08828599999998
 21
20.26418799999996
 31
0.0
  0
LINE
  5
2D9
102
{ACAD_REACTORS
330
632
102
}
330
A
100
AcDbEntity
  8
1
 48
0.161031
100
AcDbLine
 10
66.03135799999998
 20
14.02022199999996
 30
0.0
 11
60.57648699999987
 21
17.44572599999996
 31
0.0
  0
LINE
  5
2DA
102
{ACAD_REACTORS
330
632
102
}
330
A
100
AcDbEntity
  8
1
 48
0.101584
100
AcDbLine
 10
69.47247799999988
 20
11.85929699999996
 30
0.0
 11
66.03135799999998
 21
14.02022199999996
 31
0.0
  0
LINE
  5
2DB
102
{ACAD_REACTORS
330
632
102
}
330
A
100
AcDbEntity
  8
1
 48
0.002386
100
AcDbLine
 10
68.47586299999986
 20
26.94757299999996
 30
0.0
 11
68.55331899999986
 21
26.89181999999996
 31
0.0
  0
LINE
  5
2DC
102
{ACAD_REACTORS
330
632
102
}
330
A
100
AcDbEntity
  8
1
 48
0.002339
100
AcDbLine
 10
68.96159799999987
 20
18.17753199999994
 30
0.0
 11
68.88915
 21
18.11831399999996
 31
0.0
  0
LINE
  5
2DD
102
{ACAD_REACTORS
330
632
102
}
330
A
100
AcDbEntity
  8
1
 48
0.220973
100
AcDbLine
 10
68.47586299999986
 20
26.94757299999996
 30
0.0
 11
68.88915
 21
18.11831399999996
 31
0.0
  0
ARC
  5
2DE
102
{ACAD_REACTORS
330
632
102
}
330
A
100
AcDbEntity
  8
1
100
AcDbCircle
 10
1314.491624999999
 20
125.5319169999997
 30
0.0
 40
1308.731401
100
AcDbArc
 50
185.1995609999999
 51
185.8090029999998
  0
LINE
  5
2DF
102
{ACAD_REACTORS
330
632
102
}
330
A
100
AcDbEntity
  8
1
 48
0.049522
100
AcDbLine
 10
12.48086899999998
 20
-6.928203000000034
 30
0.0
 11
10.5
 21
-6.928203000000034
 31
0.0
  0
ARC
  5
2E0
102
{ACAD_REACTORS
330
632
102
}
330
A
100
AcDbEntity
  8
1
100
AcDbCircle
 10
-19.83494800000011
 20
1.667945999999973
 30
0.0
 40
31.52944699999999
100
AcDbArc
 50
341.1300499999997
 51
344.1786249999996
  0
LINE
  5
2E1
102
{ACAD_REACTORS
330
632
102
}
330
A
100
AcDbEntity
  8
1
100
AcDbLine
 10
9.999999999999998
 20
-8.529361000000028
 30
0.0
 11
-0.000000000000001
 21
-8.529361000000026
 31
0.0
  0
ARC
  5
2E2
102
{ACAD_REACTORS
330
34A
102
}
330
A
100
AcDbEntity
  8
SK1
100
AcDbCircle
 10
-265.611037
 20
1.072872000000002
 30
0.0
 40
29.495135
100
AcDbArc
 50
191.6308579999999
 51
198.9987009999993
  0
LINE
  5
2E3
102
{ACAD_REACTORS
330
34A
102
}
330
A
100
AcDbEntity
  8
SK1
 48
0.24367
100
AcDbLine
 10
-294.5000000000001
 20
4.873396999999994
 30
0.0
 11
-294.5000000000001
 21
-4.87339699999999
 31
0.0
  0
LINE
  5
2E4
102
{ACAD_REACTORS
330
632
102
}
330
A
100
AcDbEntity
  8
1
100
AcDbLine
 10
10.0
 20
8.529360999999967
 30
0.0
 11
0.000000000000001
 21
8.529360999999969
 31
0.0
  0
ARC
  5
2E5
102
{ACAD_REACTORS
330
632
102
}
330
A
100
AcDbEntity
  8
1
100
AcDbCircle
 10
-19.83494800000011
 20
-1.667946000000026
 30
0.0
 40
31.52944699999999
100
AcDbArc
 50
15.82137499999999
 51
18.86995000000028
  0
LINE
  5
2E6
102
{ACAD_REACTORS
330
632
102
}
330
A
100
AcDbEntity
  8
1
 48
0.016136
100
AcDbLine
 10
11.14545899999984
 20
6.928202999999967
 30
0.0
 11
10.5
 21
6.92820299999997
 31
0.0
  0
LINE
  5
2E7
102
{ACAD_REACTORS
330
34A
102
}
330
A
100
AcDbEntity
  8
SK1
 48
0.335255
100
AcDbLine
 10
-293.5
 20
-8.52936099999999
 30
0.0
 11
-293.5
 21
-21.939564
 31
0.0
  0
LINE
  5
2E8
102
{ACAD_REACTORS
330
34A
102
}
330
A
100
AcDbEntity
  8
SK1
 48
0.4047150000000002
100
AcDbLine
 10
-294.5000000000001
 20
-4.87339699999999
 30
0.0
 11
-294.5000000000001
 21
-21.06198099999999
 31
0.0
  0
LINE
  5
2E9
102
{ACAD_REACTORS
330
632
102
}
330
A
100
AcDbEntity
  8
1
 48
0.076511
100
AcDbLine
 10
9.999999999999996
 20
-21.93956400000004
 30
0.0
 11
9.999999999999996
 21
-25.00000000000003
 31
0.0
  0
LINE
  5
2EA
102
{ACAD_REACTORS
330
632
102
}
330
A
100
AcDbEntity
  8
1
 48
0.074981
100
AcDbLine
 10
10.5
 20
-21.50077300000003
 30
0.0
 11
10.49999999999999
 21
-24.50000000000003
 31
0.0
  0
LINE
  5
2EB
102
{ACAD_REACTORS
330
34A
102
}
330
A
100
AcDbEntity
  8
SK1
 48
0.076511
100
AcDbLine
 10
-293.5
 20
-21.939564
 30
0.0
 11
-293.5
 21
-25.0
 31
0.0
  0
LINE
  5
2EC
102
{ACAD_REACTORS
330
34A
102
}
330
A
100
AcDbEntity
  8
SK1
 48
0.07345
100
AcDbLine
 10
-294.5000000000001
 20
-21.06198099999999
 30
0.0
 11
-294.5000000000001
 21
-24.0
 31
0.0
  0
SPLINE
  5
2ED
102
{ACAD_REACTORS
330
632
102
}
330
A
100
AcDbEntity
  8
1
100
AcDbSpline
210
0.0
220
0.0
230
1.0
 70
     8
 71
     3
 72
    42
 73
    38
 74
     0
 42
0.0000000001
 43
0.0000000001
 40
0.0
 40
0.0
 40
0.0
 40
0.0
 40
0.7069193790270153
 40
1.408453825265206
 40
2.104387005164784
 40
2.794576221256761
 40
3.478952346561153
 40
4.157518819362443
 40
4.830349604035047
 40
5.497586038397392
 40
6.15943263668421
 40
6.81615687273542
 40
7.468093757012352
 40
8.115638960058642
 40
8.7592382814802
 40
9.399376899572095
 40
10.03656865084325
 40
10.67134558799453
 40
11.30424806892492
 40
11.93581881954031
 40
12.5666022163768
 40
13.19712837831595
 40
13.82790459115901
 40
14.45941033099847
 40
15.09209370078563
 40
15.72636927967198
 40
16.36261734278828
 40
17.00118437395803
 40
17.64238442485769
 40
18.28649538587339
 40
18.93375262676489
 40
19.58435062941164
 40
20.23844632621977
 40
20.89616274963119
 40
21.55759290638037
 40
22.22280379960029
 40
22.89184053120181
 40
22.89184053120181
 40
22.89184053120181
 40
22.89184053120181
 10
12.48086878142879
 20
-6.928203230275497
 30
0.0
 10
12.55176808572803
 20
-7.152938116418032
 30
0.0
 10
12.69869841582471
 20
-7.598882874055637
 30
0.0
 10
12.93570097344177
 20
-8.259187797009897
 30
0.0
 10
13.18856313244299
 20
-8.90760095567651
 30
0.0
 10
13.45733754047699
 20
-9.543383765288179
 30
0.0
 10
13.74204907495635
 20
-10.16583632120662
 30
0.0
 10
14.04269463312107
 20
-10.77430953678788
 30
0.0
 10
14.35923895490486
 20
-11.36820449657849
 30
0.0
 10
14.69161168736802
 20
-11.94697526463716
 30
0.0
 10
15.03970508291269
 20
-12.51013245733449
 30
0.0
 10
15.40337525108219
 20
-13.05724949758005
 30
0.0
 10
15.78244503129804
 20
-13.58796799636171
 30
0.0
 10
16.17670627169399
 20
-14.10200051816564
 30
0.0
 10
16.58592071821275
 20
-14.59912895545699
 30
0.0
 10
17.00982073105382
 20
-15.07920200586338
 30
0.0
 10
17.44811050135256
 20
-15.54213259390821
 30
0.0
 10
17.90046773598385
 20
-15.98789524742917
 30
0.0
 10
18.36654661742619
 20
-16.41652410044017
 30
0.0
 10
18.84598316859244
 20
-16.82811233725681
 30
0.0
 10
19.33839950125932
 20
-17.22280871831736
 30
0.0
 10
19.84340696863319
 20
-17.60081230200695
 30
0.0
 10
20.36060660959248
 20
-17.96236632830444
 30
0.0
 10
20.8895918506078
 20
-18.30775394086338
 30
0.0
 10
21.42995197665078
 20
-18.63729434490616
 30
0.0
 10
21.9812758022245
 20
-18.95133890373392
 30
0.0
 10
22.54315551642951
 20
-19.25026717448755
 30
0.0
 10
23.11519055248987
 20
-19.5344828992292
 30
0.0
 10
23.69698968505679
 20
-19.80440888881661
 30
0.0
 10
24.28816946952458
 20
-20.06048209272557
 30
0.0
 10
24.88835221995657
 20
-20.30314818149093
 30
0.0
 10
25.49716511405484
 20
-20.53285796344662
 30
0.0
 10
26.11424167415679
 20
-20.75006540537564
 30
0.0
 10
26.73922409530888
 20
-20.95522586764022
 30
0.0
 10
27.37176397041485
 20
-21.14879394632465
 30
0.0
 10
28.01152897110501
 20
-21.33122282270242
 30
0.0
 10
28.44139586398387
 20
-21.44538395165505
 30
0.0
 10
28.65742647401788
 20
-21.5007727663142
 30
0.0
  0
LINE
  5
2EE
102
{ACAD_REACTORS
330
632
102
}
330
A
100
AcDbEntity
  8
1
 48
0.364314
100
AcDbLine
 10
10.5
 20
-6.928203000000034
 30
0.0
 11
10.5
 21
-21.50077300000003
 31
0.0
  0
LINE
  5
2EF
102
{ACAD_REACTORS
330
632
102
}
330
A
100
AcDbEntity
  8
1
 48
0.335255
100
AcDbLine
 10
9.999999999999998
 20
-8.529361000000028
 30
0.0
 11
9.999999999999996
 21
-21.93956400000004
 31
0.0
  0
ARC
  5
2F0
102
{ACAD_REACTORS
330
632
102
}
330
A
100
AcDbEntity
  8
1
100
AcDbCircle
 10
68.46887199999997
 20
26.55900399999996
 30
0.0
 40
0.388991
100
AcDbArc
 50
55.96212900000004
 51
88.96927599999814
  0
SPLINE
  5
2F1
102
{ACAD_REACTORS
330
632
102
}
330
A
100
AcDbEntity
  8
1
100
AcDbSpline
210
0.0
220
0.0
230
1.0
 70
     8
 71
     3
 72
    42
 73
    38
 74
     0
 42
0.0000000001
 43
0.0000000001
 40
0.0
 40
0.0
 40
0.0
 40
0.0
 40
0.6691464783489352
 40
1.342106229361704
 40
2.018859317727426
 40
2.699364843797699
 40
3.383563585650243
 40
4.071380460182423
 40
4.762726801650078
 40
5.457502458735786
 40
6.155597713301117
 40
6.856895025560526
 40
7.561270611595047
 40
8.268595844419763
 40
8.97873569461791
 40
9.691544954415567
 40
10.40687238635094
 40
11.12456211234332
 40
11.84445429215889
 40
12.56638569768232
 40
13.29019019226933
 40
14.01569912423019
 40
14.74274164326823
 40
15.47114494848065
 40
16.20073447632701
 40
16.93133403678831
 40
17.66276590578003
 40
18.39485088174796
 40
19.12740831426748
 40
19.86025611238617
 40
20.59321074039732
 40
21.32608768800456
 40
22.05870398817946
 40
22.79087796523032
 40
23.52242876061587
 40
24.25317633650255
 40
24.98294150168125
 40
24.98294150168125
 40
24.98294150168125
 40
24.98294150168125
 10
28.65742647401777
 20
-21.50077276631417
 30
0.0
 10
28.87349169393861
 20
-21.5561704547186
 30
0.0
 10
29.30779911206196
 20
-21.66355401009857
 30
0.0
 10
29.96364369794985
 20
-21.81446225838792
 30
0.0
 10
30.62542611710137
 20
-21.95607373128555
 30
0.0
 10
31.29286709992266
 20
-22.08879265168205
 30
0.0
 10
31.96569044494669
 20
-22.21301064663498
 30
0.0
 10
32.64362701321267
 20
-22.32910723317715
 30
0.0
 10
33.32641406499476
 20
-22.43744912856354
 30
0.0
 10
34.01379579199226
 20
-22.53838987648691
 30
0.0
 10
34.70552346307466
 20
-22.63226938798061
 30
0.0
 10
35.40135561136845
 20
-22.71941350151402
 30
0.0
 10
36.10105814044221
 20
-22.80013355079894
 30
0.0
 10
36.80440345871147
 20
-22.8747257826964
 30
0.0
 10
37.5111679112174
 20
-22.94347087897639
 30
0.0
 10
38.22113018269959
 20
-23.00663414412468
 30
0.0
 10
38.93407087360078
 20
-23.06446484974113
 30
0.0
 10
39.64977357879268
 20
-23.11719634488585
 30
0.0
 10
40.36802488011767
 20
-23.16504594287292
 30
0.0
 10
41.08861411191225
 20
-23.20821482044486
 30
0.0
 10
41.81133310375509
 20
-23.24688791383155
 30
0.0
 10
42.5359759014666
 20
-23.28123382138318
 30
0.0
 10
43.26233846886224
 20
-23.31140471045956
 30
0.0
 10
43.99021837243128
 20
-23.33753622945613
 30
0.0
 10
44.71941445126356
 20
-23.35974742495801
 30
0.0
 10
45.44972647455415
 20
-23.37814066419685
 30
0.0
 10
46.18095478904961
 20
-23.39280156300126
 30
0.0
 10
46.91289995883624
 20
-23.40379891903042
 30
0.0
 10
47.64536239983224
 20
-23.41118465153589
 30
0.0
 10
48.37814201158358
 20
-23.41499374333344
 30
0.0
 10
49.11103796788585
 20
-23.41524420139753
 30
0.0
 10
49.84384935280917
 20
-23.41193696625048
 30
0.0
 10
50.57637570963928
 20
-23.40505630478717
 30
0.0
 10
51.30841731356944
 20
-23.39456960834382
 30
0.0
 10
52.03977445055068
 20
-23.38042738447986
 30
0.0
 10
52.77024732181221
 20
-23.36256328783997
 30
0.0
 10
53.2568720897979
 20
-23.34810633869917
 30
0.0
 10
53.49999999999988
 20
-23.34022452714243
 30
0.0
  0
LINE
  5
2F2
102
{ACAD_REACTORS
330
632
102
}
330
A
100
AcDbEntity
  8
1
 48
0.069675
100
AcDbLine
 10
68.19119899999987
 20
-23.10648900000003
 30
0.0
 11
65.77757499999987
 21
-24.49999600000003
 31
0.0
  0
LINE
  5
2F3
102
{ACAD_REACTORS
330
632
102
}
330
A
100
AcDbEntity
  8
1
 48
0.01236
100
AcDbLine
 10
80.49999999999988
 20
19.49999999999995
 30
0.0
 11
80.49999999999988
 21
19.00560499999996
 31
0.0
  0
LINE
  5
2F4
102
{ACAD_REACTORS
330
632
102
}
330
A
100
AcDbEntity
  8
1
 48
0.374266
100
AcDbLine
 10
10.0
 20
23.49999999999996
 30
0.0
 11
10.0
 21
8.529360999999967
 31
0.0
  0
LINE
  5
2F5
102
{ACAD_REACTORS
330
632
102
}
330
A
100
AcDbEntity
  8
1
 48
0.414295
100
AcDbLine
 10
10.5
 20
23.49999999999996
 30
0.0
 11
10.5
 21
6.92820299999997
 31
0.0
  0
SPLINE
  5
2F6
102
{ACAD_REACTORS
330
632
102
}
330
A
100
AcDbEntity
  8
1
100
AcDbSpline
210
0.0
220
0.0
230
1.0
 70
     8
 71
     3
 72
    42
 73
    38
 74
     0
 42
0.0000000001
 43
0.0000000001
 40
0.0
 40
0.0
 40
0.0
 40
0.0
 40
0.8072891009055172
 40
1.605815481154571
 40
2.394868028647493
 40
3.173819526362632
 40
3.942140975364075
 40
4.699415365611208
 40
5.445350561786071
 40
6.179790877778343
 40
6.902724696622921
 40
7.614284179000324
 40
8.314768919293705
 40
9.004652291352563
 40
9.684574788036599
 40
10.35533314751046
 40
11.01786494188141
 40
11.67322849637802
 40
12.32257883771292
 40
12.967150621524
 40
13.60824161233973
 40
14.24717878043056
 40
14.88528365386794
 40
15.52384055366468
 40
16.16406898821225
 40
16.80710120779972
 40
17.45397022337698
 40
18.10560611707996
 40
18.76281714614405
 40
19.4262862039758
 40
20.09657430593307
 40
20.77412782356655
 40
21.45928873936582
 40
22.15230721814104
 40
22.85342265607133
 40
23.56278900398775
 40
24.280148018625
 40
24.280148018625
 40
24.280148018625
 40
24.280148018625
 10
11.14545860592415
 20
6.928203230275447
 30
0.0
 10
11.17223754157538
 20
7.195978448112678
 30
0.0
 10
11.23203625202778
 20
7.727944721935116
 30
0.0
 10
11.3414593400355
 20
8.518794675583087
 30
0.0
 10
11.4703224643
 20
9.297138662152194
 30
0.0
 10
11.61882149012649
 20
10.06173152548647
 30
0.0
 10
11.78716273306406
 20
10.81135788880752
 30
0.0
 10
11.97555771069386
 20
11.54485037571047
 30
0.0
 10
12.18421568691389
 20
12.26109347027211
 30
0.0
 10
12.41333575268436
 20
12.95903028080492
 30
0.0
 10
12.66309669708067
 20
13.63766603808465
 30
0.0
 10
12.93365033617817
 20
14.29607715816824
 30
0.0
 10
13.22511419483538
 20
14.93342287673655
 30
0.0
 10
13.53756695761217
 20
15.54895723913212
 30
0.0
 10
13.87104254250454
 20
16.14203328978602
 30
0.0
 10
14.22552299097878
 20
16.71210456176324
 30
0.0
 10
14.60093156285029
 20
17.2587268090744
 30
0.0
 10
14.99712645414518
 20
17.78156007337599
 30
0.0
 10
15.41389727290981
 20
18.28037425230142
 30
0.0
 10
15.85096866387448
 20
18.75505617087937
 30
0.0
 10
16.30800733080656
 20
19.20561300944964
 30
0.0
 10
16.78462721127482
 20
19.63217099243814
 30
0.0
 10
17.28039292114738
 20
20.03496798633614
 30
0.0
 10
17.79482376632716
 20
20.41434531458592
 30
0.0
 10
18.3273987951227
 20
20.77073916942242
 30
0.0
 10
18.87756402126387
 20
21.10467246080709
 30
0.0
 10
19.44474243607407
 20
21.41674743119232
 30
0.0
 10
20.0283411635853
 20
21.70763460062167
 30
0.0
 10
20.62775629420503
 20
21.97806019168353
 30
0.0
 10
21.24237424569469
 20
22.22879486933126
 30
0.0
 10
21.87157715020628
 20
22.46064492242917
 30
0.0
 10
22.51474932515339
 20
22.6744443420157
 30
0.0
 10
23.17128407414555
 20
22.87104658457946
 30
0.0
 10
23.8406124793413
 20
23.05132457897687
 30
0.0
 10
24.52220370810238
 20
23.21615196262743
 30
0.0
 10
25.21545723630552
 20
23.36638584244818
 30
0.0
 10
25.6823734964841
 20
23.4568693456566
 30
0.0
 10
25.91758061717996
 20
23.49999999999996
 30
0.0
  0
LINE
  5
2F7
102
{ACAD_REACTORS
330
632
102
}
330
A
100
AcDbEntity
  8
1
 48
0.017678
100
AcDbLine
 10
10.49999999999999
 20
-24.50000000000003
 30
0.0
 11
9.999999999999996
 21
-25.00000000000003
 31
0.0
  0
LINE
  5
2F8
102
{ACAD_REACTORS
330
632
102
}
330
A
100
AcDbEntity
  8
1
100
AcDbLine
 10
9.999999999999996
 20
-25.00000000000003
 30
0.0
 11
-0.0000000000000031
 21
-25.00000000000003
 31
0.0
  0
LINE
  5
2F9
102
{ACAD_REACTORS
330
34A
102
}
330
A
100
AcDbEntity
  8
SK1
 48
0.035355
100
AcDbLine
 10
-294.5000000000001
 20
-24.0
 30
0.0
 11
-293.5
 21
-25.0
 31
0.0
  0
LINE
  5
2FA
102
{ACAD_REACTORS
330
632
102
}
330
A
100
AcDbEntity
  8
1
100
AcDbLine
 10
56.5
 20
-24.50000000000004
 30
0.0
 11
10.49999999999999
 21
-24.50000000000003
 31
0.0
  0
LINE
  5
2FB
102
{ACAD_REACTORS
330
632
102
}
330
A
100
AcDbEntity
  8
1
 48
0.231939
100
AcDbLine
 10
56.5
 20
-24.50000000000004
 30
0.0
 11
65.77757499999987
 21
-24.50000000000004
 31
0.0
  0
LINE
  5
2FC
102
{ACAD_REACTORS
330
632
102
}
330
A
100
AcDbEntity
  8
1
 48
0.348246
100
AcDbLine
 10
80.49999999999988
 20
19.49999999999995
 30
0.0
 11
68.68683399999986
 21
26.88168599999996
 31
0.0
  0
ELLIPSE
  5
2FD
102
{ACAD_REACTORS
330
631
102
}
330
A
100
AcDbEntity
  8
INSERT
100
AcDbEllipse
 10
56.29614899999985
 20
34.20234099999996
 30
0.0
 11
0.6406588554382326
 21
0.4791202545166018
 31
0.0
210
0.0
220
0.0
230
1.0
 40
0.9849479999999999
 41
0.3628741331846856
 42
2.544535698177594
  0
LINE
  5
2FE
102
{ACAD_REACTORS
330
631
102
}
330
A
100
AcDbEntity
  8
INSERT
 48
0.335286
100
AcDbLine
 10
56.01051399999988
 20
20.75912299999997
 30
0.0
 11
55.50101599999989
 21
34.16087599999996
 31
0.0
  0
ELLIPSE
  5
2FF
102
{ACAD_REACTORS
330
631
102
}
330
A
100
AcDbEntity
  8
INSERT
 48
0.335286
100
AcDbEllipse
 10
56.80564699999989
 20
20.80058899999996
 30
0.0
 11
0.6406588554382326
 21
0.4791202545166018
 31
0.0
210
0.0
220
0.0
230
1.0
 40
0.9849479999999999
 41
2.544535698177591
 42
3.14160657675844
  0
ELLIPSE
  5
300
102
{ACAD_REACTORS
330
631
102
}
330
A
100
AcDbEntity
  8
INSERT
 48
0.335286
100
AcDbEllipse
 10
56.80564699999989
 20
20.80058899999996
 30
0.0
 11
0.6406588554382326
 21
0.4791202545166018
 31
0.0
210
0.0
220
0.0
230
1.0
 40
0.9849479999999999
 41
3.14160657675844
 42
3.504466786774476
  0
LINE
  5
301
102
{ACAD_REACTORS
330
631
102
}
330
A
100
AcDbEntity
  8
INSERT
 48
0.335286
100
AcDbLine
 10
67.69892399999986
 20
13.01708799999996
 30
0.0
 11
56.37421699999986
 21
20.12868099999996
 31
0.0
  0
ELLIPSE
  5
302
102
{ACAD_REACTORS
330
631
102
}
330
A
100
AcDbEntity
  8
INSERT
 48
0.335286
100
AcDbEllipse
 10
68.13035299999987
 20
13.68899499999996
 30
0.0
 11
0.6406588554382326
 21
0.4791202545166018
 31
0.0
210
0.0
220
0.0
230
1.0
 40
0.9849479999999999
 41
3.504466786774476
 42
5.686128351767387
  0
ELLIPSE
  5
303
102
{ACAD_REACTORS
330
631
102
}
330
A
100
AcDbEntity
  8
INSERT
 48
0.335286
100
AcDbEllipse
 10
68.78771899999998
 20
12.80999399999996
 30
0.0
 11
0.6406588554382326
 21
0.4791202545166018
 31
0.0
210
0.0
220
0.0
230
1.0
 40
0.9849479999999999
 41
4.490122061069068
 42
5.686128351767387
  0
LINE
  5
304
102
{ACAD_REACTORS
330
631
102
}
330
A
100
AcDbEntity
  8
INSERT
 48
0.335286
100
AcDbLine
 10
68.4159879999999
 20
27.13221399999996
 30
0.0
 11
68.92548599999987
 21
13.73046099999996
 31
0.0
  0
LINE
  5
305
102
{ACAD_REACTORS
330
631
102
}
330
A
100
AcDbEntity
  8
INSERT
 48
0.335286
100
AcDbLine
 10
69.40735799999989
 20
17.46761099999996
 30
0.0
 11
69.58285199999986
 21
12.85145999999996
 31
0.0
  0
ELLIPSE
  5
306
102
{ACAD_REACTORS
330
631
102
}
330
A
100
AcDbEntity
  8
INSERT
 48
0.335286
100
AcDbEllipse
 10
67.62085399999985
 20
27.09074799999996
 30
0.0
 11
0.6406588554382326
 21
0.4791202545166018
 31
0.0
210
0.0
220
0.0
230
1.0
 40
0.9849479999999999
 41
5.686128351767387
 42
6.283199230348236
  0
ELLIPSE
  5
307
102
{ACAD_REACTORS
330
631
102
}
330
A
100
AcDbEntity
  8
INSERT
 48
0.335286
100
AcDbEllipse
 10
67.62085399999985
 20
27.09074799999996
 30
0.0
 11
0.6406588554382326
 21
0.4791202545166018
 31
0.0
210
0.0
220
0.0
230
1.0
 40
0.9849479999999999
 41
0.0000139231686488
 42
0.3628741331846856
  0
LINE
  5
308
102
{ACAD_REACTORS
330
631
102
}
330
A
100
AcDbEntity
  8
INSERT
 48
0.335286
100
AcDbLine
 10
56.72757799999989
 20
34.87424799999995
 30
0.0
 11
68.05228399999998
 21
27.76265499999996
 31
0.0
  0
ELLIPSE
  5
309
102
{ACAD_REACTORS
330
631
102
}
330
A
100
AcDbEntity
  8
INSERT
 48
0.335286
100
AcDbEllipse
 10
62.21325099999987
 20
23.94566799999996
 30
0.0
 11
2.426495552062986
 21
1.814667940139768
 31
0.0
210
0.0
220
0.0
230
1.0
 40
0.9849479999999999
 41
4.575263113569715
 42
10.8584484207493
  0
ELLIPSE
  5
30A
102
{ACAD_REACTORS
330
631
102
}
330
A
100
AcDbEntity
  8
INSERT
 48
0.335286
100
AcDbEllipse
 10
62.25983599999998
 20
23.88337699999996
 30
0.0
 11
2.066124916076659
 21
1.545162796974178
 31
0.0
210
0.0
220
0.0
230
0.9999999999999998
 40
0.9849479999999999
 41
6.283079733406281
 42
9.424672386996075
  0
ELLIPSE
  5
30B
102
{ACAD_REACTORS
330
631
102
}
330
A
100
AcDbEntity
  8
INSERT
 48
0.335286
100
AcDbEllipse
 10
62.25983599999998
 20
23.88337699999996
 30
0.0
 11
2.066124916076659
 21
1.545162796974178
 31
0.0
210
0.0
220
0.0
230
0.9999999999999998
 40
0.9849479999999999
 41
3.141487079816488
 42
4.575263113569369
  0
ELLIPSE
  5
30C
102
{ACAD_REACTORS
330
631
102
}
330
A
100
AcDbEntity
  8
INSERT
 48
0.335286
100
AcDbEllipse
 10
62.25983599999998
 20
23.88337699999996
 30
0.0
 11
2.066124916076659
 21
1.545162796974178
 31
0.0
210
0.0
220
0.0
230
0.9999999999999998
 40
0.9849479999999999
 41
4.575263113569369
 42
6.283079733406281
  0
LINE
  5
30F
102
{ACAD_REACTORS
330
631
102
}
330
A
100
AcDbEntity
  8
INSERT
 48
0.335286
100
AcDbLine
 10
56.31367699999985
 20
20.12264899999996
 30
0.0
 11
56.16499499999985
 21
20.32145899999996
 31
0.0
  0
LINE
  5
310
102
{ACAD_REACTORS
330
631
102
}
330
A
100
AcDbEntity
  8
INSERT
 48
0.335286
100
AcDbLine
 10
68.85455699999988
 20
26.77687699999996
 30
0.0
 11
68.26150699999988
 21
27.56987699999996
 31
0.0
  0
ELLIPSE
  5
311
102
{ACAD_REACTORS
330
631
102
}
330
A
100
AcDbEntity
  8
INSERT
100
AcDbEllipse
 10
64.34115899999998
 20
9.146050999999966
 30
0.0
 11
3.203294277191157
 21
2.395601272583002
 31
0.0
210
0.0
220
0.0
230
0.9999999999999998
 40
0.9849479999999999
 41
0.0068586498786533
 42
1.933670459979573
  0
ELLIPSE
  5
312
102
{ACAD_REACTORS
330
631
102
}
330
A
100
AcDbEntity
  8
INSERT
100
AcDbEllipse
 10
64.34115899999998
 20
9.146050999999966
 30
0.0
 11
3.203294277191157
 21
2.395601272583002
 31
0.0
210
0.0
220
0.0
230
0.9999999999999998
 40
0.9849479999999999
 41
1.933670459979573
 42
3.134878706354339
  0
ELLIPSE
  5
313
102
{ACAD_REACTORS
330
631
102
}
330
A
100
AcDbEntity
  8
INSERT
100
AcDbEllipse
 10
64.27904499999988
 20
9.229106999999963
 30
0.0
 11
2.371053934097289
 21
1.773205757141109
 31
0.0
210
0.0
220
0.0
230
1.0
 40
0.9849479999999999
 41
5.075263113569369
 42
11.35844842074895
  0
LINE
  5
314
102
{ACAD_REACTORS
330
631
102
}
330
A
100
AcDbEntity
  8
INSERT
 48
0.042732
100
AcDbLine
 10
64.36420799999989
 20
10.94343899999996
 30
0.0
 11
65.81174399999986
 21
10.03442799999996
 31
0.0
  0
LINE
  5
315
102
{ACAD_REACTORS
330
631
102
}
330
A
100
AcDbEntity
  8
INSERT
 48
0.042911
100
AcDbLine
 10
65.81174399999986
 20
10.03442799999996
 30
0.0
 11
65.72658099999987
 21
8.320096999999963
 31
0.0
  0
LINE
  5
316
102
{ACAD_REACTORS
330
631
102
}
330
A
100
AcDbEntity
  8
INSERT
 48
0.043285
100
AcDbLine
 10
65.72658099999987
 20
8.320096999999963
 30
0.0
 11
64.19388199999997
 21
7.514775999999959
 31
0.0
  0
LINE
  5
317
102
{ACAD_REACTORS
330
631
102
}
330
A
100
AcDbEntity
  8
INSERT
 48
0.042732
100
AcDbLine
 10
64.19388199999997
 20
7.514775999999959
 30
0.0
 11
62.74634699999985
 21
8.423786999999965
 31
0.0
  0
LINE
  5
318
102
{ACAD_REACTORS
330
631
102
}
330
A
100
AcDbEntity
  8
INSERT
 48
0.042911
100
AcDbLine
 10
62.74634699999985
 20
8.423786999999965
 30
0.0
 11
62.83150999999998
 21
10.13811799999996
 31
0.0
  0
LINE
  5
319
102
{ACAD_REACTORS
330
631
102
}
330
A
100
AcDbEntity
  8
INSERT
 48
0.043285
100
AcDbLine
 10
62.83150999999998
 20
10.13811799999996
 30
0.0
 11
64.36420799999989
 21
10.94343899999996
 31
0.0
  0
LINE
  5
31A
102
{ACAD_REACTORS
330
631
102
}
330
A
100
AcDbEntity
  8
INSERT
 48
0.02851
100
AcDbLine
 10
64.83005799999985
 20
10.32052499999996
 30
0.0
 11
65.79582499999998
 21
9.714049999999962
 31
0.0
  0
LINE
  5
31B
102
{ACAD_REACTORS
330
631
102
}
330
A
100
AcDbEntity
  8
INSERT
 48
0.043285
100
AcDbLine
 10
63.29735999999988
 20
9.515203999999963
 30
0.0
 11
64.83005799999985
 21
10.32052499999996
 31
0.0
  0
LINE
  5
31C
102
{ACAD_REACTORS
330
631
102
}
330
A
100
AcDbEntity
  8
INSERT
 48
0.034892
100
AcDbLine
 10
63.22811199999998
 20
8.121246999999964
 30
0.0
 11
63.29735999999988
 21
9.515203999999963
 31
0.0
  0
LINE
  5
31D
102
{ACAD_REACTORS
330
631
102
}
330
A
100
AcDbEntity
  8
INSERT
 48
0.019446
100
AcDbLine
 10
64.36420799999989
 20
10.94343899999996
 30
0.0
 11
64.83005799999985
 21
10.32052499999996
 31
0.0
  0
LINE
  5
31E
102
{ACAD_REACTORS
330
631
102
}
330
A
100
AcDbEntity
  8
INSERT
 48
0.019446
100
AcDbLine
 10
62.83150999999998
 20
10.13811799999996
 30
0.0
 11
63.29735999999988
 21
9.515203999999963
 31
0.0
  0
ELLIPSE
  5
321
102
{ACAD_REACTORS
330
631
102
}
330
A
100
AcDbEntity
  8
INSERT
 48
0.335286
100
AcDbEllipse
 10
62.32050299999986
 20
23.96521899999996
 30
0.0
 11
-1.281317710876464
 21
-0.9582405090332033
 31
0.0
210
0.0
220
0.0
230
1.0
 40
0.9849479999999999
 41
2.631802160445888
 42
5.773394814698562
  0
LINE
  5
322
102
{ACAD_REACTORS
330
631
102
}
330
A
100
AcDbEntity
  8
INSERT
 48
0.335286
100
AcDbLine
 10
60.81599499999986
 20
23.15624599999996
 30
0.0
 11
60.74154499999997
 21
23.74468699999996
 31
0.0
  0
ELLIPSE
  5
323
102
{ACAD_REACTORS
330
631
102
}
330
A
100
AcDbEntity
  8
INSERT
 48
0.335286
100
AcDbEllipse
 10
62.39495299999987
 20
23.37677799999996
 30
0.0
 11
-1.281317710876464
 21
-0.9582405090332033
 31
0.0
210
0.0
220
0.0
230
1.0
 40
0.9849479999999999
 41
5.773394814037272
 42
8.914987468290297
  0
LINE
  5
324
102
{ACAD_REACTORS
330
631
102
}
330
A
100
AcDbEntity
  8
INSERT
 48
0.335286
100
AcDbLine
 10
63.8994619999999
 20
24.18574999999997
 30
0.0
 11
63.97391099999985
 21
23.59730899999996
 31
0.0
  0
ELLIPSE
  5
325
102
{ACAD_REACTORS
330
631
102
}
330
A
100
AcDbEntity
  8
INSERT
 48
0.335286
100
AcDbEllipse
 10
62.372264
 20
23.89600599999996
 30
0.0
 11
-1.681729555130004
 21
-1.257690668106077
 31
0.0
210
0.0
220
0.0
230
1.0
 40
0.9849479999999999
 41
3.141534089282087
 42
5.773394814365516
  0
ELLIPSE
  5
326
102
{ACAD_REACTORS
330
631
102
}
330
A
100
AcDbEntity
  8
INSERT
 48
0.335286
100
AcDbEllipse
 10
62.372264
 20
23.89600599999996
 30
0.0
 11
-1.681729555130004
 21
-1.257690668106077
 31
0.0
210
0.0
220
0.0
230
1.0
 40
0.9849479999999999
 41
2.631802160778917
 42
3.141534089282087
  0
LINE
  5
328
102
{ACAD_REACTORS
330
631
102
}
330
A
100
AcDbEntity
  8
INSERT
 48
0.335286
100
AcDbLine
 10
60.37431399999988
 20
23.01811499999996
 30
0.0
 11
60.29986499999998
 21
23.60655599999996
 31
0.0
  0
ELLIPSE
  5
32A
102
{ACAD_REACTORS
330
631
102
}
330
A
100
AcDbEntity
  8
INSERT
 48
0.335286
100
AcDbEllipse
 10
62.44671399999997
 20
23.30756499999996
 30
0.0
 11
-1.681729555130004
 21
-1.257690668106077
 31
0.0
210
0.0
220
0.0
230
1.0
 40
0.9849479999999999
 41
2.006210255004805
 42
2.631802160775706
  0
ELLIPSE
  5
32B
102
{ACAD_REACTORS
330
631
102
}
330
A
100
AcDbEntity
  8
INSERT
 48
0.335286
100
AcDbEllipse
 10
62.44671399999997
 20
23.30756499999996
 30
0.0
 11
-1.681729555130004
 21
-1.257690668106077
 31
0.0
210
0.0
220
0.0
230
1.0
 40
0.9849479999999999
 41
6.283126742871879
 42
6.771161483090383
  0
ELLIPSE
  5
32C
102
{ACAD_REACTORS
330
631
102
}
330
A
100
AcDbEntity
  8
INSERT
 48
0.335286
100
AcDbEllipse
 10
62.44671399999997
 20
23.30756499999996
 30
0.0
 11
-1.681729555130004
 21
-1.257690668106077
 31
0.0
210
0.0
220
0.0
230
1.0
 40
0.9849479999999999
 41
5.773394814368693
 42
6.283126742871879
  0
LINE
  5
32D
102
{ACAD_REACTORS
330
631
102
}
330
A
100
AcDbEntity
  8
INSERT
 48
0.335286
100
AcDbLine
 10
64.44466399999988
 20
24.18545599999996
 30
0.0
 11
64.51911399999985
 21
23.59701499999996
 31
0.0
  0
LINE
  5
345
102
{ACAD_REACTORS
330
34A
102
}
330
A
100
AcDbEntity
  8
SK1
100
AcDbLine
 10
-0.0000000000000031
 20
-25.00000000000003
 30
0.0
 11
-293.5
 21
-25.0
 31
0.0
  0
LINE
  5
346
102
{ACAD_REACTORS
330
34A
102
}
330
A
100
AcDbEntity
  8
SK1
100
AcDbLine
 10
-0.000000000000001
 20
-8.52936100000004
 30
0.0
 11
-293.5
 21
-8.52936099999999
 31
0.0
  0
LINE
  5
347
330
A
100
AcDbEntity
  8
SK4
100
AcDbLine
 10
0.0
 20
0.0
 30
0.0
 11
-303.9293357956631
 21
0.0000000000000372
 31
0.0
  0
LINE
  5
348
102
{ACAD_REACTORS
330
34A
102
}
330
A
100
AcDbEntity
  8
SK1
100
AcDbLine
 10
0.000000000000001
 20
8.529360999999969
 30
0.0
 11
-293.5
 21
8.529361000000005
 31
0.0
  0
LINE
  5
349
102
{ACAD_REACTORS
330
34A
102
}
330
A
100
AcDbEntity
  8
SK1
100
AcDbLine
 10
0.0000000000000029
 20
23.49999999999996
 30
0.0
 11
-293.5
 21
23.5
 31
0.0
  0
DIMENSION
  5
596
102
{ACAD_REACTORS
330
630
102
}
330
A
100
AcDbEntity
  8
SK2
100
AcDbDimension
  2
*D2
 10
-314.3775255668275
 20
25.00000000000005
 30
0.0
 11
-316.8140153770875
 21
1.249999999999982
 31
0.0
 70
    32
  1
D<>
 71
     5
 42
50.00000000000007
  3
DIAMETER
100
AcDbAlignedDimension
 13
-293.5
 23
-25.0
 33
0.0
 14
-293.5
 24
25.00000000000005
 34
0.0
 50
270.0
100
AcDbRotatedDimension
  0
DIMENSION
  5
5BA
102
{ACAD_REACTORS
330
630
102
}
330
A
100
AcDbEntity
  8
SK2
100
AcDbDimension
  2
*D3
 10
55.50044699999999
 20
43.92389161559368
 30
0.0
 11
-119.4997764999999
 21
46.36038142585369
 31
0.0
 70
    32
 71
     5
 42
350.0004470000001
  3
STANDARD
100
AcDbAlignedDimension
 13
-294.5000000000001
 23
23.5
 33
0.0
 14
55.50044699999999
 24
34.99999999999996
 34
0.0
 50
180.0
100
AcDbRotatedDimension
  0
DIMENSION
  5
5C7
102
{ACAD_REACTORS
330
61F
102
}
330
A
100
AcDbEntity
  8
2
100
AcDbDimension
  2
*D4
 10
106.9647900075904
 20
-0.0000000000000151
 30
0.0
 11
104.5283001973303
 21
17.49999999999998
 31
0.0
 70
    32
 71
     5
 42
34.99999999999996
  3
STANDARD
100
AcDbAlignedDimension
 13
55.50044699999999
 23
34.99999999999996
 33
0.0
 14
94.47844699999986
 24
-0.0000000000000116
 34
0.0
 50
270.0
100
AcDbRotatedDimension
  0
DIMENSION
  5
5D4
102
{ACAD_REACTORS
330
61F
102
}
330
A
100
AcDbEntity
  8
2
100
AcDbDimension
  2
*D5
 10
10.49999999999999
 20
-37.66595074583207
 30
0.0
 11
33.00022349999998
 21
-35.24052910141886
 31
0.0
 70
    32
 71
     5
 42
45.00044699999999
  3
STANDARD
100
AcDbAlignedDimension
 13
55.50044699999999
 23
34.99999999999996
 33
0.0
 14
10.49999999999999
 24
-24.50000000000003
 34
0.0
 50
180.0
100
AcDbRotatedDimension
  0
DIMENSION
  5
5E1
102
{ACAD_REACTORS
330
61F
102
}
330
A
100
AcDbEntity
  8
2
100
AcDbDimension
  2
*D6
 10
64.77363476989208
 20
34.99999999999996
 30
0.0
 11
47.02710543187339
 21
29.98237330552424
 31
0.0
 70
   162
  1
93%%D
 71
     5
 42
1.608795292405688
  3
STANDARD
100
AcDb2LineAngularDimension
 13
56.01051399999988
 23
20.75912299999997
 33
0.0
 14
55.50101599999989
 24
34.16087599999996
 34
0.0
 15
53.49999999999989
 25
34.99999999999996
 35
0.0
 16
50.77582062969714
 26
26.3734659538514
 36
0.0
  0
HATCH
  5
7E5
330
A
100
AcDbEntity
  8
7
100
AcDbHatch
 10
0.0
 20
0.0
 30
0.0
210
0.0
220
0.0
230
1.0
  2
ANSI37
 70
     0
 71
     0
 91
        2
 92
        5
 93
       11
 72
     3
 10
68.13035299999987
 20
13.68899499999996
 11
0.640658855438233
 21
0.4791202545166022
 40
0.9849479999999998
 50
200.5044241572786
 51
326.1940425877706
 73
     1
 72
     1
 10
68.92548605091386
 20
13.7304596607665
 11
68.41598860238533
 21
27.13219815495096
 72
     3
 10
67.62085399999985
 20
27.09074799999996
 11
0.640658855438233
 21
0.4791202545166022
 40
0.9849479999999998
 50
326.1940425877706
 51
360.0007857312367
 73
     1
 72
     3
 10
67.62085399999985
 20
27.09074799999996
 11
0.640658855438233
 21
0.4791202545166022
 40
0.9849479999999998
 50
0.0007857312365936
 51
20.50442415727864
 73
     1
 72
     1
 10
68.05228226004722
 20
27.76265609264076
 11
56.72757397531046
 21
34.87425052739035
 72
     3
 10
56.29614899999985
 20
34.20234099999996
 11
0.640658855438233
 21
0.4791202545166022
 40
0.9849479999999998
 50
213.805957412229
 51
339.4955758427213
 73
     0
 72
     1
 10
55.50101596996235
 20
34.1608767901028
 11
56.01051402656982
 21
20.7591223011086
 72
     3
 10
56.80564699999989
 20
20.80058899999996
 11
0.640658855438233
 21
0.4791202545166022
 40
0.9849479999999998
 50
146.1940425877706
 51
166.8061004308674
 73
     1
 72
     3
 10
56.80564699999989
 20
20.80058899999996
 11
0.640658855438233
 21
0.4791202545166022
 40
0.9849479999999998
 50
166.8061004308674
 51
180.0007857312365
 73
     1
 72
     3
 10
56.80564699999989
 20
20.80058899999996
 11
0.640658855438233
 21
0.4791202545166022
 40
0.9849479999999998
 50
180.0007857312365
 51
200.5044241572785
 73
     1
 72
     1
 10
56.3742299936489
 20
20.12867284035896
 11
67.69892802469133
 21
13.0170854726085
 97
        0
 92
       20
 93
        1
 72
     3
 10
62.21325099999987
 20
23.94566799999996
 11
2.426495552062985
 21
1.814667940139768
 40
0.9849480000000003
 50
0.0
 51
360.0
 73
     1
 97
        0
 75
     0
 76
     1
 52
180.0
 41
0.125
 77
     0
 78
     2
 53
225.0
 43
0.0
 44
0.0
 45
0.2806330037834109
 46
-0.280633003783411
 79
     0
 53
315.0
 43
0.0
 44
0.0
 45
0.280633003783411
 46
0.2806330037834109
 79
     0
 47
0.0155457852815925
 98
        4
 10
65.94019547635696
 20
17.05136979130622
 10
65.94019547635696
 20
17.05136979130622
 10
65.94019547635696
 20
17.05136979130622
 10
65.94019547635696
 20
17.05136979130622
1001
ACAD
1010
0.0
1020
0.0
1030
0.0
  0
TEXT
  5
989
330
A
100
AcDbEntity
  8
SK6
100
AcDbText
 10
-130.40645873569
 20
-43.74822671919282
 30
0.0
 40
3.5
  1
 S50U PDZNR 15
100
AcDbText
1001
ACAD
1000
MTEXTBEGIN
1070
    73
1070
     1
1070
    44
1040
1.0
1070
    74
1070
     0
1000
MTEXTEND
  0
VIEWPORT
  5
2A
102
{ACAD_XDICTIONARY
360
957
102
}
330
B
100
AcDbEntity
 67
     1
  8
0
 62
     0
370
     0
100
AcDbViewport
 10
0.0
 20
0.0
 30
0.0
 40
1000.0
 41
1000.0
 68
     1
 69
     1
 12
0.0
 22
0.0
 13
0.0
 23
0.0
 14
1.0
 24
1.0
 15
1.0
 25
1.0
 16
0.0
 26
0.0
 36
1.0
 17
0.0
 27
0.0
 37
0.0
 42
50.0
 43
0.0
 44
0.0
 45
1000.0
 50
0.0
 51
0.0
 72
   100
 90
        0
  1

281
     0
 71
     0
 74
     1
110
0.0
120
0.0
130
0.0
111
1.0
121
0.0
131
0.0
112
0.0
122
1.0
132
0.0
 79
     0
146
0.0
  0
ENDSEC
  0
SECTION
  2
OBJECTS
  0
DICTIONARY
  5
19
330
0
100
AcDbDictionary
281
     1
  3
ACAD_2007HEADERVARS_RT
350
950
  3
ACAD_COLOR
350
112
  3
ACAD_GROUP
350
1A
  3
ACAD_LAYOUT
350
1E
  3
ACAD_MATERIAL
350
111
  3
ACAD_MLEADERSTYLE
350
671
  3
ACAD_MLINESTYLE
350
1B
  3
ACAD_PLOTSETTINGS
350
22
  3
ACAD_PLOTSTYLENAME
350
1F
  3
ACAD_SCALELIST
350
65F
  3
ACAD_TABLESTYLE
350
113
  3
ACAD_VISUALSTYLE
350
64B
  3
ACAD_WIPEOUT_VARS
350
23
  3
ACDB_RECOMPOSE_DATA
350
94E
  3
AcDbVariableDictionary
350
63B
  3
DWGPROPS
350
94F
  0
DICTIONARY
  5
2A3
330
2
100
AcDbDictionary
280
     1
281
     1
  3
ACAD_LAYERFILTERS
360
63A
  3
ACAD_LAYERSTATES
360
2A4
  3
ACLYDICTIONARY
360
639
  0
DICTIONARY
  5
6FA
330
14
100
AcDbDictionary
280
     1
281
     1
  3
ADSK_XREC_LAYER_RECONCILED
360
6FB
  0
DICTIONARY
  5
265
330
264
100
AcDbDictionary
280
     1
281
     1
  3
ADSK_XREC_LAYER_RECONCILED
360
266
  0
DICTIONARY
  5
268
330
267
100
AcDbDictionary
280
     1
281
     1
  3
ADSK_XREC_LAYER_RECONCILED
360
269
  0
DICTIONARY
  5
26B
330
26A
100
AcDbDictionary
280
     1
281
     1
  3
ADSK_XREC_LAYER_RECONCILED
360
26C
  0
DICTIONARY
  5
271
330
270
100
AcDbDictionary
280
     1
281
     1
  3
ADSK_XREC_LAYER_RECONCILED
360
272
  0
DICTIONARY
  5
277
330
276
100
AcDbDictionary
280
     1
281
     1
  3
ADSK_XREC_LAYER_RECONCILED
360
278
  0
DICTIONARY
  5
281
330
280
100
AcDbDictionary
280
     1
281
     1
  3
ADSK_XREC_LAYER_RECONCILED
360
282
  0
DICTIONARY
  5
6FC
330
284
100
AcDbDictionary
280
     1
281
     1
  3
ADSK_XREC_LAYER_RECONCILED
360
6FD
  0
DICTIONARY
  5
6FE
330
285
100
AcDbDictionary
280
     1
281
     1
  3
ADSK_XREC_LAYER_RECONCILED
360
6FF
  0
DICTIONARY
  5
7E7
330
7E6
100
AcDbDictionary
280
     1
281
     1
  0
DICTIONARY
  5
335
330
A
100
AcDbDictionary
280
     1
281
     1
  3
ACAD_SORTENTS
360
336
  0
DICTIONARY
  5
957
330
2A
100
AcDbDictionary
280
     1
281
     1
  3
ACAD_XREC_ROUNDTRIP
360
958
  0
DICTIONARY
  5
950
102
{ACAD_REACTORS
330
19
102
}
330
19
100
AcDbDictionary
281
     1
  3
DIMFXL
350
951
  3
DIMJOGANG
350
952
  0
DICTIONARY
  5
112
102
{ACAD_REACTORS
330
19
102
}
330
19
100
AcDbDictionary
281
     1
  0
DICTIONARY
  5
1A
102
{ACAD_REACTORS
330
19
102
}
330
19
100
AcDbDictionary
281
     1
  3
*A1
350
299
  3
*A10
350
7ED
  3
*A11
350
34A
  3
*A12
350
61F
  3
*A2
350
630
  3
*A3
350
631
  3
*A4
350
632
  3
*A5
350
7E8
  3
*A6
350
7E9
  3
*A7
350
7EA
  3
*A8
350
7EB
  3
*A9
350
7EC
  0
DICTIONARY
  5
1E
102
{ACAD_REACTORS
330
19
102
}
330
19
100
AcDbDictionary
281
     1
  3
Layout1
350
21
  3
Model
350
20
  0
DICTIONARY
  5
111
102
{ACAD_REACTORS
330
19
102
}
330
19
100
AcDbDictionary
281
     1
  3
ByBlock
350
29A
  3
ByLayer
350
29D
  3
Global
350
2A0
  0
DICTIONARY
  5
671
102
{ACAD_REACTORS
330
19
102
}
330
19
100
AcDbDictionary
281
     1
  3
Standard
350
672
  0
DICTIONARY
  5
1B
102
{ACAD_REACTORS
330
19
102
}
330
19
100
AcDbDictionary
281
     1
  3
Standard
350
1C
  0
DICTIONARY
  5
22
102
{ACAD_REACTORS
330
19
102
}
330
19
100
AcDbDictionary
281
     1
  0
ACDBDICTIONARYWDFLT
  5
1F
102
{ACAD_REACTORS
330
19
102
}
330
19
100
AcDbDictionary
281
     1
  3
Normal
350
1D
100
AcDbDictionaryWithDefault
340
1D
  0
DICTIONARY
  5
65F
102
{ACAD_REACTORS
330
19
102
}
330
19
100
AcDbDictionary
281
     1
  3
A0
350
660
  3
A1
350
661
  3
A2
350
662
  3
A3
350
663
  3
A4
350
664
  3
A5
350
665
  3
A6
350
666
  3
A7
350
667
  3
A8
350
668
  3
A9
350
669
  3
B0
350
66A
  3
B1
350
66B
  3
B2
350
66C
  3
B3
350
66D
  3
B4
350
66E
  3
B5
350
66F
  3
B6
350
670
  0
DICTIONARY
  5
113
102
{ACAD_REACTORS
330
19
102
}
330
19
100
AcDbDictionary
281
     1
  3
Standard
350
114
  0
DICTIONARY
  5
64B
102
{ACAD_REACTORS
330
19
102
}
330
19
100
AcDbDictionary
281
     1
  3
2dWireframe
350
651
  3
3D Hidden
350
653
  3
3dWireframe
350
652
  3
Basic
350
650
  3
Brighten
350
657
  3
ColorChange
350
65B
  3
Conceptual
350
654
  3
Dim
350
656
  3
EdgeColorOff
350
65E
  3
Facepattern
350
65A
  3
Flat
350
64C
  3
FlatWithEdges
350
64D
  3
Gouraud
350
64E
  3
GouraudWithEdges
350
64F
  3
JitterOff
350
65C
  3
Linepattern
350
659
  3
OverhangOff
350
65D
  3
Realistic
350
655
  3
Thicken
350
658
  0
WIPEOUTVARIABLES
  5
23
330
19
100
AcDbWipeoutVariables
 70
     1
  0
XRECORD
  5
94E
102
{ACAD_REACTORS
330
19
102
}
330
19
100
AcDbXrecord
280
     1
 90
        1
330
114
  0
DICTIONARY
  5
63B
102
{ACAD_REACTORS
330
19
102
}
330
19
100
AcDbDictionary
281
     1
  3
CANNOSCALE
350
701
  3
CMLEADERSTYLE
350
700
  3
CTABLESTYLE
350
63C
  3
DIMASSOC
350
63D
  3
INDEXCTL
350
703
  3
PROJECTNAME
350
63E
  3
SORTENTS
350
702
  3
XCLIPFRAME
350
94C
  0
XRECORD
  5
94F
102
{ACAD_REACTORS
330
19
102
}
330
19
100
AcDbXrecord
280
     1
  1
DWGPROPS COOKIE
  2

  3

  4

  6

  7

  8
designcad03
  9

300
=
301
=
302
=
303
=
304
=
305
=
306
=
307
=
308
=
309
=
 40
0.1119603703703704
 41
2455379.544619675
 42
2455477.676698495
  1

 90
        0
  0
DICTIONARY
  5
63A
102
{ACAD_REACTORS
330
2A3
102
}
330
2A3
100
AcDbDictionary
281
     1
  0
DICTIONARY
  5
2A4
102
{ACAD_REACTORS
330
2A3
102
}
330
2A3
100
AcDbDictionary
281
     1
  0
DICTIONARY
  5
639
102
{ACAD_REACTORS
330
2A3
102
}
330
2A3
100
AcDbDictionary
281
     1
1001
ACAD
1000
<All
  0
XRECORD
  5
6FB
102
{ACAD_REACTORS
330
6FA
102
}
330
6FA
100
AcDbXrecord
280
     1
290
     1
  0
XRECORD
  5
266
102
{ACAD_REACTORS
330
265
102
}
330
265
100
AcDbXrecord
280
     1
290
     1
  0
XRECORD
  5
269
102
{ACAD_REACTORS
330
268
102
}
330
268
100
AcDbXrecord
280
     1
290
     1
  0
XRECORD
  5
26C
102
{ACAD_REACTORS
330
26B
102
}
330
26B
100
AcDbXrecord
280
     1
290
     1
  0
XRECORD
  5
272
102
{ACAD_REACTORS
330
271
102
}
330
271
100
AcDbXrecord
280
     1
290
     1
  0
XRECORD
  5
278
102
{ACAD_REACTORS
330
277
102
}
330
277
100
AcDbXrecord
280
     1
290
     1
  0
XRECORD
  5
282
102
{ACAD_REACTORS
330
281
102
}
330
281
100
AcDbXrecord
280
     1
290
     1
  0
XRECORD
  5
6FD
102
{ACAD_REACTORS
330
6FC
102
}
330
6FC
100
AcDbXrecord
280
     1
290
     1
  0
XRECORD
  5
6FF
102
{ACAD_REACTORS
330
6FE
102
}
330
6FE
100
AcDbXrecord
280
     1
290
     1
  0
SORTENTSTABLE
  5
336
102
{ACAD_REACTORS
330
335
102
}
330
335
100
AcDbSortentsTable
330
A
331
300
  5
302
331
2E9
  5
2E9
331
31E
  5
322
331
2D2
  5
2D0
331
2BD
  5
2BB
331
305
  5
307
331
323
  5
325
331
2EE
  5
2EE
331
2D7
  5
2D5
331
2D9
  5
2D7
331
2C2
  5
2C0
331
2B1
  5
343
331
30A
  5
30C
331
7E5
  5
2FE
331
2F3
  5
2F3
331
328
  5
32B
331
2DE
  5
2DC
331
311
  5
313
331
2C7
  5
2C5
331
5D4
  5
5E1
331
2B6
  5
596
331
30F
  5
311
331
2FA
  5
2FB
331
32D
  5
338
331
2E3
  5
2E2
331
316
  5
318
331
318
  5
31A
331
5E1
  5
79A
331
2CC
  5
2CA
331
5BA
  5
5C7
331
2FF
  5
301
331
31D
  5
31F
331
2E8
  5
2E8
331
2D1
  5
2CF
331
2BC
  5
2BA
331
304
  5
306
331
347
  5
119
331
2ED
  5
2ED
331
322
  5
324
331
2D6
  5
2D4
331
2D8
  5
2D6
331
2C1
  5
2BF
331
309
  5
30B
331
2F2
  5
2F2
331
310
  5
312
331
2DD
  5
2DB
331
2C6
  5
2C4
331
2B5
  5
347
331
32C
  5
32E
331
2F7
  5
2F7
331
2F9
  5
2FA
331
2E2
  5
2E1
331
315
  5
317
331
2CB
  5
2C9
331
2FE
  5
300
331
2E7
  5
2E7
331
31C
  5
31E
331
2D0
  5
2CE
331
2BB
  5
2B9
331
346
  5
2E0
331
303
  5
305
331
321
  5
323
331
2EC
  5
2EC
331
2D5
  5
2D3
331
2C0
  5
2BE
331
349
  5
2B6
331
308
  5
30A
331
2F1
  5
2F1
331
326
  5
329
331
2DC
  5
2DA
331
2C5
  5
2C3
331
2B4
  5
346
331
2F8
  5
2F8
331
2F6
  5
2F6
331
32B
  5
32D
331
314
  5
316
331
2E1
  5
2DF
331
2CA
  5
2C8
331
2FD
  5
2FF
331
31B
  5
31D
331
2E6
  5
2E6
331
2CF
  5
2CD
331
2BA
  5
2B8
331
302
  5
304
331
345
  5
2F9
331
2EB
  5
2EB
331
2D4
  5
2D2
331
2BF
  5
2BD
331
348
  5
2E4
331
307
  5
309
331
325
  5
327
331
2F0
  5
2F0
331
596
  5
5BA
331
2DB
  5
2D9
331
2C4
  5
2C2
331
5C7
  5
5D4
331
2B3
  5
345
331
30C
  5
310
331
2F5
  5
2F5
331
32A
  5
32C
331
2E0
  5
2DE
331
313
  5
315
331
2C9
  5
2C7
331
2FC
  5
2FD
331
117
  5
117
331
2E5
  5
2E5
331
31A
  5
31C
331
2CE
  5
2CC
331
2B9
  5
2B7
331
301
  5
303
331
2EA
  5
2EA
331
2D3
  5
2D1
331
2BE
  5
2BC
331
306
  5
308
331
2EF
  5
2EF
331
324
  5
326
331
2DA
  5
2D8
331
2C3
  5
2C1
331
2B2
  5
344
331
30B
  5
30D
331
2F4
  5
2F4
331
312
  5
314
331
2DF
  5
2DD
331
2C8
  5
2C6
331
2B7
  5
2B4
331
2FB
  5
2FC
331
2E4
  5
2E3
331
317
  5
319
331
319
  5
31B
331
2CD
  5
2CB
331
2B8
  5
2B5
  0
XRECORD
  5
958
102
{ACAD_REACTORS
330
957
102
}
330
957
100
AcDbXrecord
280
     1
102
SHADEPLOT
 70
     0
  0
XRECORD
  5
951
102
{ACAD_REACTORS
330
950
102
}
330
950
100
AcDbXrecord
280
     1
 40
1.25
  0
XRECORD
  5
952
102
{ACAD_REACTORS
330
950
102
}
330
950
100
AcDbXrecord
280
     1
 40
1.570796326794896
  0
GROUP
  5
299
102
{ACAD_REACTORS
330
1A
102
}
330
1A
100
AcDbGroup
300

 70
     1
 71
     1
  0
GROUP
  5
7ED
102
{ACAD_REACTORS
330
1A
102
}
330
1A
100
AcDbGroup
300

 70
     1
 71
     1
  0
GROUP
  5
34A
102
{ACAD_REACTORS
330
1A
102
}
330
1A
100
AcDbGroup
300

 70
     1
 71
     1
340
348
340
349
340
346
340
345
340
2F9
340
2EC
340
2EB
340
2E8
340
2E7
340
2E3
340
2E2
340
2CE
340
2CD
340
2CC
340
2B7
  0
GROUP
  5
61F
102
{ACAD_REACTORS
330
1A
102
}
330
1A
100
AcDbGroup
300

 70
     1
 71
     1
340
5E1
340
5C7
340
5D4
  0
GROUP
  5
630
102
{ACAD_REACTORS
330
1A
102
}
330
1A
100
AcDbGroup
300

 70
     1
 71
     1
340
5BA
340
596
  0
GROUP
  5
631
102
{ACAD_REACTORS
330
1A
102
}
330
1A
100
AcDbGroup
300

 70
     1
 71
     1
340
32D
340
32C
340
32B
340
32A
340
328
340
326
340
325
340
324
340
323
340
322
340
321
340
310
340
30F
340
30C
340
30B
340
30A
340
309
340
308
340
307
340
306
340
305
340
304
340
303
340
302
340
301
340
300
340
2FF
340
2FE
340
2FD
340
318
340
317
340
313
340
312
340
311
340
2C8
340
2CB
340
31E
340
31D
340
31C
340
31B
340
31A
340
319
340
316
340
315
340
314
340
2CA
340
2C9
  0
GROUP
  5
632
102
{ACAD_REACTORS
330
1A
102
}
330
1A
100
AcDbGroup
300

 70
     1
 71
     1
340
2FC
340
2FB
340
2FA
340
2F8
340
2F7
340
2F6
340
2F5
340
2F4
340
2F3
340
2F2
340
2F1
340
2F0
340
2EF
340
2EE
340
2ED
340
2EA
340
2E9
340
2E6
340
2E5
340
2E4
340
2E1
340
2E0
340
2DF
340
2DE
340
2DD
340
2DC
340
2DB
340
2DA
340
2D9
340
2D8
340
2D7
340
2D6
340
2D5
340
2D4
340
2D3
340
2D2
340
2D1
340
2D0
340
2CF
340
2C7
340
2C6
340
2C5
340
2C4
340
2C3
340
2C2
340
2C1
340
2C0
340
2BF
340
2BE
340
2BD
340
2BC
340
2BB
340
2BA
340
2B9
340
2B8
  0
GROUP
  5
7E8
102
{ACAD_REACTORS
330
1A
102
}
330
1A
100
AcDbGroup
300

 70
     1
 71
     1
  0
GROUP
  5
7E9
102
{ACAD_REACTORS
330
1A
102
}
330
1A
100
AcDbGroup
300

 70
     1
 71
     1
  0
GROUP
  5
7EA
102
{ACAD_REACTORS
330
1A
102
}
330
1A
100
AcDbGroup
300

 70
     1
 71
     1
  0
GROUP
  5
7EB
102
{ACAD_REACTORS
330
1A
102
}
330
1A
100
AcDbGroup
300

 70
     1
 71
     1
  0
GROUP
  5
7EC
102
{ACAD_REACTORS
330
1A
102
}
330
1A
100
AcDbGroup
300

 70
     1
 71
     1
  0
LAYOUT
  5
21
102
{ACAD_XDICTIONARY
360
955
102
}
102
{ACAD_REACTORS
330
1E
102
}
330
1E
100
AcDbPlotSettings
  1

  2

  4

  6

 40
0.0
 41
0.0
 42
0.0
 43
0.0
 44
0.0
 45
0.0
 46
0.0
 47
0.0
 48
0.0
 49
0.0
140
0.0
141
0.0
142
1.0
143
1.0
 70
     0
 72
     0
 73
     0
 74
     0
  7

 75
     0
147
1.0
148
0.0
149
0.0
100
AcDbLayout
  1
Layout1
 70
     1
 71
     1
 10
0.0
 20
0.0
 11
420.0
 21
297.0
 12
0.0
 22
0.0
 32
0.0
 14
0.0
 24
0.0
 34
0.0
 15
383.416809
 25
109.7479709999999
 35
2.0
146
0.0
 13
0.0
 23
0.0
 33
0.0
 16
1.0
 26
0.0
 36
0.0
 17
0.0
 27
1.0
 37
0.0
 76
     0
330
B
331
2A
  0
LAYOUT
  5
20
102
{ACAD_XDICTIONARY
360
953
102
}
102
{ACAD_REACTORS
330
1E
102
}
330
1E
100
AcDbPlotSettings
  1

  2

  4

  6

 40
0.0
 41
0.0
 42
0.0
 43
0.0
 44
0.0
 45
0.0
 46
0.0
 47
0.0
 48
0.0
 49
0.0
140
0.0
141
0.0
142
1.0
143
1.0
 70
  1024
 72
     0
 73
     0
 74
     0
  7

 75
     0
147
1.0
148
0.0
149
0.0
100
AcDbLayout
  1
Model
 70
     0
 71
     0
 10
0.0
 20
0.0
 11
0.0
 21
0.0
 12
0.0
 22
0.0
 32
0.0
 14
0.0
 24
0.0
 34
0.0
 15
0.0
 25
0.0
 35
0.0
146
0.0
 13
0.0
 23
0.0
 33
0.0
 16
0.0
 26
0.0
 36
0.0
 17
0.0
 27
0.0
 37
0.0
 76
     0
330
A
331
63F
  0
MATERIAL
  5
29A
102
{ACAD_XDICTIONARY
360
29B
102
}
102
{ACAD_REACTORS
330
111
102
}
330
111
100
AcDbMaterial
  1
ByBlock
  0
MATERIAL
  5
29D
102
{ACAD_XDICTIONARY
360
29E
102
}
102
{ACAD_REACTORS
330
111
102
}
330
111
100
AcDbMaterial
  1
ByLayer
  0
MATERIAL
  5
2A0
102
{ACAD_XDICTIONARY
360
2A1
102
}
102
{ACAD_REACTORS
330
111
102
}
330
111
100
AcDbMaterial
  1
Global
  0
MLEADERSTYLE
  5
672
102
{ACAD_REACTORS
330
671
102
}
330
671
100
AcDbMLeaderStyle
170
     2
171
     1
172
     0
 90
        2
 40
0.0
 41
0.0
173
     1
 91
-1056964608
340
11
 92
       -2
290
     1
 42
2.0
291
     1
 43
0.36
  3
Standard
 44
4.0
300

342
17
174
     1
178
     6
175
     1
176
     0
 93
-1056964608
 45
4.0
292
     0
297
     0
 46
4.0
 94
-1056964608
 47
1.0
 49
1.0
140
1.0
293
     1
141
0.0
294
     1
177
     0
142
1.0
295
     0
296
     0
143
0.125
1001
ACAD_MLEADERVER
1070
     2
  0
MLINESTYLE
  5
1C
102
{ACAD_REACTORS
330
1B
102
}
330
1B
100
AcDbMlineStyle
  2
STANDARD
 70
     0
  3

 62
     0
 51
90.0
 52
90.0
 71
     2
 49
0.5
 62
   256
  6
BYLAYER
 49
-0.5
 62
   256
  6
BYLAYER
  0
ACDBPLACEHOLDER
  5
1D
102
{ACAD_REACTORS
330
1F
102
}
330
1F
  0
SCALE
  5
660
102
{ACAD_REACTORS
330
65F
102
}
330
65F
100
AcDbScale
 70
     0
300
1:1
140
1.0
141
1.0
290
     1
  0
SCALE
  5
661
102
{ACAD_REACTORS
330
65F
102
}
330
65F
100
AcDbScale
 70
     0
300
1:2
140
1.0
141
2.0
290
     0
  0
SCALE
  5
662
102
{ACAD_REACTORS
330
65F
102
}
330
65F
100
AcDbScale
 70
     0
300
1:4
140
1.0
141
4.0
290
     0
  0
SCALE
  5
663
102
{ACAD_REACTORS
330
65F
102
}
330
65F
100
AcDbScale
 70
     0
300
1:5
140
1.0
141
5.0
290
     0
  0
SCALE
  5
664
102
{ACAD_REACTORS
330
65F
102
}
330
65F
100
AcDbScale
 70
     0
300
1:8
140
1.0
141
8.0
290
     0
  0
SCALE
  5
665
102
{ACAD_REACTORS
330
65F
102
}
330
65F
100
AcDbScale
 70
     0
300
1:10
140
1.0
141
10.0
290
     0
  0
SCALE
  5
666
102
{ACAD_REACTORS
330
65F
102
}
330
65F
100
AcDbScale
 70
     0
300
1:16
140
1.0
141
16.0
290
     0
  0
SCALE
  5
667
102
{ACAD_REACTORS
330
65F
102
}
330
65F
100
AcDbScale
 70
     0
300
1:20
140
1.0
141
20.0
290
     0
  0
SCALE
  5
668
102
{ACAD_REACTORS
330
65F
102
}
330
65F
100
AcDbScale
 70
     0
300
1:30
140
1.0
141
30.0
290
     0
  0
SCALE
  5
669
102
{ACAD_REACTORS
330
65F
102
}
330
65F
100
AcDbScale
 70
     0
300
1:40
140
1.0
141
40.0
290
     0
  0
SCALE
  5
66A
102
{ACAD_REACTORS
330
65F
102
}
330
65F
100
AcDbScale
 70
     0
300
1:50
140
1.0
141
50.0
290
     0
  0
SCALE
  5
66B
102
{ACAD_REACTORS
330
65F
102
}
330
65F
100
AcDbScale
 70
     0
300
1:100
140
1.0
141
100.0
290
     0
  0
SCALE
  5
66C
102
{ACAD_REACTORS
330
65F
102
}
330
65F
100
AcDbScale
 70
     0
300
2:1
140
2.0
141
1.0
290
     0
  0
SCALE
  5
66D
102
{ACAD_REACTORS
330
65F
102
}
330
65F
100
AcDbScale
 70
     0
300
4:1
140
4.0
141
1.0
290
     0
  0
SCALE
  5
66E
102
{ACAD_REACTORS
330
65F
102
}
330
65F
100
AcDbScale
 70
     0
300
8:1
140
8.0
141
1.0
290
     0
  0
SCALE
  5
66F
102
{ACAD_REACTORS
330
65F
102
}
330
65F
100
AcDbScale
 70
     0
300
10:1
140
10.0
141
1.0
290
     0
  0
SCALE
  5
670
102
{ACAD_REACTORS
330
65F
102
}
330
65F
100
AcDbScale
 70
     0
300
100:1
140
100.0
141
1.0
290
     0
  0
TABLESTYLE
  5
114
102
{ACAD_XDICTIONARY
360
705
102
}
102
{ACAD_REACTORS
330
113
102
}
330
113
100
AcDbTableStyle
  3
Standard
 70
     0
 71
     0
 40
1.5
 41
1.5
280
     0
281
     0
  7
STANDARD
140
4.5
170
     2
 62
     0
 63
     7
283
     0
274
    -2
284
     1
 64
     0
275
    -2
285
     1
 65
     0
276
    -2
286
     1
 66
     0
277
    -2
287
     1
 67
     0
278
    -2
288
     1
 68
     0
279
    -2
289
     1
 69
     0
  7
STANDARD
140
6.0
170
     5
 62
     0
 63
     7
283
     0
274
    -2
284
     1
 64
     0
275
    -2
285
     1
 65
     0
276
    -2
286
     1
 66
     0
277
    -2
287
     1
 67
     0
278
    -2
288
     1
 68
     0
279
    -2
289
     1
 69
     0
  7
STANDARD
140
4.5
170
     5
 62
     0
 63
     7
283
     0
274
    -2
284
     1
 64
     0
275
    -2
285
     1
 65
     0
276
    -2
286
     1
 66
     0
277
    -2
287
     1
 67
     0
278
    -2
288
     1
 68
     0
279
    -2
289
     1
 69
     0
  0
VISUALSTYLE
  5
651
102
{ACAD_XDICTIONARY
360
966
102
}
102
{ACAD_REACTORS
330
64B
102
}
330
64B
100
AcDbVisualStyle
  2

 70
     4
 71
     0
 72
     2
 73
     0
 90
        0
 40
-0.6
 41
-30.0
 62
     5
 63
     7
 74
     1
 91
        4
 64
     7
 65
   257
 75
     1
175
     1
 42
1.0
 92
        0
 66
   257
 43
1.0
 76
     1
 77
     6
 78
     2
 67
     7
 79
     5
170
     0
171
     0
290
     0
174
     0
 93
        1
 44
0.0
173
     0
291
     0
 45
0.0
1001
ACAD
1000
AcDbSavedByObjectVersion
1070
     0
  0
VISUALSTYLE
  5
653
102
{ACAD_XDICTIONARY
360
96A
102
}
102
{ACAD_REACTORS
330
64B
102
}
330
64B
100
AcDbVisualStyle
  2

 70
     6
 71
     1
 72
     2
 73
     2
 90
        0
 40
-0.6
 41
-30.0
 62
     5
 63
     7
 74
     2
 91
        2
 64
     7
 65
   257
 75
     2
175
     1
 42
179.0
 92
        0
 66
   257
 43
1.0
 76
     1
 77
     6
 78
     2
 67
     7
 79
     3
170
     0
171
     0
290
     0
174
     0
 93
        1
 44
0.0
173
     0
291
     0
 45
0.0
1001
ACAD
1000
AcDbSavedByObjectVersion
1070
     0
  0
VISUALSTYLE
  5
652
102
{ACAD_XDICTIONARY
360
968
102
}
102
{ACAD_REACTORS
330
64B
102
}
330
64B
100
AcDbVisualStyle
  2

 70
     5
 71
     0
 72
     2
 73
     0
 90
        0
 40
-0.6
 41
-30.0
 62
     5
 63
     7
 74
     1
 91
        4
 64
     7
 65
   257
 75
     1
175
     1
 42
1.0
 92
        0
 66
   257
 43
1.0
 76
     1
 77
     6
 78
     2
 67
     7
 79
     5
170
     0
171
     0
290
     0
174
     0
 93
        1
 44
0.0
173
     0
291
     0
 45
0.0
1001
ACAD
1000
AcDbSavedByObjectVersion
1070
     0
  0
VISUALSTYLE
  5
650
102
{ACAD_XDICTIONARY
360
964
102
}
102
{ACAD_REACTORS
330
64B
102
}
330
64B
100
AcDbVisualStyle
  2

 70
     7
 71
     1
 72
     0
 73
     1
 90
        0
 40
-0.6
 41
-30.0
 62
     5
 63
     7
 74
     0
 91
        4
 64
     7
 65
   257
 75
     1
175
     1
 42
1.0
 92
        8
 66
     7
 43
1.0
 76
     1
 77
     6
 78
     2
 67
     7
 79
     5
170
     0
171
     0
290
     0
174
     0
 93
        1
 44
0.0
173
     0
291
     1
 45
0.0
1001
ACAD
1000
AcDbSavedByObjectVersion
1070
     0
  0
VISUALSTYLE
  5
657
102
{ACAD_XDICTIONARY
360
972
102
}
102
{ACAD_REACTORS
330
64B
102
}
330
64B
100
AcDbVisualStyle
  2

 70
    12
 71
     2
 72
     2
 73
     0
 90
        0
 40
-0.6
 41
-30.0
 62
     5
 63
     7
 74
     1
 91
        4
 64
     7
 65
   257
 75
     1
175
     1
 42
1.0
 92
        8
 66
     7
 43
1.0
 76
     1
 77
     6
 78
     2
 67
     7
 79
     5
170
     0
171
     0
290
     0
174
     0
 93
        1
 44
50.0
173
     0
291
     1
 45
0.0
1001
ACAD
1000
AcDbSavedByObjectVersion
1070
     0
  0
VISUALSTYLE
  5
65B
102
{ACAD_XDICTIONARY
360
97A
102
}
102
{ACAD_REACTORS
330
64B
102
}
330
64B
100
AcDbVisualStyle
  2

 70
    16
 71
     2
 72
     2
 73
     3
 90
        0
 40
-0.6
 41
-30.0
 62
     5
 63
     8
 74
     1
 91
        4
 64
     7
 65
   257
 75
     1
175
     1
 42
1.0
 92
        8
 66
     8
 43
1.0
 76
     1
 77
     6
 78
     2
 67
     7
 79
     5
170
     0
171
     0
290
     0
174
     0
 93
        1
 44
0.0
173
     0
291
     1
 45
0.0
1001
ACAD
1000
AcDbSavedByObjectVersion
1070
     0
  0
VISUALSTYLE
  5
654
102
{ACAD_XDICTIONARY
360
96C
102
}
102
{ACAD_REACTORS
330
64B
102
}
330
64B
100
AcDbVisualStyle
  2

 70
     9
 71
     3
 72
     2
 73
     0
 90
        0
 40
-0.6
 41
-30.0
 62
     5
 63
     7
 74
     2
 91
        2
 64
     7
 65
   257
 75
     1
175
     1
 42
179.0
 92
        8
 66
     7
 43
1.0
 76
     1
 77
     6
 78
     2
 67
     7
 79
     3
170
     0
171
     0
290
     0
174
     0
 93
        1
 44
0.0
173
     0
291
     0
 45
0.0
1001
ACAD
1000
AcDbSavedByObjectVersion
1070
     0
  0
VISUALSTYLE
  5
656
102
{ACAD_XDICTIONARY
360
970
102
}
102
{ACAD_REACTORS
330
64B
102
}
330
64B
100
AcDbVisualStyle
  2

 70
    11
 71
     2
 72
     2
 73
     0
 90
        0
 40
-0.6
 41
-30.0
 62
     5
 63
     7
 74
     1
 91
        4
 64
     7
 65
   257
 75
     1
175
     1
 42
1.0
 92
        8
 66
     7
 43
1.0
 76
     1
 77
     6
 78
     2
 67
     7
 79
     5
170
     0
171
     0
290
     0
174
     0
 93
        1
 44
-50.0
173
     0
291
     1
 45
0.0
1001
ACAD
1000
AcDbSavedByObjectVersion
1070
     0
  0
VISUALSTYLE
  5
65E
102
{ACAD_XDICTIONARY
360
980
102
}
102
{ACAD_REACTORS
330
64B
102
}
330
64B
100
AcDbVisualStyle
  2

 70
    22
 71
     2
 72
     2
 73
     0
 90
        0
 40
-0.6
 41
-30.0
 62
     5
 63
     7
 74
     1
 91
        4
 64
     7
 65
   257
 75
     1
175
     1
 42
1.0
 92
        8
 66
     7
 43
1.0
 76
     1
 77
     6
 78
     2
 67
     7
 79
     5
170
     0
171
     0
290
     0
174
     0
 93
        1
 44
0.0
173
     0
291
     1
 45
0.0
1001
ACAD
1000
AcDbSavedByObjectVersion
1070
     0
  0
VISUALSTYLE
  5
65A
102
{ACAD_XDICTIONARY
360
978
102
}
102
{ACAD_REACTORS
330
64B
102
}
330
64B
100
AcDbVisualStyle
  2

 70
    15
 71
     2
 72
     2
 73
     0
 90
        0
 40
-0.6
 41
-30.0
 62
     5
 63
     7
 74
     1
 91
        4
 64
     7
 65
   257
 75
     1
175
     1
 42
1.0
 92
        8
 66
     7
 43
1.0
 76
     1
 77
     6
 78
     2
 67
     7
 79
     5
170
     0
171
     0
290
     0
174
     0
 93
        1
 44
0.0
173
     0
291
     1
 45
0.0
1001
ACAD
1000
AcDbSavedByObjectVersion
1070
     0
  0
VISUALSTYLE
  5
64C
102
{ACAD_XDICTIONARY
360
95C
102
}
102
{ACAD_REACTORS
330
64B
102
}
330
64B
100
AcDbVisualStyle
  2

 70
     0
 71
     2
 72
     1
 73
     1
 90
        2
 40
-0.6
 41
30.0
 62
     5
 63
     7
 74
     0
 91
        4
 64
     7
 65
   257
 75
     1
175
     1
 42
1.0
 92
        8
 66
     7
 43
1.0
 76
     1
 77
     6
 78
     2
 67
     7
 79
     5
170
     0
171
     0
290
     0
174
     0
 93
       13
 44
0.0
173
     0
291
     1
 45
0.0
1001
ACAD
1000
AcDbSavedByObjectVersion
1070
     0
  0
VISUALSTYLE
  5
64D
102
{ACAD_XDICTIONARY
360
95E
102
}
102
{ACAD_REACTORS
330
64B
102
}
330
64B
100
AcDbVisualStyle
  2

 70
     1
 71
     2
 72
     1
 73
     1
 90
        2
 40
-0.6
 41
30.0
 62
     5
 63
     7
 74
     1
 91
        4
 64
     7
 65
   257
 75
     1
175
     1
 42
1.0
 92
        0
 66
   257
 43
1.0
 76
     1
 77
     6
 78
     2
 67
     7
 79
     5
170
     0
171
     0
290
     0
174
     0
 93
       13
 44
0.0
173
     0
291
     1
 45
0.0
1001
ACAD
1000
AcDbSavedByObjectVersion
1070
     0
  0
VISUALSTYLE
  5
64E
102
{ACAD_XDICTIONARY
360
960
102
}
102
{ACAD_REACTORS
330
64B
102
}
330
64B
100
AcDbVisualStyle
  2

 70
     2
 71
     2
 72
     2
 73
     1
 90
        2
 40
-0.6
 41
30.0
 62
     5
 63
     7
 74
     0
 91
        4
 64
     7
 65
   257
 75
     1
175
     1
 42
1.0
 92
        0
 66
     7
 43
1.0
 76
     1
 77
     6
 78
     2
 67
     7
 79
     5
170
     0
171
     0
290
     0
174
     0
 93
       13
 44
0.0
173
     0
291
     1
 45
0.0
1001
ACAD
1000
AcDbSavedByObjectVersion
1070
     0
  0
VISUALSTYLE
  5
64F
102
{ACAD_XDICTIONARY
360
962
102
}
102
{ACAD_REACTORS
330
64B
102
}
330
64B
100
AcDbVisualStyle
  2

 70
     3
 71
     2
 72
     2
 73
     1
 90
        2
 40
-0.6
 41
30.0
 62
     5
 63
     7
 74
     1
 91
        4
 64
     7
 65
   257
 75
     1
175
     1
 42
1.0
 92
        0
 66
   257
 43
1.0
 76
     1
 77
     6
 78
     2
 67
     7
 79
     5
170
     0
171
     0
290
     0
174
     0
 93
       13
 44
0.0
173
     0
291
     1
 45
0.0
1001
ACAD
1000
AcDbSavedByObjectVersion
1070
     0
  0
VISUALSTYLE
  5
65C
102
{ACAD_XDICTIONARY
360
97C
102
}
102
{ACAD_REACTORS
330
64B
102
}
330
64B
100
AcDbVisualStyle
  2

 70
    20
 71
     2
 72
     2
 73
     0
 90
        0
 40
-0.6
 41
-30.0
 62
     5
 63
     7
 74
     1
 91
        4
 64
     7
 65
   257
 75
     1
175
     1
 42
1.0
 92
       10
 66
     7
 43
1.0
 76
     1
 77
     6
 78
     2
 67
     7
 79
     5
170
     0
171
     0
290
     0
174
     0
 93
        1
 44
0.0
173
     0
291
     1
 45
0.0
1001
ACAD
1000
AcDbSavedByObjectVersion
1070
     0
  0
VISUALSTYLE
  5
659
102
{ACAD_XDICTIONARY
360
976
102
}
102
{ACAD_REACTORS
330
64B
102
}
330
64B
100
AcDbVisualStyle
  2

 70
    14
 71
     2
 72
     2
 73
     0
 90
        0
 40
-0.6
 41
-30.0
 62
     5
 63
     7
 74
     1
 91
        4
 64
     7
 65
   257
 75
     7
175
     7
 42
1.0
 92
        8
 66
     7
 43
1.0
 76
     1
 77
     6
 78
     2
 67
     7
 79
     5
170
     0
171
     0
290
     0
174
     0
 93
        1
 44
0.0
173
     0
291
     1
 45
0.0
1001
ACAD
1000
AcDbSavedByObjectVersion
1070
     0
  0
VISUALSTYLE
  5
65D
102
{ACAD_XDICTIONARY
360
97E
102
}
102
{ACAD_REACTORS
330
64B
102
}
330
64B
100
AcDbVisualStyle
  2

 70
    21
 71
     2
 72
     2
 73
     0
 90
        0
 40
-0.6
 41
-30.0
 62
     5
 63
     7
 74
     1
 91
        4
 64
     7
 65
   257
 75
     1
175
     1
 42
1.0
 92
        9
 66
     7
 43
1.0
 76
     1
 77
     6
 78
     2
 67
     7
 79
     5
170
     0
171
     0
290
     0
174
     0
 93
        1
 44
0.0
173
     0
291
     1
 45
0.0
1001
ACAD
1000
AcDbSavedByObjectVersion
1070
     0
  0
VISUALSTYLE
  5
655
102
{ACAD_XDICTIONARY
360
96E
102
}
102
{ACAD_REACTORS
330
64B
102
}
330
64B
100
AcDbVisualStyle
  2

 70
     8
 71
     2
 72
     2
 73
     0
 90
        0
 40
-0.6
 41
-30.0
 62
     5
 63
     7
 74
     1
 91
        0
 64
     7
 65
   257
 75
     1
175
     1
 42
1.0
 92
        8
 66
     8
 43
1.0
 76
     1
 77
     6
 78
     2
 67
     7
 79
     5
170
     0
171
     0
290
     0
174
     0
 93
       13
 44
0.0
173
     0
291
     0
 45
0.0
1001
ACAD
1000
AcDbSavedByObjectVersion
1070
     0
  0
VISUALSTYLE
  5
658
102
{ACAD_XDICTIONARY
360
974
102
}
102
{ACAD_REACTORS
330
64B
102
}
330
64B
100
AcDbVisualStyle
  2

 70
    13
 71
     2
 72
     2
 73
     0
 90
        0
 40
-0.6
 41
-30.0
 62
     5
 63
     7
 74
     1
 91
        4
 64
     7
 65
   257
 75
     1
175
     1
 42
1.0
 92
       12
 66
     7
 43
1.0
 76
     1
 77
     6
 78
     2
 67
     7
 79
     5
170
     0
171
     0
290
     0
174
     0
 93
        1
 44
0.0
173
     0
291
     1
 45
0.0
1001
ACAD
1000
AcDbSavedByObjectVersion
1070
     0
  0
DICTIONARYVAR
  5
701
102
{ACAD_REACTORS
330
63B
102
}
330
63B
100
DictionaryVariables
280
     0
  1
1:1
  0
DICTIONARYVAR
  5
700
102
{ACAD_REACTORS
330
63B
102
}
330
63B
100
DictionaryVariables
280
     0
  1
STANDARD
  0
DICTIONARYVAR
  5
63C
102
{ACAD_REACTORS
330
63B
102
}
330
63B
100
DictionaryVariables
280
     0
  1
STANDARD
  0
DICTIONARYVAR
  5
63D
102
{ACAD_REACTORS
330
63B
102
}
330
63B
100
DictionaryVariables
280
     0
  1
1
  0
DICTIONARYVAR
  5
703
102
{ACAD_REACTORS
330
63B
102
}
330
63B
100
DictionaryVariables
280
     0
  1
0
  0
DICTIONARYVAR
  5
63E
102
{ACAD_REACTORS
330
63B
102
}
330
63B
100
DictionaryVariables
280
     0
  1

  0
DICTIONARYVAR
  5
702
102
{ACAD_REACTORS
330
63B
102
}
330
63B
100
DictionaryVariables
280
     0
  1
127
  0
DICTIONARYVAR
  5
94C
102
{ACAD_REACTORS
330
63B
102
}
330
63B
100
DictionaryVariables
280
     0
  1
2
  0
DICTIONARY
  5
955
330
21
100
AcDbDictionary
280
     1
281
     1
  3
ACAD_XREC_ROUNDTRIP
360
956
  0
DICTIONARY
  5
953
330
20
100
AcDbDictionary
280
     1
281
     1
  3
ACAD_XREC_ROUNDTRIP
360
954
  0
DICTIONARY
  5
29B
330
29A
100
AcDbDictionary
280
     1
281
     1
  3
ACAD_XREC_ROUNDTRIP
360
29C
  0
DICTIONARY
  5
29E
330
29D
100
AcDbDictionary
280
     1
281
     1
  3
ACAD_XREC_ROUNDTRIP
360
29F
  0
DICTIONARY
  5
2A1
330
2A0
100
AcDbDictionary
280
     1
281
     1
  3
ACAD_XREC_ROUNDTRIP
360
2A2
  0
DICTIONARY
  5
705
330
114
100
AcDbDictionary
280
     1
281
     1
  3
ACAD_ROUNDTRIP_2008_TABLESTYLE_CELLSTYLEMAP
360
94D
  3
ACAD_XREC_ROUNDTRIP
360
959
  0
DICTIONARY
  5
966
330
651
100
AcDbDictionary
280
     1
281
     1
  3
ACAD_XREC_ROUNDTRIP
360
967
  0
DICTIONARY
  5
96A
330
653
100
AcDbDictionary
280
     1
281
     1
  3
ACAD_XREC_ROUNDTRIP
360
96B
  0
DICTIONARY
  5
968
330
652
100
AcDbDictionary
280
     1
281
     1
  3
ACAD_XREC_ROUNDTRIP
360
969
  0
DICTIONARY
  5
964
330
650
100
AcDbDictionary
280
     1
281
     1
  3
ACAD_XREC_ROUNDTRIP
360
965
  0
DICTIONARY
  5
972
330
657
100
AcDbDictionary
280
     1
281
     1
  3
ACAD_XREC_ROUNDTRIP
360
973
  0
DICTIONARY
  5
97A
330
65B
100
AcDbDictionary
280
     1
281
     1
  3
ACAD_XREC_ROUNDTRIP
360
97B
  0
DICTIONARY
  5
96C
330
654
100
AcDbDictionary
280
     1
281
     1
  3
ACAD_XREC_ROUNDTRIP
360
96D
  0
DICTIONARY
  5
970
330
656
100
AcDbDictionary
280
     1
281
     1
  3
ACAD_XREC_ROUNDTRIP
360
971
  0
DICTIONARY
  5
980
330
65E
100
AcDbDictionary
280
     1
281
     1
  3
ACAD_XREC_ROUNDTRIP
360
981
  0
DICTIONARY
  5
978
330
65A
100
AcDbDictionary
280
     1
281
     1
  3
ACAD_XREC_ROUNDTRIP
360
979
  0
DICTIONARY
  5
95C
330
64C
100
AcDbDictionary
280
     1
281
     1
  3
ACAD_XREC_ROUNDTRIP
360
95D
  0
DICTIONARY
  5
95E
330
64D
100
AcDbDictionary
280
     1
281
     1
  3
ACAD_XREC_ROUNDTRIP
360
95F
  0
DICTIONARY
  5
960
330
64E
100
AcDbDictionary
280
     1
281
     1
  3
ACAD_XREC_ROUNDTRIP
360
961
  0
DICTIONARY
  5
962
330
64F
100
AcDbDictionary
280
     1
281
     1
  3
ACAD_XREC_ROUNDTRIP
360
963
  0
DICTIONARY
  5
97C
330
65C
100
AcDbDictionary
280
     1
281
     1
  3
ACAD_XREC_ROUNDTRIP
360
97D
  0
DICTIONARY
  5
976
330
659
100
AcDbDictionary
280
     1
281
     1
  3
ACAD_XREC_ROUNDTRIP
360
977
  0
DICTIONARY
  5
97E
330
65D
100
AcDbDictionary
280
     1
281
     1
  3
ACAD_XREC_ROUNDTRIP
360
97F
  0
DICTIONARY
  5
96E
330
655
100
AcDbDictionary
280
     1
281
     1
  3
ACAD_XREC_ROUNDTRIP
360
96F
  0
DICTIONARY
  5
974
330
658
100
AcDbDictionary
280
     1
281
     1
  3
ACAD_XREC_ROUNDTRIP
360
975
  0
XRECORD
  5
956
102
{ACAD_REACTORS
330
955
102
}
330
955
100
AcDbXrecord
280
     1
102
SHADEPLOT
 70
     0
102
SHADEPLOTRESLEVEL
 70
     2
102
SHADEPLOTCUSTOMDPI
 70
   300
  0
XRECORD
  5
954
102
{ACAD_REACTORS
330
953
102
}
330
953
100
AcDbXrecord
280
     1
102
SHADEPLOT
 70
     0
102
SHADEPLOTRESLEVEL
 70
     2
102
SHADEPLOTCUSTOMDPI
 70
   300
  0
XRECORD
  5
29C
102
{ACAD_REACTORS
330
29B
102
}
330
29B
100
AcDbXrecord
280
     1
102
MATERIAL
148
0.0
149
0.0
149
0.0
 93
        0
 94
      127
282
     0
 72
     1
 77
     1
171
     1
175
     1
179
     1
273
     0
  0
XRECORD
  5
29F
102
{ACAD_REACTORS
330
29E
102
}
330
29E
100
AcDbXrecord
280
     1
102
MATERIAL
148
0.0
149
0.0
149
0.0
 93
        0
 94
      127
282
     0
 72
     1
 77
     1
171
     1
175
     1
179
     1
273
     0
  0
XRECORD
  5
2A2
102
{ACAD_REACTORS
330
2A1
102
}
330
2A1
100
AcDbXrecord
280
     1
102
MATERIAL
148
0.0
149
0.0
149
0.0
 93
        0
 94
      127
282
     0
 72
     1
 77
     1
171
     1
175
     1
179
     1
273
     0
  0
CELLSTYLEMAP
  5
94D
102
{ACAD_REACTORS
330
705
102
}
330
705
100
AcDbCellStyleMap
 90
        3
300
CELLSTYLE
  1
TABLEFORMAT_BEGIN
 90
        5
170
     1
 91
        0
 92
    32768
 62
   257
 93
        1
300
CONTENTFORMAT
  1
CONTENTFORMAT_BEGIN
 90
        0
 91
        0
 92
        4
 93
        0
300

 40
0.0
140
1.0
 94
        5
 62
     0
340
17
144
6.0
309
CONTENTFORMAT_END
171
     1
301
MARGIN
  1
CELLMARGIN_BEGIN
 40
1.5
 40
1.5
 40
1.5
 40
1.5
 40
0.18
 40
0.18
309
CELLMARGIN_END
 94
        6
 95
        1
302
GRIDFORMAT
  1
GRIDFORMAT_BEGIN
 90
        0
 91
        1
 62
     0
 92
       -2
340
0
 93
        0
 40
0.045
309
GRIDFORMAT_END
 95
        2
302
GRIDFORMAT
  1
GRIDFORMAT_BEGIN
 90
        0
 91
        1
 62
     0
 92
       -2
340
0
 93
        0
 40
0.045
309
GRIDFORMAT_END
 95
        4
302
GRIDFORMAT
  1
GRIDFORMAT_BEGIN
 90
        0
 91
        1
 62
     0
 92
       -2
340
0
 93
        0
 40
0.045
309
GRIDFORMAT_END
 95
        8
302
GRIDFORMAT
  1
GRIDFORMAT_BEGIN
 90
        0
 91
        1
 62
     0
 92
       -2
340
0
 93
        0
 40
0.045
309
GRIDFORMAT_END
 95
       16
302
GRIDFORMAT
  1
GRIDFORMAT_BEGIN
 90
        0
 91
        1
 62
     0
 92
       -2
340
0
 93
        0
 40
0.045
309
GRIDFORMAT_END
 95
       32
302
GRIDFORMAT
  1
GRIDFORMAT_BEGIN
 90
        0
 91
        1
 62
     0
 92
       -2
340
0
 93
        0
 40
0.045
309
GRIDFORMAT_END
309
TABLEFORMAT_END
  1
CELLSTYLE_BEGIN
 90
        1
 91
        1
300
_TITLE
309
CELLSTYLE_END
300
CELLSTYLE
  1
TABLEFORMAT_BEGIN
 90
        5
170
     1
 91
        0
 92
        0
 62
   257
 93
        1
300
CONTENTFORMAT
  1
CONTENTFORMAT_BEGIN
 90
        0
 91
        0
 92
        4
 93
        0
300

 40
0.0
140
1.0
 94
        5
 62
     0
340
17
144
4.5
309
CONTENTFORMAT_END
171
     1
301
MARGIN
  1
CELLMARGIN_BEGIN
 40
1.5
 40
1.5
 40
1.5
 40
1.5
 40
0.18
 40
0.18
309
CELLMARGIN_END
 94
        6
 95
        1
302
GRIDFORMAT
  1
GRIDFORMAT_BEGIN
 90
        0
 91
        1
 62
     0
 92
       -2
340
0
 93
        0
 40
0.045
309
GRIDFORMAT_END
 95
        2
302
GRIDFORMAT
  1
GRIDFORMAT_BEGIN
 90
        0
 91
        1
 62
     0
 92
       -2
340
0
 93
        0
 40
0.045
309
GRIDFORMAT_END
 95
        4
302
GRIDFORMAT
  1
GRIDFORMAT_BEGIN
 90
        0
 91
        1
 62
     0
 92
       -2
340
0
 93
        0
 40
0.045
309
GRIDFORMAT_END
 95
        8
302
GRIDFORMAT
  1
GRIDFORMAT_BEGIN
 90
        0
 91
        1
 62
     0
 92
       -2
340
0
 93
        0
 40
0.045
309
GRIDFORMAT_END
 95
       16
302
GRIDFORMAT
  1
GRIDFORMAT_BEGIN
 90
        0
 91
        1
 62
     0
 92
       -2
340
0
 93
        0
 40
0.045
309
GRIDFORMAT_END
 95
       32
302
GRIDFORMAT
  1
GRIDFORMAT_BEGIN
 90
        0
 91
        1
 62
     0
 92
       -2
340
0
 93
        0
 40
0.045
309
GRIDFORMAT_END
309
TABLEFORMAT_END
  1
CELLSTYLE_BEGIN
 90
        2
 91
        1
300
_HEADER
309
CELLSTYLE_END
300
CELLSTYLE
  1
TABLEFORMAT_BEGIN
 90
        5
170
     1
 91
        0
 92
        0
 62
   257
 93
        1
300
CONTENTFORMAT
  1
CONTENTFORMAT_BEGIN
 90
        0
 91
        0
 92
        4
 93
        0
300

 40
0.0
140
1.0
 94
        2
 62
     0
340
17
144
4.5
309
CONTENTFORMAT_END
171
     1
301
MARGIN
  1
CELLMARGIN_BEGIN
 40
1.5
 40
1.5
 40
1.5
 40
1.5
 40
0.18
 40
0.18
309
CELLMARGIN_END
 94
        6
 95
        1
302
GRIDFORMAT
  1
GRIDFORMAT_BEGIN
 90
        0
 91
        1
 62
     0
 92
       -2
340
0
 93
        0
 40
0.045
309
GRIDFORMAT_END
 95
        2
302
GRIDFORMAT
  1
GRIDFORMAT_BEGIN
 90
        0
 91
        1
 62
     0
 92
       -2
340
0
 93
        0
 40
0.045
309
GRIDFORMAT_END
 95
        4
302
GRIDFORMAT
  1
GRIDFORMAT_BEGIN
 90
        0
 91
        1
 62
     0
 92
       -2
340
0
 93
        0
 40
0.045
309
GRIDFORMAT_END
 95
        8
302
GRIDFORMAT
  1
GRIDFORMAT_BEGIN
 90
        0
 91
        1
 62
     0
 92
       -2
340
0
 93
        0
 40
0.045
309
GRIDFORMAT_END
 95
       16
302
GRIDFORMAT
  1
GRIDFORMAT_BEGIN
 90
        0
 91
        1
 62
     0
 92
       -2
340
0
 93
        0
 40
0.045
309
GRIDFORMAT_END
 95
       32
302
GRIDFORMAT
  1
GRIDFORMAT_BEGIN
 90
        0
 91
        1
 62
     0
 92
       -2
340
0
 93
        0
 40
0.045
309
GRIDFORMAT_END
309
TABLEFORMAT_END
  1
CELLSTYLE_BEGIN
 90
        3
 91
        2
300
_DATA
309
CELLSTYLE_END
  0
XRECORD
  5
959
102
{ACAD_REACTORS
330
705
102
}
330
705
100
AcDbXrecord
280
     1
102
ACAD_ROUNDTRIP_PRE2007_TABLESTYLE
 90
        4
 91
        0
  1

 92
        4
 93
        0
  2

 94
        4
 95
        0
  3

  0
XRECORD
  5
967
102
{ACAD_REACTORS
330
966
102
}
330
966
100
AcDbXrecord
280
     1
102
RTVSPropertyOp0
 70
     1
102
RTVSPropertyOp1
 70
     1
102
RTVSPropertyOp2
 70
     1
102
RTVSPropertyOp3
 70
     1
102
RTVSPropertyOp4
 70
     1
102
RTVSPropertyOp5
 70
     1
102
RTVSPropertyOp6
 70
     1
102
RTVSPropertyOp7
 70
     1
102
RTVSPropertyOp8
 70
     1
102
RTVSPropertyOp9
 70
     1
102
RTVSPropertyOp10
 70
     1
102
RTVSPropertyOp11
 70
     1
102
RTVSPropertyOp12
 70
     1
102
RTVSPropertyOp13
 70
     1
102
RTVSPropertyOp14
 70
     1
102
RTVSPropertyOp15
 70
     1
102
RTVSPropertyOp16
 70
     1
102
RTVSPropertyOp17
 70
     1
102
RTVSPropertyOp18
 70
     1
102
RTVSPropertyOp19
 70
     1
102
RTVSPropertyOp20
 70
     1
102
RTVSPropertyOp21
 70
     1
102
RTVSPropertyOp22
 70
     1
102
RTVSPropertyOp23
 70
     1
102
RTVSPropertyOp24
 70
     1
102
RTVSPropertyOp25
 70
     1
102
RTVSPropertyOp26
 70
     1
102
RTVSPropertyOp27
 70
     1
  0
XRECORD
  5
96B
102
{ACAD_REACTORS
330
96A
102
}
330
96A
100
AcDbXrecord
280
     1
102
RTVSPropertyOp0
 70
     1
102
RTVSPropertyOp1
 70
     1
102
RTVSPropertyOp2
 70
     1
102
RTVSPropertyOp3
 70
     1
102
RTVSPropertyOp4
 70
     1
102
RTVSPropertyOp5
 70
     1
102
RTVSPropertyOp6
 70
     1
102
RTVSPropertyOp7
 70
     1
102
RTVSPropertyOp8
 70
     1
102
RTVSPropertyOp9
 70
     1
102
RTVSPropertyOp10
 70
     1
102
RTVSPropertyOp11
 70
     1
102
RTVSPropertyOp12
 70
     1
102
RTVSPropertyOp13
 70
     1
102
RTVSPropertyOp14
 70
     1
102
RTVSPropertyOp15
 70
     1
102
RTVSPropertyOp16
 70
     1
102
RTVSPropertyOp17
 70
     1
102
RTVSPropertyOp18
 70
     1
102
RTVSPropertyOp19
 70
     1
102
RTVSPropertyOp20
 70
     1
102
RTVSPropertyOp21
 70
     1
102
RTVSPropertyOp22
 70
     1
102
RTVSPropertyOp23
 70
     1
102
RTVSPropertyOp24
 70
     1
102
RTVSPropertyOp25
 70
     1
102
RTVSPropertyOp26
 70
     1
102
RTVSPropertyOp27
 70
     1
  0
XRECORD
  5
969
102
{ACAD_REACTORS
330
968
102
}
330
968
100
AcDbXrecord
280
     1
102
RTVSPropertyOp0
 70
     1
102
RTVSPropertyOp1
 70
     1
102
RTVSPropertyOp2
 70
     1
102
RTVSPropertyOp3
 70
     1
102
RTVSPropertyOp4
 70
     1
102
RTVSPropertyOp5
 70
     1
102
RTVSPropertyOp6
 70
     1
102
RTVSPropertyOp7
 70
     1
102
RTVSPropertyOp8
 70
     1
102
RTVSPropertyOp9
 70
     1
102
RTVSPropertyOp10
 70
     1
102
RTVSPropertyOp11
 70
     1
102
RTVSPropertyOp12
 70
     1
102
RTVSPropertyOp13
 70
     1
102
RTVSPropertyOp14
 70
     1
102
RTVSPropertyOp15
 70
     1
102
RTVSPropertyOp16
 70
     1
102
RTVSPropertyOp17
 70
     1
102
RTVSPropertyOp18
 70
     1
102
RTVSPropertyOp19
 70
     1
102
RTVSPropertyOp20
 70
     1
102
RTVSPropertyOp21
 70
     1
102
RTVSPropertyOp22
 70
     1
102
RTVSPropertyOp23
 70
     1
102
RTVSPropertyOp24
 70
     1
102
RTVSPropertyOp25
 70
     1
102
RTVSPropertyOp26
 70
     1
102
RTVSPropertyOp27
 70
     1
  0
XRECORD
  5
965
102
{ACAD_REACTORS
330
964
102
}
330
964
100
AcDbXrecord
280
     1
102
RTVSPropertyOp0
 70
     1
102
RTVSPropertyOp1
 70
     1
102
RTVSPropertyOp2
 70
     1
102
RTVSPropertyOp3
 70
     1
102
RTVSPropertyOp4
 70
     1
102
RTVSPropertyOp5
 70
     1
102
RTVSPropertyOp6
 70
     1
102
RTVSPropertyOp7
 70
     1
102
RTVSPropertyOp8
 70
     1
102
RTVSPropertyOp9
 70
     1
102
RTVSPropertyOp10
 70
     1
102
RTVSPropertyOp11
 70
     1
102
RTVSPropertyOp12
 70
     1
102
RTVSPropertyOp13
 70
     1
102
RTVSPropertyOp14
 70
     1
102
RTVSPropertyOp15
 70
     1
102
RTVSPropertyOp16
 70
     1
102
RTVSPropertyOp17
 70
     1
102
RTVSPropertyOp18
 70
     1
102
RTVSPropertyOp19
 70
     1
102
RTVSPropertyOp20
 70
     1
102
RTVSPropertyOp21
 70
     1
102
RTVSPropertyOp22
 70
     1
102
RTVSPropertyOp23
 70
     1
102
RTVSPropertyOp24
 70
     1
102
RTVSPropertyOp25
 70
     1
102
RTVSPropertyOp26
 70
     1
102
RTVSPropertyOp27
 70
     1
  0
XRECORD
  5
973
102
{ACAD_REACTORS
330
972
102
}
330
972
100
AcDbXrecord
280
     1
102
RTVSPropertyOp0
 70
     1
102
RTVSPropertyOp1
 70
     1
102
RTVSPropertyOp2
 70
     1
102
RTVSPropertyOp3
 70
     1
102
RTVSPropertyOp4
 70
     1
102
RTVSPropertyOp5
 70
     1
102
RTVSPropertyOp6
 70
     1
102
RTVSPropertyOp7
 70
     1
102
RTVSPropertyOp8
 70
     1
102
RTVSPropertyOp9
 70
     1
102
RTVSPropertyOp10
 70
     1
102
RTVSPropertyOp11
 70
     1
102
RTVSPropertyOp12
 70
     1
102
RTVSPropertyOp13
 70
     1
102
RTVSPropertyOp14
 70
     1
102
RTVSPropertyOp15
 70
     1
102
RTVSPropertyOp16
 70
     1
102
RTVSPropertyOp17
 70
     1
102
RTVSPropertyOp18
 70
     1
102
RTVSPropertyOp19
 70
     1
102
RTVSPropertyOp20
 70
     1
102
RTVSPropertyOp21
 70
     1
102
RTVSPropertyOp22
 70
     1
102
RTVSPropertyOp23
 70
     1
102
RTVSPropertyOp24
 70
     1
102
RTVSPropertyOp25
 70
     1
102
RTVSPropertyOp26
 70
     1
102
RTVSPropertyOp27
 70
     1
  0
XRECORD
  5
97B
102
{ACAD_REACTORS
330
97A
102
}
330
97A
100
AcDbXrecord
280
     1
102
RTVSPropertyOp0
 70
     1
102
RTVSPropertyOp1
 70
     1
102
RTVSPropertyOp2
 70
     1
102
RTVSPropertyOp3
 70
     1
102
RTVSPropertyOp4
 70
     1
102
RTVSPropertyOp5
 70
     1
102
RTVSPropertyOp6
 70
     1
102
RTVSPropertyOp7
 70
     1
102
RTVSPropertyOp8
 70
     1
102
RTVSPropertyOp9
 70
     1
102
RTVSPropertyOp10
 70
     1
102
RTVSPropertyOp11
 70
     1
102
RTVSPropertyOp12
 70
     1
102
RTVSPropertyOp13
 70
     1
102
RTVSPropertyOp14
 70
     1
102
RTVSPropertyOp15
 70
     1
102
RTVSPropertyOp16
 70
     1
102
RTVSPropertyOp17
 70
     1
102
RTVSPropertyOp18
 70
     1
102
RTVSPropertyOp19
 70
     1
102
RTVSPropertyOp20
 70
     1
102
RTVSPropertyOp21
 70
     1
102
RTVSPropertyOp22
 70
     1
102
RTVSPropertyOp23
 70
     1
102
RTVSPropertyOp24
 70
     1
102
RTVSPropertyOp25
 70
     1
102
RTVSPropertyOp26
 70
     1
102
RTVSPropertyOp27
 70
     1
  0
XRECORD
  5
96D
102
{ACAD_REACTORS
330
96C
102
}
330
96C
100
AcDbXrecord
280
     1
102
RTVSPropertyOp0
 70
     1
102
RTVSPropertyOp1
 70
     1
102
RTVSPropertyOp2
 70
     1
102
RTVSPropertyOp3
 70
     1
102
RTVSPropertyOp4
 70
     1
102
RTVSPropertyOp5
 70
     1
102
RTVSPropertyOp6
 70
     1
102
RTVSPropertyOp7
 70
     1
102
RTVSPropertyOp8
 70
     1
102
RTVSPropertyOp9
 70
     1
102
RTVSPropertyOp10
 70
     1
102
RTVSPropertyOp11
 70
     1
102
RTVSPropertyOp12
 70
     1
102
RTVSPropertyOp13
 70
     1
102
RTVSPropertyOp14
 70
     1
102
RTVSPropertyOp15
 70
     1
102
RTVSPropertyOp16
 70
     1
102
RTVSPropertyOp17
 70
     1
102
RTVSPropertyOp18
 70
     1
102
RTVSPropertyOp19
 70
     1
102
RTVSPropertyOp20
 70
     1
102
RTVSPropertyOp21
 70
     1
102
RTVSPropertyOp22
 70
     1
102
RTVSPropertyOp23
 70
     1
102
RTVSPropertyOp24
 70
     1
102
RTVSPropertyOp25
 70
     1
102
RTVSPropertyOp26
 70
     1
102
RTVSPropertyOp27
 70
     1
  0
XRECORD
  5
971
102
{ACAD_REACTORS
330
970
102
}
330
970
100
AcDbXrecord
280
     1
102
RTVSPropertyOp0
 70
     1
102
RTVSPropertyOp1
 70
     1
102
RTVSPropertyOp2
 70
     1
102
RTVSPropertyOp3
 70
     1
102
RTVSPropertyOp4
 70
     1
102
RTVSPropertyOp5
 70
     1
102
RTVSPropertyOp6
 70
     1
102
RTVSPropertyOp7
 70
     1
102
RTVSPropertyOp8
 70
     1
102
RTVSPropertyOp9
 70
     1
102
RTVSPropertyOp10
 70
     1
102
RTVSPropertyOp11
 70
     1
102
RTVSPropertyOp12
 70
     1
102
RTVSPropertyOp13
 70
     1
102
RTVSPropertyOp14
 70
     1
102
RTVSPropertyOp15
 70
     1
102
RTVSPropertyOp16
 70
     1
102
RTVSPropertyOp17
 70
     1
102
RTVSPropertyOp18
 70
     1
102
RTVSPropertyOp19
 70
     1
102
RTVSPropertyOp20
 70
     1
102
RTVSPropertyOp21
 70
     1
102
RTVSPropertyOp22
 70
     1
102
RTVSPropertyOp23
 70
     1
102
RTVSPropertyOp24
 70
     1
102
RTVSPropertyOp25
 70
     1
102
RTVSPropertyOp26
 70
     1
102
RTVSPropertyOp27
 70
     1
  0
XRECORD
  5
981
102
{ACAD_REACTORS
330
980
102
}
330
980
100
AcDbXrecord
280
     1
102
RTVSPropertyOp0
 70
     0
102
RTVSPropertyOp1
 70
     0
102
RTVSPropertyOp2
 70
     0
102
RTVSPropertyOp3
 70
     0
102
RTVSPropertyOp4
 70
     0
102
RTVSPropertyOp5
 70
     0
102
RTVSPropertyOp6
 70
     0
102
RTVSPropertyOp7
 70
     0
102
RTVSPropertyOp8
 70
     0
102
RTVSPropertyOp9
 70
     0
102
RTVSPropertyOp10
 70
     0
102
RTVSPropertyOp11
 70
     0
102
RTVSPropertyOp12
 70
     0
102
RTVSPropertyOp13
 70
     0
102
RTVSPropertyOp14
 70
     2
102
RTVSPropertyOp15
 70
     0
102
RTVSPropertyOp16
 70
     0
102
RTVSPropertyOp17
 70
     0
102
RTVSPropertyOp18
 70
     0
102
RTVSPropertyOp19
 70
     0
102
RTVSPropertyOp20
 70
     0
102
RTVSPropertyOp21
 70
     0
102
RTVSPropertyOp22
 70
     0
102
RTVSPropertyOp23
 70
     0
102
RTVSPropertyOp24
 70
     0
102
RTVSPropertyOp25
 70
     0
102
RTVSPropertyOp26
 70
     0
102
RTVSPropertyOp27
 70
     0
  0
XRECORD
  5
979
102
{ACAD_REACTORS
330
978
102
}
330
978
100
AcDbXrecord
280
     1
102
RTVSPropertyOp0
 70
     1
102
RTVSPropertyOp1
 70
     1
102
RTVSPropertyOp2
 70
     1
102
RTVSPropertyOp3
 70
     1
102
RTVSPropertyOp4
 70
     1
102
RTVSPropertyOp5
 70
     1
102
RTVSPropertyOp6
 70
     1
102
RTVSPropertyOp7
 70
     1
102
RTVSPropertyOp8
 70
     1
102
RTVSPropertyOp9
 70
     1
102
RTVSPropertyOp10
 70
     1
102
RTVSPropertyOp11
 70
     1
102
RTVSPropertyOp12
 70
     1
102
RTVSPropertyOp13
 70
     1
102
RTVSPropertyOp14
 70
     1
102
RTVSPropertyOp15
 70
     1
102
RTVSPropertyOp16
 70
     1
102
RTVSPropertyOp17
 70
     1
102
RTVSPropertyOp18
 70
     1
102
RTVSPropertyOp19
 70
     1
102
RTVSPropertyOp20
 70
     1
102
RTVSPropertyOp21
 70
     1
102
RTVSPropertyOp22
 70
     1
102
RTVSPropertyOp23
 70
     1
102
RTVSPropertyOp24
 70
     1
102
RTVSPropertyOp25
 70
     1
102
RTVSPropertyOp26
 70
     1
102
RTVSPropertyOp27
 70
     1
  0
XRECORD
  5
95D
102
{ACAD_REACTORS
330
95C
102
}
330
95C
100
AcDbXrecord
280
     1
102
RTVSPropertyOp0
 70
     1
102
RTVSPropertyOp1
 70
     1
102
RTVSPropertyOp2
 70
     1
102
RTVSPropertyOp3
 70
     1
102
RTVSPropertyOp4
 70
     1
102
RTVSPropertyOp5
 70
     1
102
RTVSPropertyOp6
 70
     1
102
RTVSPropertyOp7
 70
     1
102
RTVSPropertyOp8
 70
     1
102
RTVSPropertyOp9
 70
     1
102
RTVSPropertyOp10
 70
     1
102
RTVSPropertyOp11
 70
     1
102
RTVSPropertyOp12
 70
     1
102
RTVSPropertyOp13
 70
     1
102
RTVSPropertyOp14
 70
     1
102
RTVSPropertyOp15
 70
     1
102
RTVSPropertyOp16
 70
     1
102
RTVSPropertyOp17
 70
     1
102
RTVSPropertyOp18
 70
     1
102
RTVSPropertyOp19
 70
     1
102
RTVSPropertyOp20
 70
     1
102
RTVSPropertyOp21
 70
     1
102
RTVSPropertyOp22
 70
     1
102
RTVSPropertyOp23
 70
     1
102
RTVSPropertyOp24
 70
     1
102
RTVSPropertyOp25
 70
     1
102
RTVSPropertyOp26
 70
     1
102
RTVSPropertyOp27
 70
     1
  0
XRECORD
  5
95F
102
{ACAD_REACTORS
330
95E
102
}
330
95E
100
AcDbXrecord
280
     1
102
RTVSPropertyOp0
 70
     1
102
RTVSPropertyOp1
 70
     1
102
RTVSPropertyOp2
 70
     1
102
RTVSPropertyOp3
 70
     1
102
RTVSPropertyOp4
 70
     1
102
RTVSPropertyOp5
 70
     1
102
RTVSPropertyOp6
 70
     1
102
RTVSPropertyOp7
 70
     1
102
RTVSPropertyOp8
 70
     1
102
RTVSPropertyOp9
 70
     1
102
RTVSPropertyOp10
 70
     1
102
RTVSPropertyOp11
 70
     1
102
RTVSPropertyOp12
 70
     1
102
RTVSPropertyOp13
 70
     1
102
RTVSPropertyOp14
 70
     1
102
RTVSPropertyOp15
 70
     1
102
RTVSPropertyOp16
 70
     1
102
RTVSPropertyOp17
 70
     1
102
RTVSPropertyOp18
 70
     1
102
RTVSPropertyOp19
 70
     1
102
RTVSPropertyOp20
 70
     1
102
RTVSPropertyOp21
 70
     1
102
RTVSPropertyOp22
 70
     1
102
RTVSPropertyOp23
 70
     1
102
RTVSPropertyOp24
 70
     1
102
RTVSPropertyOp25
 70
     1
102
RTVSPropertyOp26
 70
     1
102
RTVSPropertyOp27
 70
     1
  0
XRECORD
  5
961
102
{ACAD_REACTORS
330
960
102
}
330
960
100
AcDbXrecord
280
     1
102
RTVSPropertyOp0
 70
     1
102
RTVSPropertyOp1
 70
     1
102
RTVSPropertyOp2
 70
     1
102
RTVSPropertyOp3
 70
     1
102
RTVSPropertyOp4
 70
     1
102
RTVSPropertyOp5
 70
     1
102
RTVSPropertyOp6
 70
     1
102
RTVSPropertyOp7
 70
     1
102
RTVSPropertyOp8
 70
     1
102
RTVSPropertyOp9
 70
     1
102
RTVSPropertyOp10
 70
     1
102
RTVSPropertyOp11
 70
     1
102
RTVSPropertyOp12
 70
     1
102
RTVSPropertyOp13
 70
     1
102
RTVSPropertyOp14
 70
     1
102
RTVSPropertyOp15
 70
     1
102
RTVSPropertyOp16
 70
     1
102
RTVSPropertyOp17
 70
     1
102
RTVSPropertyOp18
 70
     1
102
RTVSPropertyOp19
 70
     1
102
RTVSPropertyOp20
 70
     1
102
RTVSPropertyOp21
 70
     1
102
RTVSPropertyOp22
 70
     1
102
RTVSPropertyOp23
 70
     1
102
RTVSPropertyOp24
 70
     1
102
RTVSPropertyOp25
 70
     1
102
RTVSPropertyOp26
 70
     1
102
RTVSPropertyOp27
 70
     1
  0
XRECORD
  5
963
102
{ACAD_REACTORS
330
962
102
}
330
962
100
AcDbXrecord
280
     1
102
RTVSPropertyOp0
 70
     1
102
RTVSPropertyOp1
 70
     1
102
RTVSPropertyOp2
 70
     1
102
RTVSPropertyOp3
 70
     1
102
RTVSPropertyOp4
 70
     1
102
RTVSPropertyOp5
 70
     1
102
RTVSPropertyOp6
 70
     1
102
RTVSPropertyOp7
 70
     1
102
RTVSPropertyOp8
 70
     1
102
RTVSPropertyOp9
 70
     1
102
RTVSPropertyOp10
 70
     1
102
RTVSPropertyOp11
 70
     1
102
RTVSPropertyOp12
 70
     1
102
RTVSPropertyOp13
 70
     1
102
RTVSPropertyOp14
 70
     1
102
RTVSPropertyOp15
 70
     1
102
RTVSPropertyOp16
 70
     1
102
RTVSPropertyOp17
 70
     1
102
RTVSPropertyOp18
 70
     1
102
RTVSPropertyOp19
 70
     1
102
RTVSPropertyOp20
 70
     1
102
RTVSPropertyOp21
 70
     1
102
RTVSPropertyOp22
 70
     1
102
RTVSPropertyOp23
 70
     1
102
RTVSPropertyOp24
 70
     1
102
RTVSPropertyOp25
 70
     1
102
RTVSPropertyOp26
 70
     1
102
RTVSPropertyOp27
 70
     1
  0
XRECORD
  5
97D
102
{ACAD_REACTORS
330
97C
102
}
330
97C
100
AcDbXrecord
280
     1
102
RTVSPropertyOp0
 70
     0
102
RTVSPropertyOp1
 70
     0
102
RTVSPropertyOp2
 70
     0
102
RTVSPropertyOp3
 70
     0
102
RTVSPropertyOp4
 70
     0
102
RTVSPropertyOp5
 70
     0
102
RTVSPropertyOp6
 70
     0
102
RTVSPropertyOp7
 70
     0
102
RTVSPropertyOp8
 70
     0
102
RTVSPropertyOp9
 70
     0
102
RTVSPropertyOp10
 70
     0
102
RTVSPropertyOp11
 70
     0
102
RTVSPropertyOp12
 70
     0
102
RTVSPropertyOp13
 70
     0
102
RTVSPropertyOp14
 70
     2
102
RTVSPropertyOp15
 70
     0
102
RTVSPropertyOp16
 70
     0
102
RTVSPropertyOp17
 70
     0
102
RTVSPropertyOp18
 70
     0
102
RTVSPropertyOp19
 70
     0
102
RTVSPropertyOp20
 70
     0
102
RTVSPropertyOp21
 70
     0
102
RTVSPropertyOp22
 70
     0
102
RTVSPropertyOp23
 70
     0
102
RTVSPropertyOp24
 70
     0
102
RTVSPropertyOp25
 70
     0
102
RTVSPropertyOp26
 70
     0
102
RTVSPropertyOp27
 70
     0
  0
XRECORD
  5
977
102
{ACAD_REACTORS
330
976
102
}
330
976
100
AcDbXrecord
280
     1
102
RTVSPropertyOp0
 70
     1
102
RTVSPropertyOp1
 70
     1
102
RTVSPropertyOp2
 70
     1
102
RTVSPropertyOp3
 70
     1
102
RTVSPropertyOp4
 70
     1
102
RTVSPropertyOp5
 70
     1
102
RTVSPropertyOp6
 70
     1
102
RTVSPropertyOp7
 70
     1
102
RTVSPropertyOp8
 70
     1
102
RTVSPropertyOp9
 70
     1
102
RTVSPropertyOp10
 70
     1
102
RTVSPropertyOp11
 70
     1
102
RTVSPropertyOp12
 70
     1
102
RTVSPropertyOp13
 70
     1
102
RTVSPropertyOp14
 70
     1
102
RTVSPropertyOp15
 70
     1
102
RTVSPropertyOp16
 70
     1
102
RTVSPropertyOp17
 70
     1
102
RTVSPropertyOp18
 70
     1
102
RTVSPropertyOp19
 70
     1
102
RTVSPropertyOp20
 70
     1
102
RTVSPropertyOp21
 70
     1
102
RTVSPropertyOp22
 70
     1
102
RTVSPropertyOp23
 70
     1
102
RTVSPropertyOp24
 70
     1
102
RTVSPropertyOp25
 70
     1
102
RTVSPropertyOp26
 70
     1
102
RTVSPropertyOp27
 70
     1
  0
XRECORD
  5
97F
102
{ACAD_REACTORS
330
97E
102
}
330
97E
100
AcDbXrecord
280
     1
102
RTVSPropertyOp0
 70
     0
102
RTVSPropertyOp1
 70
     0
102
RTVSPropertyOp2
 70
     0
102
RTVSPropertyOp3
 70
     0
102
RTVSPropertyOp4
 70
     0
102
RTVSPropertyOp5
 70
     0
102
RTVSPropertyOp6
 70
     0
102
RTVSPropertyOp7
 70
     0
102
RTVSPropertyOp8
 70
     0
102
RTVSPropertyOp9
 70
     0
102
RTVSPropertyOp10
 70
     0
102
RTVSPropertyOp11
 70
     0
102
RTVSPropertyOp12
 70
     0
102
RTVSPropertyOp13
 70
     0
102
RTVSPropertyOp14
 70
     2
102
RTVSPropertyOp15
 70
     0
102
RTVSPropertyOp16
 70
     0
102
RTVSPropertyOp17
 70
     0
102
RTVSPropertyOp18
 70
     0
102
RTVSPropertyOp19
 70
     0
102
RTVSPropertyOp20
 70
     0
102
RTVSPropertyOp21
 70
     0
102
RTVSPropertyOp22
 70
     0
102
RTVSPropertyOp23
 70
     0
102
RTVSPropertyOp24
 70
     0
102
RTVSPropertyOp25
 70
     0
102
RTVSPropertyOp26
 70
     0
102
RTVSPropertyOp27
 70
     0
  0
XRECORD
  5
96F
102
{ACAD_REACTORS
330
96E
102
}
330
96E
100
AcDbXrecord
280
     1
102
RTVSPropertyOp0
 70
     1
102
RTVSPropertyOp1
 70
     1
102
RTVSPropertyOp2
 70
     1
102
RTVSPropertyOp3
 70
     1
102
RTVSPropertyOp4
 70
     1
102
RTVSPropertyOp5
 70
     1
102
RTVSPropertyOp6
 70
     1
102
RTVSPropertyOp7
 70
     1
102
RTVSPropertyOp8
 70
     1
102
RTVSPropertyOp9
 70
     1
102
RTVSPropertyOp10
 70
     1
102
RTVSPropertyOp11
 70
     1
102
RTVSPropertyOp12
 70
     1
102
RTVSPropertyOp13
 70
     1
102
RTVSPropertyOp14
 70
     1
102
RTVSPropertyOp15
 70
     1
102
RTVSPropertyOp16
 70
     1
102
RTVSPropertyOp17
 70
     1
102
RTVSPropertyOp18
 70
     1
102
RTVSPropertyOp19
 70
     1
102
RTVSPropertyOp20
 70
     1
102
RTVSPropertyOp21
 70
     1
102
RTVSPropertyOp22
 70
     1
102
RTVSPropertyOp23
 70
     1
102
RTVSPropertyOp24
 70
     1
102
RTVSPropertyOp25
 70
     1
102
RTVSPropertyOp26
 70
     1
102
RTVSPropertyOp27
 70
     1
  0
XRECORD
  5
975
102
{ACAD_REACTORS
330
974
102
}
330
974
100
AcDbXrecord
280
     1
102
RTVSPropertyOp0
 70
     1
102
RTVSPropertyOp1
 70
     1
102
RTVSPropertyOp2
 70
     1
102
RTVSPropertyOp3
 70
     1
102
RTVSPropertyOp4
 70
     1
102
RTVSPropertyOp5
 70
     1
102
RTVSPropertyOp6
 70
     1
102
RTVSPropertyOp7
 70
     1
102
RTVSPropertyOp8
 70
     1
102
RTVSPropertyOp9
 70
     1
102
RTVSPropertyOp10
 70
     1
102
RTVSPropertyOp11
 70
     1
102
RTVSPropertyOp12
 70
     1
102
RTVSPropertyOp13
 70
     1
102
RTVSPropertyOp14
 70
     1
102
RTVSPropertyOp15
 70
     1
102
RTVSPropertyOp16
 70
     1
102
RTVSPropertyOp17
 70
     1
102
RTVSPropertyOp18
 70
     1
102
RTVSPropertyOp19
 70
     1
102
RTVSPropertyOp20
 70
     1
102
RTVSPropertyOp21
 70
     1
102
RTVSPropertyOp22
 70
     1
102
RTVSPropertyOp23
 70
     1
102
RTVSPropertyOp24
 70
     1
102
RTVSPropertyOp25
 70
     1
102
RTVSPropertyOp26
 70
     1
102
RTVSPropertyOp27
 70
     1
  0
ENDSEC
  0
EOF
