  0
SECTION
  2
HEADER
  9
$ACADVER
  1
AC1015
  9
$ACADMAINTVER
 70
    10
  9
$DWGCODEPAGE
  3
ANSI_1252
  9
$INSBASE
 10
0.0
 20
0.0
 30
0.0
  9
$EXTMIN
 10
-282.0638367146031
 20
-54.47243841954514
 30
-0.0000000000000032
  9
$EXTMAX
 10
103.3653323117011
 20
49.03114817711787
 30
0.000000000000012
  9
$LIMMIN
 10
0.0
 20
0.0
  9
$LIMMAX
 10
420.0
 20
297.0
  9
$ORTHOMODE
 70
     0
  9
$REGENMODE
 70
     1
  9
$FILLMODE
 70
     1
  9
$QTEXTMODE
 70
     0
  9
$MIRRTEXT
 70
     1
  9
$LTSCALE
 40
1.0
  9
$ATTMODE
 70
     1
  9
$TEXTSIZE
 40
0.0
  9
$TRACEWID
 40
1.0
  9
$TEXTSTYLE
  7
STANDARD
  9
$CLAYER
  8
0
  9
$CELTYPE
  6
ByLayer
  9
$CECOLOR
 62
   256
  9
$CELTSCALE
 40
1.0
  9
$DISPSILH
 70
     0
  9
$DIMSCALE
 40
1.0
  9
$DIMASZ
 40
2.5
  9
$DIMEXO
 40
0.625
  9
$DIMDLI
 40
3.75
  9
$DIMRND
 40
0.0
  9
$DIMDLE
 40
0.0
  9
$DIMEXE
 40
1.25
  9
$DIMTP
 40
0.0
  9
$DIMTM
 40
0.0
  9
$DIMTXT
 40
3.5
  9
$DIMCEN
 40
2.5
  9
$DIMTSZ
 40
0.0
  9
$DIMTOL
 70
     0
  9
$DIMLIM
 70
     0
  9
$DIMTIH
 70
     0
  9
$DIMTOH
 70
     0
  9
$DIMSE1
 70
     0
  9
$DIMSE2
 70
     0
  9
$DIMTAD
 70
     1
  9
$DIMZIN
 70
     8
  9
$DIMBLK
  1

  9
$DIMASO
 70
     1
  9
$DIMSHO
 70
     1
  9
$DIMPOST
  1

  9
$DIMAPOST
  1

  9
$DIMALT
 70
     0
  9
$DIMALTD
 70
     3
  9
$DIMALTF
 40
0.03937
  9
$DIMLFAC
 40
1.0
  9
$DIMTOFL
 70
     0
  9
$DIMTVP
 40
0.0
  9
$DIMTIX
 70
     0
  9
$DIMSOXD
 70
     0
  9
$DIMSAH
 70
     0
  9
$DIMBLK1
  1

  9
$DIMBLK2
  1

  9
$DIMSTYLE
  2
STANDARD
  9
$DIMCLRD
 70
     0
  9
$DIMCLRE
 70
     0
  9
$DIMCLRT
 70
     0
  9
$DIMTFAC
 40
1.0
  9
$DIMGAP
 40
0.625
  9
$DIMJUST
 70
     0
  9
$DIMSD1
 70
     0
  9
$DIMSD2
 70
     0
  9
$DIMTOLJ
 70
     0
  9
$DIMTZIN
 70
     8
  9
$DIMALTZ
 70
     0
  9
$DIMALTTZ
 70
     0
  9
$DIMUPT
 70
     0
  9
$DIMDEC
 70
     1
  9
$DIMTDEC
 70
     1
  9
$DIMALTU
 70
     2
  9
$DIMALTTD
 70
     3
  9
$DIMTXSTY
  7
STANDARD
  9
$DIMAUNIT
 70
     0
  9
$DIMADEC
 70
     0
  9
$DIMALTRND
 40
0.0
  9
$DIMAZIN
 70
     0
  9
$DIMDSEP
 70
    46
  9
$DIMATFIT
 70
     3
  9
$DIMFRAC
 70
     0
  9
$DIMLDRBLK
  1

  9
$DIMLUNIT
 70
     2
  9
$DIMLWD
 70
    -2
  9
$DIMLWE
 70
    -2
  9
$DIMTMOVE
 70
     0
  9
$LUNITS
 70
     2
  9
$LUPREC
 70
     4
  9
$SKETCHINC
 40
1.0
  9
$FILLETRAD
 40
2.5
  9
$AUNITS
 70
     0
  9
$AUPREC
 70
     0
  9
$MENU
  1
.
  9
$ELEVATION
 40
0.0
  9
$PELEVATION
 40
0.0
  9
$THICKNESS
 40
0.0
  9
$LIMCHECK
 70
     0
  9
$CHAMFERA
 40
2.5
  9
$CHAMFERB
 40
2.5
  9
$CHAMFERC
 40
0.0
  9
$CHAMFERD
 40
0.0
  9
$SKPOLY
 70
     0
  9
$TDCREATE
 40
2455379.127695485
  9
$TDUCREATE
 40
2455379.086028819
  9
$TDUPDATE
 40
2455512.534074398
  9
$TDUUPDATE
 40
2455512.492407732
  9
$TDINDWG
 40
0.1148880671
  9
$TDUSRTIMER
 40
0.1148873380
  9
$USRTIMER
 70
     1
  9
$ANGBASE
 50
0.0
  9
$ANGDIR
 70
     0
  9
$PDMODE
 70
     0
  9
$PDSIZE
 40
0.0
  9
$PLINEWID
 40
0.0
  9
$SPLFRAME
 70
     0
  9
$SPLINETYPE
 70
     6
  9
$SPLINESEGS
 70
     8
  9
$HANDSEED
  5
C28
  9
$SURFTAB1
 70
     6
  9
$SURFTAB2
 70
     6
  9
$SURFTYPE
 70
     6
  9
$SURFU
 70
     6
  9
$SURFV
 70
     6
  9
$UCSBASE
  2

  9
$UCSNAME
  2

  9
$UCSORG
 10
0.0
 20
0.0
 30
0.0
  9
$UCSXDIR
 10
1.0
 20
0.0
 30
0.0
  9
$UCSYDIR
 10
0.0
 20
1.0
 30
0.0
  9
$UCSORTHOREF
  2

  9
$UCSORTHOVIEW
 70
     0
  9
$UCSORGTOP
 10
267.5454260755314
 20
109.1017470053105
 30
0.0
  9
$UCSORGBOTTOM
 10
0.0
 20
0.0
 30
0.0
  9
$UCSORGLEFT
 10
0.0
 20
0.0
 30
0.0
  9
$UCSORGRIGHT
 10
0.0
 20
0.0
 30
0.0
  9
$UCSORGFRONT
 10
0.0
 20
0.0
 30
0.0
  9
$UCSORGBACK
 10
0.0
 20
0.0
 30
0.0
  9
$PUCSBASE
  2

  9
$PUCSNAME
  2

  9
$PUCSORG
 10
0.0
 20
0.0
 30
0.0
  9
$PUCSXDIR
 10
1.0
 20
0.0
 30
0.0
  9
$PUCSYDIR
 10
0.0
 20
1.0
 30
0.0
  9
$PUCSORTHOREF
  2

  9
$PUCSORTHOVIEW
 70
     0
  9
$PUCSORGTOP
 10
0.0
 20
0.0
 30
0.0
  9
$PUCSORGBOTTOM
 10
0.0
 20
0.0
 30
0.0
  9
$PUCSORGLEFT
 10
0.0
 20
0.0
 30
0.0
  9
$PUCSORGRIGHT
 10
0.0
 20
0.0
 30
0.0
  9
$PUCSORGFRONT
 10
0.0
 20
0.0
 30
0.0
  9
$PUCSORGBACK
 10
0.0
 20
0.0
 30
0.0
  9
$USERI1
 70
     0
  9
$USERI2
 70
     0
  9
$USERI3
 70
     0
  9
$USERI4
 70
     0
  9
$USERI5
 70
     0
  9
$USERR1
 40
0.0
  9
$USERR2
 40
0.0
  9
$USERR3
 40
0.0
  9
$USERR4
 40
0.0
  9
$USERR5
 40
0.0
  9
$WORLDVIEW
 70
     1
  9
$SHADEDGE
 70
     3
  9
$SHADEDIF
 70
    70
  9
$TILEMODE
 70
     1
  9
$MAXACTVP
 70
    48
  9
$PINSBASE
 10
0.0
 20
0.0
 30
0.0
  9
$PLIMCHECK
 70
     0
  9
$PEXTMIN
 10
0.0
 20
0.0
 30
0.0
  9
$PEXTMAX
 10
331.7937319999999
 20
74.207825
 30
2.0
  9
$PLIMMIN
 10
0.0
 20
0.0
  9
$PLIMMAX
 10
420.0
 20
297.0
  9
$UNITMODE
 70
     0
  9
$VISRETAIN
 70
     0
  9
$PLINEGEN
 70
     0
  9
$PSLTSCALE
 70
     1
  9
$TREEDEPTH
 70
  3020
  9
$CMLSTYLE
  2
Standard
  9
$CMLJUST
 70
     0
  9
$CMLSCALE
 40
20.0
  9
$PROXYGRAPHICS
 70
     1
  9
$MEASUREMENT
 70
     1
  9
$CELWEIGHT
370
    -1
  9
$ENDCAPS
280
     0
  9
$JOINSTYLE
280
     0
  9
$LWDISPLAY
290
     0
  9
$INSUNITS
 70
     0
  9
$HYPERLINKBASE
  1

  9
$STYLESHEET
  1

  9
$XEDIT
290
     1
  9
$CEPSNTYPE
380
     0
  9
$PSTYLEMODE
290
     0
  9
$FINGERPRINTGUID
  2

  9
$VERSIONGUID
  2
{60B31908-853B-49BD-91C5-B09C57331232}
  9
$EXTNAMES
290
     0
  9
$PSVPSCALE
 40
0.0
  9
$OLESTARTUP
290
     0
  0
ENDSEC
  0
SECTION
  2
CLASSES
  0
CLASS
  1
IMAGE
  2
AcDbRasterImage
  3
ISM
 90
    34943
280
     0
281
     1
  0
CLASS
  1
DICTIONARYVAR
  2
AcDbDictionaryVar
  3
AutoCAD 2000
 90
        0
280
     0
281
     0
  0
CLASS
  1
RASTERVARIABLES
  2
AcDbRasterVariables
  3
ISM
 90
    32768
280
     0
281
     0
  0
CLASS
  1
IMAGEDEF
  2
AcDbRasterImageDef
  3
ISM
 90
    32768
280
     0
281
     0
  0
CLASS
  1
IMAGEDEF_REACTOR
  2
AcDbRasterImageDefReactor
  3
ISM
 90
    32769
280
     0
281
     0
  0
CLASS
  1
IDBUFFER
  2
AcDbIdBuffer
  3
AutoCAD 2000
 90
    32768
280
     0
281
     0
  0
CLASS
  1
SPATIAL_FILTER
  2
AcDbSpatialFilter
  3
AutoCAD 2000
 90
    32768
280
     0
281
     0
  0
CLASS
  1
SORTENTSTABLE
  2
AcDbSortentsTable
  3
AutoCAD 2000
 90
        0
280
     0
281
     0
  0
CLASS
  1
LAYER_INDEX
  2
AcDbLayerIndex
  3
AutoCAD 2000
 90
    32768
280
     0
281
     0
  0
CLASS
  1
SPATIAL_INDEX
  2
AcDbSpatialIndex
  3
AutoCAD 2000
 90
    32768
280
     0
281
     0
  0
CLASS
  1
OBJECT_PTR
  2
CAseDLPNTableRecord
  3
"ASE-LPNTableRecord"
 90
    32769
280
     0
281
     0
  0
CLASS
  1
LAYOUT
  2
AcDbLayout
  3
AutoCAD 2000
 90
        0
280
     0
281
     0
  0
CLASS
  1
PLOTSETTINGS
  2
AcDbPlotSettings
  3
AutoCAD 2000
 90
    32768
280
     0
281
     0
  0
CLASS
  1
ACDBDICTIONARYWDFLT
  2
AcDbDictionaryWithDefault
  3
AutoCAD 2000
 90
        0
280
     0
281
     0
  0
CLASS
  1
ACDBPLACEHOLDER
  2
AcDbPlaceHolder
  3
AutoCAD 2000
 90
        0
280
     0
281
     0
  0
CLASS
  1
VBA_PROJECT
  2
AcDbVbaProject
  3
acad
 90
    32768
280
     0
281
     0
  0
CLASS
  1
WIPEOUT
  2
AcDbWipeout
  3
"WipeOut|Product Desc: Object Enabler for WipeOut entity                        |Company: Autodesk, Inc.                        |WEB Address: www.autodesk.com"
 90
    34943
280
     0
281
     1
  0
CLASS
  1
WIPEOUTVARIABLES
  2
AcDbWipeoutVariables
  3
"WipeOut|Product Desc:     WipeOut Dbx Application|Company:          Autodesk, Inc.|WEB Address:      www.autodesk.com"
 90
        0
280
     0
281
     0
  0
CLASS
  1
RTEXT
  2
RText
  3
RText|AutoCAD Express Tool|expresstools@autodesk.com
 90
    32768
280
     0
281
     1
  0
CLASS
  1
ARCALIGNEDTEXT
  2
AcDbArcAlignedText
  3
ATEXT|AutoCAD Express Tool|expresstools@autodesk.com
 90
    32768
280
     0
281
     1
  0
CLASS
  1
TABLESTYLE
  2
AcDbTableStyle
  3
ObjectDBX Classes
 90
     4095
280
     0
281
     0
  0
CLASS
  1
MATERIAL
  2
AcDbMaterial
  3
ObjectDBX Classes
 90
     1153
280
     0
281
     0
  0
CLASS
  1
VISUALSTYLE
  2
AcDbVisualStyle
  3
ObjectDBX Classes
 90
     4095
280
     0
281
     0
  0
CLASS
  1
SCALE
  2
AcDbScale
  3
ObjectDBX Classes
 90
     1153
280
     0
281
     0
  0
CLASS
  1
MLEADERSTYLE
  2
AcDbMLeaderStyle
  3
ACDB_MLEADERSTYLE_CLASS
 90
     4095
280
     0
281
     0
  0
CLASS
  1
CELLSTYLEMAP
  2
AcDbCellStyleMap
  3
ObjectDBX Classes
 90
     1152
280
     0
281
     0
  0
ENDSEC
  0
SECTION
  2
TABLES
  0
TABLE
  2
VPORT
  5
7
330
0
100
AcDbSymbolTable
 70
     2
  0
VPORT
  5
C27
330
7
100
AcDbSymbolTableRecord
100
AcDbViewportTableRecord
  2
*Active
 70
     0
 10
0.0
 20
0.0
 11
1.0
 21
1.0
 12
-89.34925220145101
 22
-2.720645121213635
 13
0.0
 23
0.0
 14
1.0
 24
1.0
 15
0.0
 25
0.0
 16
0.0
 26
0.0
 36
1.0
 17
0.0
 27
0.0
 37
0.0
 40
157.6139419174283
 41
2.460199004975124
 42
50.0
 43
0.0
 44
0.0
 50
0.0
 51
0.0
 71
     0
 72
   100
 73
     1
 74
     3
 75
     0
 76
     0
 77
     0
 78
     0
281
     0
 65
     0
110
0.0
120
0.0
130
0.0
111
1.0
121
0.0
131
0.0
112
0.0
122
1.0
132
0.0
 79
     0
146
0.0
  0
ENDTAB
  0
TABLE
  2
LTYPE
  5
4
330
0
100
AcDbSymbolTable
 70
     2
  0
LTYPE
  5
11
330
4
100
AcDbSymbolTableRecord
100
AcDbLinetypeTableRecord
  2
ByBlock
 70
     0
  3

 72
    65
 73
     0
 40
0.0
  0
LTYPE
  5
12
330
4
100
AcDbSymbolTableRecord
100
AcDbLinetypeTableRecord
  2
ByLayer
 70
     0
  3

 72
    65
 73
     0
 40
0.0
  0
LTYPE
  5
13
330
4
100
AcDbSymbolTableRecord
100
AcDbLinetypeTableRecord
  2
Continuous
 70
     0
  3
Solid line
 72
    65
 73
     0
 40
0.0
  0
LTYPE
  5
456
330
4
100
AcDbSymbolTableRecord
100
AcDbLinetypeTableRecord
  2
CENTER2
 70
     0
  3
Center (.5x) ___ _ ___ _ ___ _ ___ _ ___ _ ___
 72
    65
 73
     4
 40
28.57499999999999
 49
19.05
 74
     0
 49
-3.174999999999998
 74
     0
 49
3.174999999999998
 74
     0
 49
-3.174999999999998
 74
     0
  0
ENDTAB
  0
TABLE
  2
LAYER
  5
2
102
{ACAD_XDICTIONARY
360
497
102
}
330
0
100
AcDbSymbolTable
 70
    12
  0
LAYER
  5
14
102
{ACAD_XDICTIONARY
360
98F
102
}
330
2
100
AcDbSymbolTableRecord
100
AcDbLayerTableRecord
  2
0
 70
     0
 62
     7
  6
Continuous
370
    -3
390
1D
  0
LAYER
  5
458
102
{ACAD_XDICTIONARY
360
459
102
}
330
2
100
AcDbSymbolTableRecord
100
AcDbLayerTableRecord
  2
1
 70
     0
 62
     4
  6
Continuous
370
    50
390
1D
  0
LAYER
  5
45B
102
{ACAD_XDICTIONARY
360
45C
102
}
330
2
100
AcDbSymbolTableRecord
100
AcDbLayerTableRecord
  2
2
 70
     0
 62
     7
  6
Continuous
370
    25
390
1D
  0
LAYER
  5
45E
102
{ACAD_XDICTIONARY
360
45F
102
}
330
2
100
AcDbSymbolTableRecord
100
AcDbLayerTableRecord
  2
SK2
 70
     0
 62
     7
  6
Continuous
370
    25
390
1D
  0
LAYER
  5
464
102
{ACAD_XDICTIONARY
360
465
102
}
330
2
100
AcDbSymbolTableRecord
100
AcDbLayerTableRecord
  2
4
 70
     0
 62
     2
  6
CENTER2
370
    25
390
1D
  0
LAYER
  5
467
102
{ACAD_XDICTIONARY
360
468
102
}
330
2
100
AcDbSymbolTableRecord
100
AcDbLayerTableRecord
  2
SK4
 70
     0
 62
     2
  6
CENTER2
370
    25
390
1D
  0
LAYER
  5
46A
102
{ACAD_XDICTIONARY
360
46B
102
}
330
2
100
AcDbSymbolTableRecord
100
AcDbLayerTableRecord
  2
SK6
 70
     0
 62
     5
  6
Continuous
370
    -3
390
1D
  0
LAYER
  5
46D
330
2
100
AcDbSymbolTableRecord
100
AcDbLayerTableRecord
  2
DEFPOINTS
 70
     0
 62
     7
  6
Continuous
290
     0
370
    25
390
1D
  0
LAYER
  5
474
102
{ACAD_XDICTIONARY
360
475
102
}
330
2
100
AcDbSymbolTableRecord
100
AcDbLayerTableRecord
  2
INFTOTAL
 70
     0
 62
     9
  6
Continuous
370
    18
390
1D
1001
AcAecLayerStandard
1000

1000

  0
LAYER
  5
478
102
{ACAD_XDICTIONARY
360
991
102
}
330
2
100
AcDbSymbolTableRecord
100
AcDbLayerTableRecord
  2
SK1
 70
     0
 62
     4
  6
Continuous
370
    50
390
1D
1001
AcAecLayerStandard
1000

1000

  0
LAYER
  5
479
102
{ACAD_XDICTIONARY
360
993
102
}
330
2
100
AcDbSymbolTableRecord
100
AcDbLayerTableRecord
  2
INSERT
 70
     0
 62
     4
  6
Continuous
370
    50
390
1D
1001
AcAecLayerStandard
1000

1000

  0
LAYER
  5
A7D
102
{ACAD_XDICTIONARY
360
A7E
102
}
330
2
100
AcDbSymbolTableRecord
100
AcDbLayerTableRecord
  2
7
 70
     0
 62
     5
  6
Continuous
370
    25
390
1D
1001
AcAecLayerStandard
1000

1000

  0
ENDTAB
  0
TABLE
  2
STYLE
  5
3
330
0
100
AcDbSymbolTable
 70
     1
  0
STYLE
  5
17
330
3
100
AcDbSymbolTableRecord
100
AcDbTextStyleTableRecord
  2
STANDARD
 70
     0
 40
0.0
 41
1.0
 50
0.0
 71
     0
 42
0.0
  3
monos.ttf
  4

1001
ACAD
1000
Monospac821 BT
1071
       49
  0
ENDTAB
  0
TABLE
  2
VIEW
  5
5
330
0
100
AcDbSymbolTable
 70
     0
  0
ENDTAB
  0
TABLE
  2
UCS
  5
6
330
0
100
AcDbSymbolTable
 70
     0
  0
ENDTAB
  0
TABLE
  2
APPID
  5
8
330
0
100
AcDbSymbolTable
 70
    20
  0
APPID
  5
16
330
8
100
AcDbSymbolTableRecord
100
AcDbRegAppTableRecord
  2
ACAD
 70
     0
  0
APPID
  5
47B
330
8
100
AcDbSymbolTableRecord
100
AcDbRegAppTableRecord
  2
ACAD_PSEXT
 70
     0
  0
APPID
  5
47C
330
8
100
AcDbSymbolTableRecord
100
AcDbRegAppTableRecord
  2
ACAD_EXEMPT_FROM_CAD_STANDARDS
 70
     0
  0
APPID
  5
47D
330
8
100
AcDbSymbolTableRecord
100
AcDbRegAppTableRecord
  2
ACAD_MLEADERVER
 70
     0
  0
APPID
  5
47E
330
8
100
AcDbSymbolTableRecord
100
AcDbRegAppTableRecord
  2
ACAD_DSTYLE_DIMJAG
 70
     0
  0
APPID
  5
47F
330
8
100
AcDbSymbolTableRecord
100
AcDbRegAppTableRecord
  2
ACAD_DSTYLE_DIMBREAK
 70
     0
  0
APPID
  5
480
330
8
100
AcDbSymbolTableRecord
100
AcDbRegAppTableRecord
  2
ACAD_DSTYLE_DIMTALN
 70
     0
  0
APPID
  5
481
330
8
100
AcDbSymbolTableRecord
100
AcDbRegAppTableRecord
  2
AcAecLayerStandard
 70
     0
  0
APPID
  5
482
330
8
100
AcDbSymbolTableRecord
100
AcDbRegAppTableRecord
  2
DCO15
 70
     0
  0
APPID
  5
483
330
8
100
AcDbSymbolTableRecord
100
AcDbRegAppTableRecord
  2
AcadAnnoPO
 70
     0
  0
APPID
  5
484
330
8
100
AcDbSymbolTableRecord
100
AcDbRegAppTableRecord
  2
ACAD_DSTYLE_DIMRADIAL_EXTENSION
 70
     0
  0
APPID
  5
485
330
8
100
AcDbSymbolTableRecord
100
AcDbRegAppTableRecord
  2
ACAD_DSTYLE_DIMTEXT_FILL
 70
     0
  0
APPID
  5
486
330
8
100
AcDbSymbolTableRecord
100
AcDbRegAppTableRecord
  2
ACAD_DSTYLE_DIMEXT_LENGTH
 70
     0
  0
APPID
  5
487
330
8
100
AcDbSymbolTableRecord
100
AcDbRegAppTableRecord
  2
ACAD_DSTYLE_DIMEXT_ENABLED
 70
     0
  0
APPID
  5
488
330
8
100
AcDbSymbolTableRecord
100
AcDbRegAppTableRecord
  2
ACAD_DSTYLE_DIM_LINETYPE
 70
     0
  0
APPID
  5
489
330
8
100
AcDbSymbolTableRecord
100
AcDbRegAppTableRecord
  2
ACAD_DSTYLE_DIM_EXT1_LINETYPE
 70
     0
  0
APPID
  5
48A
330
8
100
AcDbSymbolTableRecord
100
AcDbRegAppTableRecord
  2
ACAD_DSTYLE_DIM_EXT2_LINETYPE
 70
     0
  0
APPID
  5
48B
330
8
100
AcDbSymbolTableRecord
100
AcDbRegAppTableRecord
  2
ACAD_DSTYLE_DIMJOGGED_JOGANGLE_SYMBOL
 70
     0
  0
APPID
  5
48C
330
8
100
AcDbSymbolTableRecord
100
AcDbRegAppTableRecord
  2
ACAD_DSTYLE_DIMARC_LENGTH_SYMBOL
 70
     0
  0
APPID
  5
BE7
330
8
100
AcDbSymbolTableRecord
100
AcDbRegAppTableRecord
  2
AcLayerTools
 70
     0
  0
ENDTAB
  0
TABLE
  2
DIMSTYLE
  5
9
330
0
100
AcDbSymbolTable
 70
     2
100
AcDbDimStyleTable
 71
     2
340
18
340
47A
  0
DIMSTYLE
105
18
102
{ACAD_REACTORS
330
7B8
330
7F3
330
800
330
80D
102
}
330
9
100
AcDbSymbolTableRecord
100
AcDbDimStyleTableRecord
  2
STANDARD
 70
     0
 41
2.5
 42
0.625
 43
3.75
 44
1.25
 73
     0
 74
     0
 77
     1
 78
     8
140
3.5
141
2.5
143
0.03937
147
0.625
171
     3
271
     1
272
     1
274
     3
283
     0
284
     8
340
17
1001
ACAD_DSTYLE_DIMJAG
1070
   388
1040
1.5
1001
ACAD_DSTYLE_DIMTALN
1070
   392
1070
     0
1001
ACAD_DSTYLE_DIMEXT_LENGTH
1070
   378
1040
1.25
1001
ACAD_DSTYLE_DIMJOGGED_JOGANGLE_SYMBOL
1070
   384
1040
1.570796326794896
  0
DIMSTYLE
105
47A
102
{ACAD_REACTORS
330
7C6
102
}
330
9
100
AcDbSymbolTableRecord
100
AcDbDimStyleTableRecord
  2
DIAMETER
 70
     0
 41
2.5
 42
0.0
 43
3.75
 44
1.25
 73
     0
 74
     0
 76
     1
 77
     1
 78
     8
 79
     2
140
3.5
141
0.0
143
0.039370078
147
0.625
171
     3
173
     1
179
     2
271
     1
272
     1
274
     3
283
     0
284
     8
340
17
344
120
1001
ACAD_DSTYLE_DIMBREAK
1070
   391
1040
3.75
1001
ACAD_DSTYLE_DIMJAG
1070
   388
1040
1.5
1001
ACAD_DSTYLE_DIMTALN
1070
   392
1070
     0
1001
ACAD_DSTYLE_DIMEXT_LENGTH
1070
   378
1040
1.25
1001
ACAD_DSTYLE_DIMJOGGED_JOGANGLE_SYMBOL
1070
   384
1040
1.570796326794896
  0
ENDTAB
  0
TABLE
  2
BLOCK_RECORD
  5
1
330
0
100
AcDbSymbolTable
 70
     7
  0
BLOCK_RECORD
  5
A
102
{ACAD_XDICTIONARY
360
4B0
102
}
330
1
100
AcDbSymbolTableRecord
100
AcDbBlockTableRecord
  2
*MODEL_SPACE
340
20
  0
BLOCK_RECORD
  5
B
330
1
100
AcDbSymbolTableRecord
100
AcDbBlockTableRecord
  2
*PAPER_SPACE
340
21
  0
BLOCK_RECORD
  5
120
330
1
100
AcDbSymbolTableRecord
100
AcDbBlockTableRecord
  2
_None
340
0
  0
BLOCK_RECORD
  5
123
330
1
100
AcDbSymbolTableRecord
100
AcDbBlockTableRecord
  2
CERO_POINT
340
0
310
2800000020000000200000000100080000000000000400000000000000000000000000000000000000000000000080000080000000808000800000008000800080800000C0C0C000C0DCC000F0CAA6000020400000206000002080000020A0000020C0000020E00000400000004020000040400000406000004080000040A0
310
000040C0000040E00000600000006020000060400000606000006080000060A0000060C0000060E00000800000008020000080400000806000008080000080A0000080C0000080E00000A0000000A0200000A0400000A0600000A0800000A0A00000A0C00000A0E00000C0000000C0200000C0400000C0600000C0800000C0
310
A00000C0C00000C0E00000E0000000E0200000E0400000E0600000E0800000E0A00000E0C00000E0E00040000000400020004000400040006000400080004000A0004000C0004000E00040200000402020004020400040206000402080004020A0004020C0004020E000404000004040200040404000404060004040800040
310
40A0004040C0004040E00040600000406020004060400040606000406080004060A0004060C0004060E00040800000408020004080400040806000408080004080A0004080C0004080E00040A0000040A0200040A0400040A0600040A0800040A0A00040A0C00040A0E00040C0000040C0200040C0400040C0600040C08000
310
40C0A00040C0C00040C0E00040E0000040E0200040E0400040E0600040E0800040E0A00040E0C00040E0E00080000000800020008000400080006000800080008000A0008000C0008000E00080200000802020008020400080206000802080008020A0008020C0008020E00080400000804020008040400080406000804080
310
008040A0008040C0008040E00080600000806020008060400080606000806080008060A0008060C0008060E00080800000808020008080400080806000808080008080A0008080C0008080E00080A0000080A0200080A0400080A0600080A0800080A0A00080A0C00080A0E00080C0000080C0200080C0400080C0600080C0
310
800080C0A00080C0C00080C0E00080E0000080E0200080E0400080E0600080E0800080E0A00080E0C00080E0E000C0000000C0002000C0004000C0006000C0008000C000A000C000C000C000E000C0200000C0202000C0204000C0206000C0208000C020A000C020C000C020E000C0400000C0402000C0404000C0406000C0
310
408000C040A000C040C000C040E000C0600000C0602000C0604000C0606000C0608000C060A000C060C000C060E000C0800000C0802000C0804000C0806000C0808000C080A000C080C000C080E000C0A00000C0A02000C0A04000C0A06000C0A08000C0A0A000C0A0C000C0A0E000C0C00000C0C02000C0C04000C0C06000
310
C0C08000C0C0A000F0FBFF00A4A0A000808080000000FF0000FF000000FFFF00FF000000FF00FF00FFFF0000FFFFFF00000000000000000000000000000000000000000000000000000000000000000000000000000000000000000000000000FF0000000000000000000000000000000000000000000000000000000000FF
310
FFFFFFFF000000000000000000000000000000000000000000FFFFFFFFFFFF0000FF0000FFFF00FF00000000000000000000000000000000FF00000000000000FFFFFF0000FFFFFFFF000000000000000000000000000000FF0000000000000000FF00FF0000FF00FFFF00000000000000000000000000FF00000000000000
310
0000FFFF00FF0000FF0000FFFF00000000000000000000FF000000000000000000FFFF00FF00FF0000FF0000FF000000000000000000FF0000000000000000000000FF0000FF00FF0000FF0000FF0000000000000000FF00000000000000000000FFFFFF0000FFFFFF0000FF00FFFF000000000000FF000000000000000000
310
000000FF00FF000000FFFF0000FF00FF0000000000FF00000000000000000000000000FFFF00FFFF0000FFFF0000FFFF0000000000FF000000000000000000000000FFFF00FF0000FF0000FFFF0000FF0000000000FF00000000000000000000000000FF0000FF0000FF0000FFFF0000FF00000000FF000000000000000000
310
000000FFFFFF0000FF0000FF0000FFFF00FF00000000FF00FF00000000FF0000FF00FF00FFFFFF0000FF0000FF0000FFFF00FF0000FFFFFFFFFFFFFFFFFFFFFFFFFFFFFFFFFFFFFFFFFFFFFFFFFFFFFFFFFFFF000000FF00FF00FF00FF0000FF0000FFFFFF00000000000000000000000000FF000000FF0000FF00FF00FF00
310
00FF0000FFFF000000000000000000000000FF00000000FFFF0000FF00FF00FF00FF000000FF000000000000000000000000FF00000000FF00FF0000FF00FF00FF00FF0000FF0000000000000000000000FF000000000000FF00FF0000FFFF0000FF00FF00FF0000000000000000000000FF000000000000FFFF00FF00FF00
310
FF0000FF00FFFF00000000000000000000FF0000000000000000FF0000FF00FF00FF0000FF00FF00000000000000000000FF000000000000000000FF0000FF00FF00FF0000FFFF000000000000000000FF0000000000000000000000FF0000FF00FF00FF0000FF000000000000000000FF000000000000000000000000FF00
310
00FF00FF00FF00FF00000000000000FFFF00000000000000000000000000FFFF0000FF00FF00FFFF0000000000FFFF00000000000000000000000000000000FFFFFFFFFF00FF00FF000000FFFF0000000000000000000000000000000000000000000000FFFFFFFFFFFFFF0000000000000000000000000000000000000000
310
0000000000000000FF0000000000000000000000000000000000000000000000000000000000000000000000000000000000000000000000
102
{BLKREFS
331
4A6
102
}
1001
ACAD
1000
DesignCenter Data
1002
{
1070
     1
1070
     4
1002
}
  0
BLOCK_RECORD
  5
7B9
330
1
100
AcDbSymbolTableRecord
100
AcDbBlockTableRecord
  2
*D2
340
0
  0
BLOCK_RECORD
  5
7C7
330
1
100
AcDbSymbolTableRecord
100
AcDbBlockTableRecord
  2
*D3
340
0
  0
BLOCK_RECORD
  5
7F4
330
1
100
AcDbSymbolTableRecord
100
AcDbBlockTableRecord
  2
*D4
340
0
  0
BLOCK_RECORD
  5
801
330
1
100
AcDbSymbolTableRecord
100
AcDbBlockTableRecord
  2
*D5
340
0
  0
BLOCK_RECORD
  5
80E
330
1
100
AcDbSymbolTableRecord
100
AcDbBlockTableRecord
  2
*D6
340
0
  0
ENDTAB
  0
ENDSEC
  0
SECTION
  2
BLOCKS
  0
BLOCK
  5
D
330
A
100
AcDbEntity
  8
0
100
AcDbBlockBegin
  2
*MODEL_SPACE
 70
     0
 10
0.0
 20
0.0
 30
0.0
  3
*MODEL_SPACE
  1

  0
ENDBLK
  5
E
330
A
100
AcDbEntity
  8
0
100
AcDbBlockEnd
  0
BLOCK
  5
F
330
B
100
AcDbEntity
 67
     1
  8
0
100
AcDbBlockBegin
  2
*PAPER_SPACE
 70
     0
 10
0.0
 20
0.0
 30
0.0
  3
*PAPER_SPACE
  1

  0
ENDBLK
  5
10
330
B
100
AcDbEntity
 67
     1
  8
0
100
AcDbBlockEnd
  0
BLOCK
  5
121
330
120
100
AcDbEntity
  8
0
100
AcDbBlockBegin
  2
_None
 70
     0
 10
0.0
 20
0.0
 30
0.0
  3
_None
  1

  0
ENDBLK
  5
122
330
120
100
AcDbEntity
  8
0
100
AcDbBlockEnd
  0
BLOCK
  5
124
330
123
100
AcDbEntity
  8
0
100
AcDbBlockBegin
  2
CERO_POINT
 70
     0
 10
0.0
 20
0.0
 30
0.0
  3
CERO_POINT
  1

  0
CIRCLE
  5
125
102
{ACAD_REACTORS
330
12A
102
}
330
123
100
AcDbEntity
  8
SK2
100
AcDbCircle
 10
0.0
 20
0.0
 30
0.0
 40
2.5
  0
LINE
  5
126
330
123
100
AcDbEntity
  8
SK2
100
AcDbLine
 10
0.0900000000037835
 20
0.0
 30
0.0
 11
-0.0899999999965076
 21
0.0
 31
0.0
  0
LINE
  5
127
330
123
100
AcDbEntity
  8
SK2
100
AcDbLine
 10
0.0
 20
0.0899999999999182
 30
0.0
 11
0.0
 21
-0.0899999999999182
 31
0.0
  0
LINE
  5
128
102
{ACAD_REACTORS
330
12A
102
}
330
123
100
AcDbEntity
  8
SK2
100
AcDbLine
 10
0.0
 20
-2.5
 30
0.0
 11
0.0
 21
2.5
 31
0.0
  0
LINE
  5
129
102
{ACAD_REACTORS
330
12A
102
}
330
123
100
AcDbEntity
  8
SK2
100
AcDbLine
 10
2.5
 20
0.0
 30
0.0
 11
-2.5
 21
0.0
 31
0.0
  0
HATCH
  5
12A
330
123
100
AcDbEntity
  8
SK2
100
AcDbHatch
 10
0.0
 20
0.0
 30
0.0
210
0.0
220
0.0
230
1.0
  2
ANSI31
 70
     0
 71
     1
 91
        2
 92
        7
 72
     1
 73
     1
 93
        3
 10
0.0
 20
-2.5
 42
0.4142135623730951
 10
2.5
 20
0.0
 42
0.0
 10
0.0
 20
0.0
 42
0.0
 97
        3
330
125
330
129
330
128
 92
        7
 72
     1
 73
     1
 93
        3
 10
0.0
 20
0.0
 42
0.0
 10
0.0
 20
2.5
 42
0.4142135623730951
 10
-2.5
 20
0.0
 42
0.0
 97
        3
330
129
330
128
330
125
 75
     0
 76
     1
 52
180.0
 41
0.1
 77
     0
 78
     1
 53
225.0
 43
5.170976743218488
 44
0.0
 45
0.2245064030267288
 46
-0.2245064030267289
 79
     0
 47
0.0243816376539857
 98
        2
 10
0.8789156907296272
 20
-1.044463114528752
 10
-0.8545028512526187
 20
0.7841600866017872
  0
ENDBLK
  5
12B
330
123
100
AcDbEntity
  8
0
100
AcDbBlockEnd
  0
BLOCK
  5
7C3
330
7B9
100
AcDbEntity
  8
0
100
AcDbBlockBegin
  2
*D2
 70
     1
 10
0.0
 20
0.0
 30
0.0
  3
*D2
  1

  0
LINE
  5
BB6
330
7B9
100
AcDbEntity
  8
SK2
 62
     0
370
    -2
100
AcDbLine
 10
45.4999999999964
 20
29.62499999999998
 30
0.0
 11
45.4999999999964
 21
39.45792987494314
 31
0.0
  0
LINE
  5
BB7
330
7B9
100
AcDbEntity
  8
SK2
 62
     0
370
    -2
100
AcDbLine
 10
-254.5000000000035
 20
19.12500000000003
 30
0.0
 11
-254.5000000000035
 21
39.45792987494314
 31
0.0
  0
LINE
  5
BB8
330
7B9
100
AcDbEntity
  8
SK2
 62
     0
370
    -2
100
AcDbLine
 10
42.9999999999964
 20
38.20792987494314
 30
0.0
 11
-252.0000000000035
 21
38.20792987494314
 31
0.0
  0
SOLID
  5
BB9
330
7B9
100
AcDbEntity
  8
SK2
 62
     0
100
AcDbTrace
 10
42.9999999999964
 20
38.62459654160981
 30
0.0
 11
42.9999999999964
 21
37.79126320827649
 31
0.0
 12
45.4999999999964
 22
38.20792987494314
 32
0.0
 13
45.4999999999964
 23
38.20792987494314
 33
0.0
  0
SOLID
  5
BBA
330
7B9
100
AcDbEntity
  8
SK2
 62
     0
100
AcDbTrace
 10
-252.0000000000035
 20
38.62459654160981
 30
0.0
 11
-252.0000000000035
 21
37.79126320827649
 31
0.0
 12
-254.5000000000035
 22
38.20792987494314
 32
0.0
 13
-254.5000000000035
 23
38.20792987494314
 33
0.0
  0
MTEXT
  5
BBB
330
7B9
100
AcDbEntity
  8
SK2
 62
     0
100
AcDbMText
 10
-104.5000000000035
 20
40.64441968520315
 30
0.0
 40
3.5
 41
0.0
 71
     5
 72
     1
  1
300
 73
     1
 44
1.0
1001
ACAD
1000
MTEXTBEGIN
1070
    73
1070
     1
1070
    44
1040
1.0
1070
    74
1070
     0
1000
MTEXTEND
  0
POINT
  5
BBC
330
7B9
100
AcDbEntity
  8
DEFPOINTS
 62
     0
100
AcDbPoint
 10
45.4999999999964
 20
28.99999999999998
 30
0.0
  0
POINT
  5
BBD
330
7B9
100
AcDbEntity
  8
DEFPOINTS
 62
     0
100
AcDbPoint
 10
-254.5000000000035
 20
18.50000000000003
 30
0.0
  0
POINT
  5
BBE
330
7B9
100
AcDbEntity
  8
DEFPOINTS
 62
     0
100
AcDbPoint
 10
-254.5000000000035
 20
38.20792987494314
 30
0.0
  0
ENDBLK
  5
7C4
330
7B9
100
AcDbEntity
  8
0
100
AcDbBlockEnd
  0
BLOCK
  5
7D1
330
7C7
100
AcDbEntity
  8
0
100
AcDbBlockBegin
  2
*D3
 70
     1
 10
0.0
 20
0.0
 30
0.0
  3
*D3
  1

  0
LINE
  5
BBF
330
7C7
100
AcDbEntity
  8
SK2
 62
     0
370
    -2
100
AcDbLine
 10
-253.5000000000035
 20
-19.99999999999996
 30
0.0
 11
-272.0664663147339
 21
-19.99999999999996
 31
0.0
  0
LINE
  5
BC0
330
7C7
100
AcDbEntity
  8
SK2
 62
     0
370
    -2
100
AcDbLine
 10
-270.8164663147339
 20
-17.49999999999996
 30
0.0
 11
-270.8164663147339
 21
20.00000000000006
 31
0.0
  0
SOLID
  5
BC1
330
7C7
100
AcDbEntity
  8
SK2
 62
     0
100
AcDbTrace
 10
-271.2331329814006
 20
-17.49999999999996
 30
0.0
 11
-270.3997996480672
 21
-17.49999999999996
 31
0.0
 12
-270.8164663147339
 22
-19.99999999999996
 32
0.0
 13
-270.8164663147339
 23
-19.99999999999996
 33
0.0
  0
MTEXT
  5
BC2
330
7C7
100
AcDbEntity
  8
SK2
 62
     0
100
AcDbMText
 10
-273.2529561249939
 20
-0.000000000000066
 30
0.0
 40
3.5
 41
0.0
 71
     5
 72
     1
  1
D40
 11
0.0000000000000001
 21
1.0
 31
0.0
 73
     1
 44
1.0
1001
ACAD
1000
MTEXTBEGIN
1070
    73
1070
     1
1070
    44
1040
1.0
1070
    74
1070
     0
1000
MTEXTEND
  0
POINT
  5
BC3
330
7C7
100
AcDbEntity
  8
DEFPOINTS
 62
     0
100
AcDbPoint
 10
-253.5000000000035
 20
-19.99999999999996
 30
0.0
  0
POINT
  5
BC4
330
7C7
100
AcDbEntity
  8
DEFPOINTS
 62
     0
100
AcDbPoint
 10
-253.5000000000035
 20
20.00000000000006
 30
0.0
  0
POINT
  5
BC5
330
7C7
100
AcDbEntity
  8
DEFPOINTS
 62
     0
100
AcDbPoint
 10
-270.8164663147339
 20
20.00000000000006
 30
0.0
  0
ENDBLK
  5
7D2
330
7C7
100
AcDbEntity
  8
0
100
AcDbBlockEnd
  0
BLOCK
  5
7FE
330
7F4
100
AcDbEntity
  8
0
100
AcDbBlockBegin
  2
*D4
 70
     1
 10
0.0
 20
0.0
 30
0.0
  3
*D4
  1

  0
LINE
  5
BC6
330
7F4
100
AcDbEntity
  8
2
 62
     0
370
    -2
100
AcDbLine
 10
45.4999999999964
 20
28.37499999999998
 30
0.0
 11
45.4999999999964
 21
-32.0841859444543
 31
0.0
  0
LINE
  5
BC7
330
7F4
100
AcDbEntity
  8
2
 62
     0
370
    -2
100
AcDbLine
 10
10.49999999999635
 20
-20.125
 30
0.0
 11
10.49999999999635
 21
-32.0841859444543
 31
0.0
  0
LINE
  5
BC8
330
7F4
100
AcDbEntity
  8
2
 62
     0
370
    -2
100
AcDbLine
 10
42.9999999999964
 20
-30.83418594445431
 30
0.0
 11
12.99999999999634
 21
-30.83418594445431
 31
0.0
  0
SOLID
  5
BC9
330
7F4
100
AcDbEntity
  8
2
 62
     0
100
AcDbTrace
 10
42.9999999999964
 20
-30.41751927778764
 30
0.0
 11
42.9999999999964
 21
-31.25085261112098
 31
0.0
 12
45.4999999999964
 22
-30.83418594445431
 32
0.0
 13
45.4999999999964
 23
-30.83418594445431
 33
0.0
  0
SOLID
  5
BCA
330
7F4
100
AcDbEntity
  8
2
 62
     0
100
AcDbTrace
 10
12.99999999999634
 20
-30.41751927778764
 30
0.0
 11
12.99999999999634
 21
-31.25085261112098
 31
0.0
 12
10.49999999999635
 22
-30.83418594445431
 32
0.0
 13
10.49999999999635
 23
-30.83418594445431
 33
0.0
  0
MTEXT
  5
BCB
330
7F4
100
AcDbEntity
  8
2
 62
     0
100
AcDbMText
 10
27.99999999999637
 20
-28.39769613419429
 30
0.0
 40
3.5
 41
0.0
 71
     5
 72
     1
  1
35
 73
     1
 44
1.0
1001
ACAD
1000
MTEXTBEGIN
1070
    73
1070
     1
1070
    44
1040
1.0
1070
    74
1070
     0
1000
MTEXTEND
  0
POINT
  5
BCC
330
7F4
100
AcDbEntity
  8
DEFPOINTS
 62
     0
100
AcDbPoint
 10
45.4999999999964
 20
28.99999999999998
 30
0.0
  0
POINT
  5
BCD
330
7F4
100
AcDbEntity
  8
DEFPOINTS
 62
     0
100
AcDbPoint
 10
10.49999999999635
 20
-19.5
 30
0.0
  0
POINT
  5
BCE
330
7F4
100
AcDbEntity
  8
DEFPOINTS
 62
     0
100
AcDbPoint
 10
10.49999999999635
 20
-30.83418594445431
 30
0.0
  0
ENDBLK
  5
7FF
330
7F4
100
AcDbEntity
  8
0
100
AcDbBlockEnd
  0
BLOCK
  5
80B
330
801
100
AcDbEntity
  8
0
100
AcDbBlockBegin
  2
*D5
 70
     1
 10
0.0
 20
0.0
 30
0.0
  3
*D5
  1

  0
LINE
  5
BCF
330
801
100
AcDbEntity
  8
2
 62
     0
370
    -2
100
AcDbLine
 10
46.1249999999964
 20
28.99999999999998
 30
0.0
 11
92.84783068018739
 21
28.99999999999996
 31
0.0
  0
LINE
  5
BD0
330
801
100
AcDbEntity
  8
2
 62
     0
370
    -2
100
AcDbLine
 10
77.57153499999652
 20
-0.0000000000000096
 30
0.0
 11
92.84783068018739
 21
-0.0000000000000139
 31
0.0
  0
LINE
  5
BD1
330
801
100
AcDbEntity
  8
2
 62
     0
370
    -2
100
AcDbLine
 10
91.59783068018739
 20
26.49999999999996
 30
0.0
 11
91.59783068018739
 21
2.499999999999985
 31
0.0
  0
SOLID
  5
BD2
330
801
100
AcDbEntity
  8
2
 62
     0
100
AcDbTrace
 10
91.18116401352072
 20
26.49999999999996
 30
0.0
 11
92.01449734685407
 21
26.49999999999996
 31
0.0
 12
91.59783068018739
 22
28.99999999999996
 32
0.0
 13
91.59783068018739
 23
28.99999999999996
 33
0.0
  0
SOLID
  5
BD3
330
801
100
AcDbEntity
  8
2
 62
     0
100
AcDbTrace
 10
91.18116401352072
 20
2.499999999999985
 30
0.0
 11
92.01449734685407
 21
2.499999999999985
 31
0.0
 12
91.59783068018739
 22
-0.0000000000000136
 32
0.0
 13
91.59783068018739
 23
-0.0000000000000136
 33
0.0
  0
MTEXT
  5
BD4
330
801
100
AcDbEntity
  8
2
 62
     0
100
AcDbMText
 10
89.16134086992739
 20
14.49999999999999
 30
0.0
 40
3.5
 41
0.0
 71
     5
 72
     1
  1
29
 11
0.0000000000000001
 21
1.0
 31
0.0
 73
     1
 44
1.0
1001
ACAD
1000
MTEXTBEGIN
1070
    73
1070
     1
1070
    44
1040
1.0
1070
    74
1070
     0
1000
MTEXTEND
  0
POINT
  5
BD5
330
801
100
AcDbEntity
  8
DEFPOINTS
 62
     0
100
AcDbPoint
 10
45.4999999999964
 20
28.99999999999998
 30
0.0
  0
POINT
  5
BD6
330
801
100
AcDbEntity
  8
DEFPOINTS
 62
     0
100
AcDbPoint
 10
76.94653499999652
 20
-0.0000000000000094
 30
0.0
  0
POINT
  5
BD7
330
801
100
AcDbEntity
  8
DEFPOINTS
 62
     0
100
AcDbPoint
 10
91.59783068018739
 20
-0.0000000000000136
 30
0.0
  0
ENDBLK
  5
80C
330
801
100
AcDbEntity
  8
0
100
AcDbBlockEnd
  0
BLOCK
  5
81D
330
80E
100
AcDbEntity
  8
0
100
AcDbBlockBegin
  2
*D6
 70
     1
 10
0.0
 20
0.0
 30
0.0
  3
*D6
  1

  0
LINE
  5
BD8
330
80E
100
AcDbEntity
  8
2
 62
     0
370
    -2
100
AcDbLine
 10
44.84700650632482
 20
28.99999999999998
 30
0.0
 11
34.79081537426969
 21
29.0
 31
0.0
  0
ARC
  5
BD9
330
80E
100
AcDbEntity
  8
2
 62
     0
370
    -2
100
AcDbCircle
 10
45.47200650632482
 20
28.99999999999998
 30
0.0
 40
9.431191132055133
100
AcDbArc
 50
195.232664452954
 51
256.7481675984317
  0
SOLID
  5
BDA
330
80E
100
AcDbEntity
  8
2
 62
     0
100
AcDbTrace
 10
35.95917195417307
 20
26.46683094463357
 30
0.0
 11
36.78515345429714
 21
26.57728005462205
 31
0.0
 12
36.04081537426968
 22
29.0
 32
0.0
 13
36.04081537426968
 23
29.0
 33
0.0
  0
SOLID
  5
BDB
330
80E
100
AcDbEntity
  8
2
 62
     0
100
AcDbTrace
 10
43.35099668563811
 20
20.23459611758787
 30
0.0
 11
43.26916375326287
 21
19.40529049501962
 31
0.0
 12
45.79799708715524
 22
19.57444450917796
 32
0.0
 13
45.79799708715524
 23
19.57444450917796
 33
0.0
  0
MTEXT
  5
BDC
330
80E
100
AcDbEntity
  8
2
 62
     0
100
AcDbMText
 10
39.4551223229995
 20
25.43307537147585
 30
0.0
 40
3.5
 41
0.0
 71
     5
 72
     1
  1
93%%D
 11
0.5099466674023358
 21
-0.860206019744835
 31
0.0
 73
     1
 44
1.0
1001
ACAD
1000
MTEXTBEGIN
1070
    73
1070
     1
1070
    44
1040
1.0
1070
    74
1070
     0
1000
MTEXTEND
  0
POINT
  5
BDD
330
80E
100
AcDbEntity
  8
DEFPOINTS
 62
     0
100
AcDbPoint
 10
40.94589495537489
 20
20.72584261705681
 30
0.0
  0
POINT
  5
BDE
330
80E
100
AcDbEntity
  8
DEFPOINTS
 62
     0
100
AcDbPoint
 10
48.1249999999964
 20
28.99999999999998
 30
0.0
  0
POINT
  5
BDF
330
80E
100
AcDbEntity
  8
DEFPOINTS
 62
     0
100
AcDbPoint
 10
45.96185199999638
 20
14.836812
 30
0.0
  0
POINT
  5
BE0
330
80E
100
AcDbEntity
  8
DEFPOINTS
 62
     0
100
AcDbPoint
 10
45.50086999999638
 20
28.16545300000001
 30
0.0
  0
POINT
  5
BE1
330
80E
100
AcDbEntity
  8
DEFPOINTS
 62
     0
100
AcDbPoint
 10
45.4999999999964
 20
28.99999999999998
 30
0.0
  0
ENDBLK
  5
81E
330
80E
100
AcDbEntity
  8
0
100
AcDbBlockEnd
  0
ENDSEC
  0
SECTION
  2
ENTITIES
  0
LINE
  5
114
330
A
100
AcDbEntity
  8
4
100
AcDbLine
 10
76.94653499999652
 20
-0.0000000000000094
 30
0.0
 11
-0.000000000003638
 21
0.0
 31
0.0
  0
INSERT
  5
4A6
330
A
100
AcDbEntity
  8
SK2
100
AcDbBlockReference
  2
CERO_POINT
 10
0.0
 20
0.0
 30
0.0
 50
180.0
  0
LINE
  5
4A7
330
A
100
AcDbEntity
  8
INFTOTAL
100
AcDbLine
 10
-282.0423293377643
 20
49.01970153309077
 30
0.0
 11
-232.0423293377643
 21
49.01970153309077
 31
0.0
  0
LINE
  5
4A8
330
A
100
AcDbEntity
  8
INFTOTAL
100
AcDbLine
 10
103.3392206474949
 20
-4.453773277720213
 30
0.0
 11
103.3392206474949
 21
-54.45377327772021
 31
0.0
  0
LINE
  5
4A9
330
A
100
AcDbEntity
  8
INFTOTAL
100
AcDbLine
 10
103.3392206474949
 20
-54.45377327772021
 30
0.0
 11
53.33922064749511
 21
-54.45377327772021
 31
0.0
  0
LINE
  5
4AA
330
A
100
AcDbEntity
  8
INFTOTAL
100
AcDbLine
 10
-282.0423293377643
 20
-0.9802984669092056
 30
0.0
 11
-282.0423293377643
 21
49.01970153309077
 31
0.0
  0
SPLINE
  5
4B2
102
{ACAD_REACTORS
330
882
102
}
330
A
100
AcDbEntity
  8
1
100
AcDbSpline
210
0.0
220
0.0
230
1.0
 70
     8
 71
     3
 72
    42
 73
    38
 74
     0
 42
0.0000000001
 43
0.0000000001
 40
0.0
 40
0.0
 40
0.0
 40
0.0
 40
0.6169573157611109
 40
1.229303875939744
 40
1.837044881576753
 40
2.440266454754751
 40
3.039127952829173
 40
3.633853623027103
 40
4.224723755254736
 40
4.81206562895873
 40
5.396250203659405
 40
5.977687797074902
 40
6.556811503305642
 40
7.13406677291119
 40
7.709902745865187
 40
8.284764915810248
 40
8.859089285892341
 40
9.433298121955797
 40
10.00779752209733
 40
10.58297625699775
 40
11.1591918887221
 40
11.7367626755746
 40
12.31596848205819
 40
12.8970527098004
 40
13.48022493141674
 40
14.06566411721206
 40
14.65352234578439
 40
15.24392889426701
 40
15.83699450797407
 40
16.43280795168298
 40
17.03142614025282
 40
17.6328803329466
 40
18.23717985862153
 40
18.84431507547207
 40
19.45426015697755
 40
20.06697569356876
 40
20.68241110398049
 40
20.68241110398049
 40
20.68241110398049
 40
20.68241110398049
 10
15.5023211142732
 20
-6.164414002968995
 30
0.0
 10
15.5874720849693
 20
-6.351630223673097
 30
0.0
 10
15.7631210814305
 20
-6.721907365443398
 30
0.0
 10
16.04372733565671
 20
-7.266311989484406
 30
0.0
 10
16.34026158379763
 20
-7.796964248748794
 30
0.0
 10
16.6524820047546
 20
-8.313301452033101
 30
0.0
 10
16.98011029541859
 20
-8.814830178291089
 30
0.0
 10
17.3228376811619
 20
-9.301138508909415
 30
0.0
 10
17.6803239652018
 20
-9.771891518058296
 30
0.0
 10
18.05220041165162
 20
-10.22683271580671
 30
0.0
 10
18.43807425242248
 20
-10.6657850729923
 30
0.0
 10
18.83753382680891
 20
-11.08864865763678
 30
0.0
 10
19.25015168004619
 20
-11.49539618334221
 30
0.0
 10
19.67548639987771
 20
-11.8860669719909
 30
0.0
 10
20.11308619620979
 20
-12.26076232741808
 30
0.0
 10
20.56249309597041
 20
-12.61964094413949
 30
0.0
 10
21.02324758309382
 20
-12.96291417037308
 30
0.0
 10
21.49489364562028
 20
-13.29084122396291
 30
0.0
 10
21.97698422941602
 20
-13.6037240679874
 30
0.0
 10
22.4690823549964
 20
-13.90190045705689
 30
0.0
 10
22.97075951528548
 20
-14.18573534051892
 30
0.0
 10
23.4815929141929
 20
-14.45561315070119
 30
0.0
 10
24.00116555710722
 20
-14.71193379988131
 30
0.0
 10
24.52906883544101
 20
-14.95510999528091
 30
0.0
 10
25.0649051886593
 20
-15.18556461471201
 30
0.0
 10
25.60829080520662
 20
-15.4037280508749
 30
0.0
 10
26.15885834091569
 20
-15.61003552692169
 30
0.0
 10
26.71625959234171
 20
-15.80492441805759
 30
0.0
 10
27.28016566529652
 20
-15.9888305740685
 30
0.0
 10
27.85026215735612
 20
-16.16218415889959
 30
0.0
 10
28.42624431502421
 20
-16.3254075860298
 30
0.0
 10
29.00781487285872
 20
-16.4789130786413
 30
0.0
 10
29.59468565047189
 20
-16.6231025165559
 30
0.0
 10
30.18657846030138
 20
-16.75836680367321
 30
0.0
 10
30.78322488341601
 20
-16.88508507490377
 30
0.0
 10
31.38436921027528
 20
-17.00362445674841
 30
0.0
 10
31.78708369471491
 20
-17.07727256017721
 30
0.0
 10
31.98912174187336
 20
-17.11285995686229
 30
0.0
  0
LINE
  5
4B3
102
{ACAD_REACTORS
330
882
102
}
330
A
100
AcDbEntity
  8
1
 48
0.273711
100
AcDbLine
 10
10.49999999999635
 20
-6.164413999999991
 30
0.0
 11
10.49999999999635
 21
-17.11286
 31
0.0
  0
LINE
  5
4B4
102
{ACAD_REACTORS
330
882
102
}
330
A
100
AcDbEntity
  8
1
 48
0.125058
100
AcDbLine
 10
15.50232099999638
 20
-6.164413999999991
 30
0.0
 11
10.49999999999635
 21
-6.164413999999991
 31
0.0
  0
LINE
  5
4B5
102
{ACAD_REACTORS
330
53D
102
}
330
A
100
AcDbEntity
  8
SK1
 48
0.025
100
AcDbLine
 10
-254.5000000000035
 20
18.50000000000003
 30
0.0
 11
-253.5000000000035
 21
18.50000000000003
 31
0.0
  0
LINE
  5
4B6
102
{ACAD_REACTORS
330
53D
102
}
330
A
100
AcDbEntity
  8
SK1
 48
0.272516
100
AcDbLine
 10
-253.5000000000035
 20
18.50000000000003
 30
0.0
 11
-253.5000000000035
 21
7.599342000000039
 31
0.0
  0
ARC
  5
4B7
102
{ACAD_REACTORS
330
53D
102
}
330
A
100
AcDbEntity
  8
SK1
100
AcDbCircle
 10
-230.5505260000035
 20
-1.218349999999969
 30
0.0
 40
24.584463
100
AcDbArc
 50
158.9821290000005
 51
166.9561609999994
  0
LINE
  5
4B8
102
{ACAD_REACTORS
330
53D
102
}
330
A
100
AcDbEntity
  8
SK1
 48
0.354247
100
AcDbLine
 10
-254.5000000000035
 20
18.50000000000003
 30
0.0
 11
-254.5000000000035
 21
4.330127000000035
 31
0.0
  0
ARC
  5
4B9
102
{ACAD_REACTORS
330
53D
102
}
330
A
100
AcDbEntity
  8
SK1
100
AcDbCircle
 10
-230.5505260000035
 20
1.218350000000028
 30
0.0
 40
24.584463
100
AcDbArc
 50
193.0438390000006
 51
201.0178709999995
  0
LINE
  5
4BA
102
{ACAD_REACTORS
330
53D
102
}
330
A
100
AcDbEntity
  8
SK1
 48
0.248808
100
AcDbLine
 10
-253.5000000000035
 20
-7.599341999999959
 30
0.0
 11
-253.5000000000035
 21
-17.55165099999994
 31
0.0
  0
LINE
  5
4BB
102
{ACAD_REACTORS
330
53D
102
}
330
A
100
AcDbEntity
  8
SK1
 48
0.308599
100
AcDbLine
 10
-254.5000000000035
 20
-4.330126999999959
 30
0.0
 11
-254.5000000000035
 21
-16.67406899999997
 31
0.0
  0
LINE
  5
4BC
102
{ACAD_REACTORS
330
53D
102
}
330
A
100
AcDbEntity
  8
SK1
 48
0.061209
100
AcDbLine
 10
-253.5000000000035
 20
-17.55165099999994
 30
0.0
 11
-253.5000000000035
 21
-19.99999999999996
 31
0.0
  0
LINE
  5
4BD
102
{ACAD_REACTORS
330
882
102
}
330
A
100
AcDbEntity
  8
1
 48
0.061209
100
AcDbLine
 10
9.999999999996363
 20
-17.55165099999999
 30
0.0
 11
9.999999999996363
 21
-20.0
 31
0.0
  0
LINE
  5
4BE
102
{ACAD_REACTORS
330
53D
102
}
330
A
100
AcDbEntity
  8
SK1
 48
0.058148
100
AcDbLine
 10
-254.5000000000035
 20
-16.67406899999997
 30
0.0
 11
-254.5000000000035
 21
-18.99999999999996
 31
0.0
  0
LINE
  5
4BF
102
{ACAD_REACTORS
330
882
102
}
330
A
100
AcDbEntity
  8
1
100
AcDbLine
 10
9.999999999996363
 20
-7.599341999999992
 30
0.0
 11
-0.0000000000036389
 21
-7.599341999999992
 31
0.0
  0
LINE
  5
4C0
102
{ACAD_REACTORS
330
882
102
}
330
A
100
AcDbEntity
  8
1
 48
0.248808
100
AcDbLine
 10
9.999999999996363
 20
-7.599341999999992
 30
0.0
 11
9.999999999996363
 21
-17.55165099999999
 31
0.0
  0
LINE
  5
4C1
102
{ACAD_REACTORS
330
53D
102
}
330
A
100
AcDbEntity
  8
SK1
 48
0.216506
100
AcDbLine
 10
-254.5000000000035
 20
4.330127000000035
 30
0.0
 11
-254.5000000000035
 21
-4.330126999999959
 31
0.0
  0
LINE
  5
4C2
102
{ACAD_REACTORS
330
882
102
}
330
A
100
AcDbEntity
  8
1
100
AcDbLine
 10
9.999999999996363
 20
18.5
 30
0.0
 11
-0.0000000000036925
 21
18.49999999999998
 31
0.0
  0
LINE
  5
4C3
102
{ACAD_REACTORS
330
882
102
}
330
A
100
AcDbEntity
  8
1
 48
0.272516
100
AcDbLine
 10
9.999999999996363
 20
18.5
 30
0.0
 11
9.999999999996363
 21
7.599342000000008
 31
0.0
  0
LINE
  5
4C4
102
{ACAD_REACTORS
330
882
102
}
330
A
100
AcDbEntity
  8
1
100
AcDbLine
 10
9.999999999996363
 20
7.599342000000008
 30
0.0
 11
-0.0000000000036371
 21
7.599342000000008
 31
0.0
  0
LINE
  5
4C5
102
{ACAD_REACTORS
330
882
102
}
330
A
100
AcDbEntity
  8
1
 48
0.0125
100
AcDbLine
 10
10.49999999999635
 20
18.5
 30
0.0
 11
9.999999999996363
 21
18.5
 31
0.0
  0
LINE
  5
4C6
102
{ACAD_REACTORS
330
882
102
}
330
A
100
AcDbEntity
  8
1
 48
0.30839
100
AcDbLine
 10
10.49999999999635
 20
18.5
 30
0.0
 11
10.49999999999635
 21
6.164414000000008
 31
0.0
  0
ARC
  5
4C7
102
{ACAD_REACTORS
330
882
102
}
330
A
100
AcDbEntity
  8
1
100
AcDbCircle
 10
-14.94424900000359
 20
-1.899269999999996
 30
0.0
 40
26.691496
100
AcDbArc
 50
17.58423099999999
 51
20.84651700000058
  0
ARC
  5
4C8
102
{ACAD_REACTORS
330
882
102
}
330
A
100
AcDbEntity
  8
1
100
AcDbCircle
 10
-14.94424900000359
 20
1.899269999999999
 30
0.0
 40
26.691496
100
AcDbArc
 50
339.1534829999993
 51
342.4157689999999
  0
LINE
  5
4C9
102
{ACAD_REACTORS
330
882
102
}
330
A
100
AcDbEntity
  8
1
 48
0.059679
100
AcDbLine
 10
10.49999999999635
 20
-17.11286
 30
0.0
 11
10.49999999999635
 21
-19.5
 31
0.0
  0
SPLINE
  5
4CA
102
{ACAD_REACTORS
330
882
102
}
330
A
100
AcDbEntity
  8
1
100
AcDbSpline
210
0.0
220
0.0
230
1.0
 70
     8
 71
     3
 72
    42
 73
    38
 74
     0
 42
0.0000000001
 43
0.0000000001
 40
0.0
 40
0.0
 40
0.0
 40
0.0
 40
0.5996269379030155
 40
1.192597336675689
 40
1.778525062762235
 40
2.357096509901543
 40
2.928077645008997
 40
3.491320267923739
 40
4.046767235450396
 40
4.594456364024976
 40
5.134522321255956
 40
5.667193944715242
 40
6.192802164870883
 40
6.711781010644727
 40
7.224658120019473
 40
7.732043147981268
 40
8.234614385954682
 40
8.733103841507697
 40
9.228281152402903
 40
9.72093911779901
 40
10.21188606834471
 40
10.70192759880937
 40
11.19184905103381
 40
11.68240136173166
 40
12.17428955285391
 40
12.66816412171059
 40
13.1646154272688
 40
13.66417102039644
 40
14.1672965044272
 40
14.67439542800173
 40
15.18580199422467
 40
15.70178346125769
 40
16.22254562412966
 40
16.74823914467492
 40
17.27896648843579
 40
17.8147892589498
 40
18.35573575267271
 40
18.35573575267271
 40
18.35573575267271
 40
18.35573575267271
 10
13.69431141173029
 20
6.164414002968992
 30
0.0
 10
13.71841453182088
 20
6.362845080654691
 30
0.0
 10
13.77187252219559
 20
6.756810437634197
 30
0.0
 10
13.8685974393696
 20
7.341799592062697
 30
0.0
 10
13.98145405307561
 20
7.916740637021701
 30
0.0
 10
14.11046340291651
 20
8.480764550113089
 30
0.0
 10
14.25563856605791
 20
9.033036226939511
 30
0.0
 10
14.4169826178441
 20
9.572769120583725
 30
0.0
 10
14.5944845312913
 20
10.09922624908309
 30
0.0
 10
14.78811521309676
 20
10.61172456217569
 30
0.0
 10
14.99782232807518
 20
11.10963758794798
 30
0.0
 10
15.22352770144059
 20
11.5924007286973
 30
0.0
 10
15.4651258923916
 20
12.05951773609228
 30
0.0
 10
15.7224831481542
 20
12.51056694722264
 30
0.0
 10
15.99543656748059
 20
12.94520262292421
 30
0.0
 10
16.28379217472738
 20
13.36315379839277
 30
0.0
 10
16.58732340094531
 20
13.76422315646428
 30
0.0
 10
16.90577000006803
 20
14.14828601125026
 30
0.0
 10
17.2388380654333
 20
14.51528986115248
 30
0.0
 10
17.58620281804089
 20
14.86525616683674
 30
0.0
 10
17.94751410762268
 20
15.19827892244723
 30
0.0
 10
18.3224007809089
 20
15.51452173217335
 30
0.0
 10
18.71047289920928
 20
15.81421210217634
 30
0.0
 10
19.11132455163535
 20
16.09763559802505
 30
0.0
 10
19.5245373351153
 20
16.36513020659984
 30
0.0
 10
19.94968421834551
 20
16.61708063502609
 30
0.0
 10
20.3863337315956
 20
16.85391261915884
 30
0.0
 10
20.83405469567151
 20
17.07608739098866
 30
0.0
 10
21.29242041180042
 20
17.28409587544043
 30
0.0
 10
21.76100927540161
 20
17.4784518594789
 30
0.0
 10
22.239404131469
 20
17.65968476338714
 30
0.0
 10
22.7271912623621
 20
17.82833453275767
 30
0.0
 10
23.22396244740851
 20
17.98494820723372
 30
0.0
 10
23.72931819551161
 20
18.13007697051535
 30
0.0
 10
24.24286941449953
 20
18.26427294093457
 30
0.0
 10
24.76424559605721
 20
18.38808735388291
 30
0.0
 10
25.11513085493026
 20
18.4637117107458
 30
0.0
 10
25.29176358537204
 20
18.50000000000003
 30
0.0
  0
LINE
  5
4CB
102
{ACAD_REACTORS
330
882
102
}
330
A
100
AcDbEntity
  8
1
 48
0.079858
100
AcDbLine
 10
13.69431099999639
 20
6.164414000000006
 30
0.0
 11
10.49999999999635
 21
6.164414000000008
 31
0.0
  0
LINE
  5
4CC
102
{ACAD_REACTORS
330
882
102
}
330
A
100
AcDbEntity
  8
1
 48
0.369794
100
AcDbLine
 10
25.2917639999964
 20
18.49999999999998
 30
0.0
 11
10.49999999999635
 21
18.5
 31
0.0
  0
ARC
  5
4CD
102
{ACAD_REACTORS
330
882
102
}
330
A
100
AcDbEntity
  8
1
100
AcDbCircle
 10
618.6406139999962
 20
88.56251699999992
 30
0.0
 40
610.5319259999999
100
AcDbArc
 50
187.7563719999999
 51
188.9257750000004
  0
LINE
  5
4CE
102
{ACAD_REACTORS
330
882
102
}
330
A
100
AcDbEntity
  8
1
 48
0.018181
100
AcDbLine
 10
46.7999999999964
 20
-18.68320100000001
 30
0.0
 11
47.42982099999639
 21
-18.31957400000001
 31
0.0
  0
LINE
  5
4CF
102
{ACAD_REACTORS
330
882
102
}
330
A
100
AcDbEntity
  8
1
 48
0.008846
100
AcDbLine
 10
46.7999999999964
 20
-18.32937900000001
 30
0.0
 11
46.7999999999964
 21
-18.68320100000001
 31
0.0
  0
LINE
  5
4D0
102
{ACAD_REACTORS
330
882
102
}
330
A
100
AcDbEntity
  8
1
 48
0.015747
100
AcDbLine
 10
47.42982099999639
 20
-18.31957400000001
 30
0.0
 11
46.7999999999964
 21
-18.32937900000001
 31
0.0
  0
LINE
  5
4D1
102
{ACAD_REACTORS
330
882
102
}
330
A
100
AcDbEntity
  8
1
 48
0.430824
100
AcDbLine
 10
70.4999999999965
 20
12.23295899999997
 30
0.0
 11
70.4999999999965
 21
-5.000000000000006
 31
0.0
  0
LINE
  5
4D2
102
{ACAD_REACTORS
330
882
102
}
330
A
100
AcDbEntity
  8
1
 48
0.019176
100
AcDbLine
 10
70.4999999999965
 20
12.99999999999999
 30
0.0
 11
70.4999999999965
 21
12.23295899999997
 31
0.0
  0
LINE
  5
4D3
102
{ACAD_REACTORS
330
882
102
}
330
A
100
AcDbEntity
  8
1
 48
0.04084
100
AcDbLine
 10
45.38526899999638
 20
-19.49999700000002
 30
0.0
 11
46.7999999999964
 21
-18.68320100000001
 31
0.0
  0
SPLINE
  5
4D4
102
{ACAD_REACTORS
330
882
102
}
330
A
100
AcDbEntity
  8
1
100
AcDbSpline
210
0.0
220
0.0
230
1.0
 70
     8
 71
     3
 72
    26
 73
    22
 74
     0
 42
0.0000000001
 43
0.0000000001
 40
0.0
 40
0.0
 40
0.0
 40
0.0
 40
0.7584727088633974
 40
1.520810637556889
 40
2.286853197318098
 40
3.056418939016567
 40
3.829309010243328
 40
4.605310074918461
 40
5.384196739877441
 40
6.165733533449267
 40
6.949676480889857
 40
7.735774320932668
 40
8.523769393916817
 40
9.313397018663208
 40
10.10438606612509
 40
10.89646289389017
 40
11.68935205533268
 40
12.4827765118775
 40
13.27645775082332
 40
14.07011584436131
 40
14.86346948511535
 40
14.86346948511535
 40
14.86346948511535
 40
14.86346948511535
 10
31.98912174187331
 20
-17.11285995686219
 30
0.0
 10
32.23811785862569
 20
-17.15671864439429
 30
0.0
 10
32.73807677846169
 20
-17.24064255143921
 30
0.0
 10
33.49168087432989
 20
-17.35553948116501
 30
0.0
 10
34.25048374072258
 20
-17.4603362415543
 30
0.0
 10
35.0140895952371
 20
-17.55556113602078
 30
0.0
 10
35.78211081801962
 20
-17.64170678212369
 30
0.0
 10
36.55417082233653
 20
-17.719230407987
 30
0.0
 10
37.3299023111691
 20
-17.7885533735168
 30
0.0
 10
38.1089466265473
 20
-17.85006092720809
 30
0.0
 10
38.89095266543449
 20
-17.90410192736542
 30
0.0
 10
39.67557578340199
 20
-17.95098860789908
 30
0.0
 10
40.46247617499772
 20
-17.99099633059428
 30
0.0
 10
41.25131724418949
 20
-18.02436345222658
 30
0.0
 10
42.04176516032478
 20
-18.0512913260423
 30
0.0
 10
42.83348901990561
 20
-18.07194415517069
 30
0.0
 10
43.62616097851701
 20
-18.08644898333708
 30
0.0
 10
44.41945529809371
 20
-18.0948956133817
 30
0.0
 10
45.21304691372387
 20
-18.0973365615271
 30
0.0
 10
46.00661123098202
 20
-18.09378701432261
 30
0.0
 10
46.53558087881452
 20
-18.08741028751507
 30
0.0
 10
46.7999999999965
 20
-18.08320808801951
 30
0.0
  0
LINE
  5
4D5
102
{ACAD_REACTORS
330
882
102
}
330
A
100
AcDbEntity
  8
1
 48
0.006154
100
AcDbLine
 10
46.7999999999964
 20
-18.08320799999999
 30
0.0
 11
46.7999999999964
 21
-18.32937900000001
 31
0.0
  0
LINE
  5
4D6
102
{ACAD_REACTORS
330
882
102
}
330
A
100
AcDbEntity
  8
1
100
AcDbLine
 10
70.4999999999965
 20
-5.000000000000006
 30
0.0
 11
49.32079499999639
 21
-17.22781900000001
 31
0.0
  0
LINE
  5
4D7
102
{ACAD_REACTORS
330
882
102
}
330
A
100
AcDbEntity
  8
1
 48
0.054588
100
AcDbLine
 10
49.32079499999639
 20
-17.22781900000001
 30
0.0
 11
47.42982099999639
 21
-18.31957400000001
 31
0.0
  0
ARC
  5
4D8
102
{ACAD_REACTORS
330
882
102
}
330
A
100
AcDbEntity
  8
1
100
AcDbCircle
 10
332.5907179999966
 20
464.8462990000001
 30
0.0
 40
533.980368
100
AcDbArc
 50
237.5512499999993
 51
237.9615989999992
  0
LINE
  5
4D9
102
{ACAD_REACTORS
330
882
102
}
330
A
100
AcDbEntity
  8
1
 48
0.005467
100
AcDbLine
 10
46.0786069999964
 20
14.453923
 30
0.0
 11
46.08622399999638
 21
14.235367
 31
0.0
  0
LINE
  5
4DA
102
{ACAD_REACTORS
330
882
102
}
330
A
100
AcDbEntity
  8
1
100
AcDbLine
 10
45.83497599999639
 20
18.49999999999998
 30
0.0
 11
25.2917639999964
 21
18.49999999999998
 31
0.0
  0
LINE
  5
4DB
102
{ACAD_REACTORS
330
882
102
}
330
A
100
AcDbEntity
  8
1
 48
0.208238
100
AcDbLine
 10
58.53694499999639
 20
20.40618600000001
 30
0.0
 11
58.8982549999964
 21
12.08452399999999
 31
0.0
  0
LINE
  5
4DC
102
{ACAD_REACTORS
330
882
102
}
330
A
100
AcDbEntity
  8
1
 48
0.096261
100
AcDbLine
 10
58.8982549999964
 20
12.08452399999999
 30
0.0
 11
62.16226699999637
 21
10.04191599999997
 31
0.0
  0
SPLINE
  5
4DD
102
{ACAD_REACTORS
330
882
102
}
330
A
100
AcDbEntity
  8
1
100
AcDbSpline
210
0.0
220
0.0
230
1.0
 70
     8
 71
     3
 72
    35
 73
    31
 74
     0
 42
0.0000000001
 43
0.0000000001
 40
0.0
 40
0.0
 40
0.0
 40
0.0
 40
0.2271068775629832
 40
0.454639039901018
 40
0.6826076031437918
 40
0.9110079419377289
 40
1.139822355967123
 40
1.369022564363032
 40
1.598570652914395
 40
1.828416134748943
 40
2.058494797068334
 40
2.28873201833767
 40
2.519047530613772
 40
2.749360455201752
 40
2.979593599638839
 40
3.209675125140618
 40
3.439536152112628
 40
3.669111283462243
 40
3.89834228198134
 40
4.127182400821528
 40
4.355600323962191
 40
4.583582661909215
 40
4.811132640793042
 40
5.038265373196161
 40
5.265006635511523
 40
5.491393783951563
 40
5.717476942718137
 40
5.943319516088097
 40
6.168996969276562
 40
6.394591503176065
 40
6.394591503176065
 40
6.394591503176065
 40
6.394591503176065
 10
59.6557779037455
 20
5.749914740023887
 30
0.0
 10
59.7235686658211
 20
5.716097710445088
 30
0.0
 10
59.86234231198437
 20
5.654763328876486
 30
0.0
 10
60.07839809322899
 20
5.582322179006786
 30
0.0
 10
60.30061016292427
 20
5.530014934548693
 30
0.0
 10
60.527113286102
 20
5.498272707959777
 30
0.0
 10
60.75597759654539
 20
5.487368585623094
 30
0.0
 10
60.98526375971238
 20
5.497393158479003
 30
0.0
 10
61.21302927786828
 20
5.528258594546578
 30
0.0
 10
61.43734454846409
 20
5.579703736067408
 30
0.0
 10
61.65630767484329
 20
5.651288587326581
 30
0.0
 10
61.86806044948911
 20
5.742403407972195
 30
0.0
 10
62.07080490384988
 20
5.852274796197796
 30
0.0
 10
62.26281969697918
 20
5.979972676263406
 30
0.0
 10
62.44247789620061
 20
6.124414806128191
 30
0.0
 10
62.60825827480463
 20
6.284378370395902
 30
0.0
 10
62.75875507611228
 20
6.458509327620084
 30
0.0
 10
62.89269259480272
 20
6.645329332411892
 30
0.0
 10
63.00893299692688
 20
6.843252221355588
 30
0.0
 10
63.10648663086209
 20
7.050598434071892
 30
0.0
 10
63.18452140629799
 20
7.265610017543996
 30
0.0
 10
63.24237530894859
 20
7.48646432194929
 30
0.0
 10
63.27955516990312
 20
7.711290479948393
 30
0.0
 10
63.29574384814701
 20
7.938181401358297
 30
0.0
 10
63.29080424155171
 20
8.165209538723907
 30
0.0
 10
63.26477725538888
 20
8.390443967280779
 30
0.0
 10
63.21788000919362
 20
8.611970833606081
 30
0.0
 10
63.1505109532271
 20
8.827900933548484
 30
0.0
 10
63.06322910820421
 20
9.036425421498384
 30
0.0
 10
62.9922879768846
 20
9.169275139707924
 30
0.0
 10
62.95375560899302
 20
9.233916372654423
 30
0.0
  0
ARC
  5
4DE
102
{ACAD_REACTORS
330
882
102
}
330
A
100
AcDbEntity
  8
1
100
AcDbCircle
 10
60.88657899999639
 20
8.000452000000001
 30
0.0
 40
2.407237999999999
100
AcDbArc
 50
30.82411899999977
 51
57.99920700000004
  0
ARC
  5
4DF
102
{ACAD_REACTORS
330
882
102
}
330
A
100
AcDbEntity
  8
1
100
AcDbCircle
 10
60.22682599999638
 20
7.104927999999991
 30
0.0
 40
1.470429
100
AcDbArc
 50
237.9701500000003
 51
247.147876
  0
LINE
  5
4E0
102
{ACAD_REACTORS
330
882
102
}
330
A
100
AcDbEntity
  8
1
 48
0.10108
100
AcDbLine
 10
59.44696899999638
 20
5.858340999999986
 30
0.0
 11
56.01953799999652
 21
8.003132
 31
0.0
  0
LINE
  5
4E1
102
{ACAD_REACTORS
330
882
102
}
330
A
100
AcDbEntity
  8
1
 48
0.002245
100
AcDbLine
 10
56.01953799999652
 20
8.003132
 30
0.0
 11
56.0305489999964
 21
7.914018999999987
 31
0.0
  0
LINE
  5
4E2
102
{ACAD_REACTORS
330
882
102
}
330
A
100
AcDbEntity
  8
1
 48
0.160482
100
AcDbLine
 10
56.0305489999964
 20
7.914018999999987
 30
0.0
 11
50.58896799999638
 21
11.31934299999999
 31
0.0
  0
LINE
  5
4E3
102
{ACAD_REACTORS
330
882
102
}
330
A
100
AcDbEntity
  8
1
 48
0.002241
100
AcDbLine
 10
50.58896799999638
 20
11.31934299999999
 30
0.0
 11
50.5779759999964
 21
11.40831199999999
 31
0.0
  0
LINE
  5
4E4
102
{ACAD_REACTORS
330
882
102
}
330
A
100
AcDbEntity
  8
1
 48
0.037076
100
AcDbLine
 10
50.5779759999964
 20
11.40831199999999
 30
0.0
 11
49.32079499999639
 21
12.19501999999997
 31
0.0
  0
SPLINE
  5
4E5
102
{ACAD_REACTORS
330
882
102
}
330
A
100
AcDbEntity
  8
1
100
AcDbSpline
210
0.0
220
0.0
230
1.0
 70
     8
 71
     3
 72
    16
 73
    12
 74
     0
 42
0.0000000001
 43
0.0000000001
 40
0.0
 40
0.0
 40
0.0
 40
0.0
 40
1.193698954444208
 40
2.485350969293314
 40
3.880249285553181
 40
5.382348404723455
 40
6.993813367823539
 40
8.714568632751186
 40
10.54184687256686
 40
12.46996018705812
 40
14.49126112004113
 40
14.49126112004113
 40
14.49126112004113
 40
14.49126112004113
 10
70.4999999999965
 20
12.2329591823799
 30
0.0
 10
70.18167584512713
 20
12.47169980788444
 30
0.0
 10
69.51588497641302
 20
12.964728169456
 30
0.0
 10
68.46820479465377
 20
13.72324913751707
 30
0.0
 10
67.32927280745139
 20
14.53090649894897
 30
0.0
 10
66.0956718199456
 20
15.38924996454644
 30
0.0
 10
64.7655266907812
 20
16.29892172745984
 30
0.0
 10
63.33889973887507
 20
17.25944612409606
 30
0.0
 10
61.81812808550822
 20
18.2690575949015
 30
0.0
 10
60.20776385054071
 20
19.32478608232024
 30
0.0
 10
59.1031109408928
 20
20.04092098402181
 30
0.0
 10
58.53694401059579
 20
20.40618640749192
 30
0.0
  0
ELLIPSE
  5
4E6
102
{ACAD_REACTORS
330
881
102
}
330
A
100
AcDbEntity
  8
INSERT
100
AcDbEllipse
 10
54.28710299999639
 20
3.196668999999991
 30
0.0
 11
-3.421203136444091
 21
-2.07278776168823
 31
0.0
210
0.0
220
0.0
230
1.0
 40
0.979405
 41
6.276072984766003
 42
7.468192932220508
  0
ELLIPSE
  5
4E7
102
{ACAD_REACTORS
330
881
102
}
330
A
100
AcDbEntity
  8
INSERT
100
AcDbEllipse
 10
54.28701699999638
 20
3.19653499999999
 30
0.0
 11
-3.422202348709106
 21
-2.07090592384338
 31
0.0
210
0.0
220
0.0
230
1.0
 40
0.9794129999999999
 41
1.185554990785574
 42
3.134996706671351
  0
ARC
  5
4E8
102
{ACAD_REACTORS
330
882
102
}
330
A
100
AcDbEntity
  8
1
100
AcDbCircle
 10
58.56687199999639
 20
20.13907500000001
 30
0.0
 40
0.269165
100
AcDbArc
 50
55.2691429999993
 51
96.39289400000004
  0
LINE
  5
4E9
102
{ACAD_REACTORS
330
882
102
}
330
A
100
AcDbEntity
  8
1
 48
0.003594
100
AcDbLine
 10
50.64768199999639
 20
11.28259900000001
 30
0.0
 11
50.5779759999964
 21
11.40831199999999
 31
0.0
  0
LINE
  5
4EA
102
{ACAD_REACTORS
330
882
102
}
330
A
100
AcDbEntity
  8
1
 48
0.004761
100
AcDbLine
 10
59.35118399999637
 20
11.20165299999997
 30
0.0
 11
59.52093499999639
 21
11.11534599999999
 31
0.0
  0
LINE
  5
4EB
102
{ACAD_REACTORS
330
882
102
}
330
A
100
AcDbEntity
  8
1
 48
0.028799
100
AcDbLine
 10
59.52093499999639
 20
11.11534599999999
 30
0.0
 11
58.8982549999964
 21
12.08452399999999
 31
0.0
  0
LINE
  5
4EC
102
{ACAD_REACTORS
330
882
102
}
330
A
100
AcDbEntity
  8
1
100
AcDbLine
 10
9.999999999996363
 20
-20.0
 30
0.0
 11
-0.0000000000036404
 21
-20.0
 31
0.0
  0
LINE
  5
4ED
102
{ACAD_REACTORS
330
53D
102
}
330
A
100
AcDbEntity
  8
SK1
 48
0.035355
100
AcDbLine
 10
-254.5000000000035
 20
-18.99999999999996
 30
0.0
 11
-253.5000000000035
 21
-19.99999999999996
 31
0.0
  0
LINE
  5
4EE
102
{ACAD_REACTORS
330
882
102
}
330
A
100
AcDbEntity
  8
1
 48
0.017678
100
AcDbLine
 10
10.49999999999635
 20
-19.5
 30
0.0
 11
9.999999999996363
 21
-20.0
 31
0.0
  0
LINE
  5
4EF
102
{ACAD_REACTORS
330
882
102
}
330
A
100
AcDbEntity
  8
1
100
AcDbLine
 10
45.38526899999638
 20
-19.50000000000001
 30
0.0
 11
10.49999999999635
 21
-19.5
 31
0.0
  0
LINE
  5
4F0
102
{ACAD_REACTORS
330
882
102
}
330
A
100
AcDbEntity
  8
1
 48
0.347254
100
AcDbLine
 10
70.4999999999965
 20
12.99999999999999
 30
0.0
 11
58.7204809999964
 21
20.36065999999998
 31
0.0
  0
ELLIPSE
  5
4F1
102
{ACAD_REACTORS
330
881
330
A7C
102
}
330
A
100
AcDbEntity
  8
INSERT
100
AcDbEllipse
 10
46.29615299999639
 20
28.20669299999999
 30
0.0
 11
0.6871811747550967
 21
0.4096120297908782
 31
0.0
210
0.0
220
0.0
230
1.0
 40
0.9795739999999998
 41
0.465641316630428
 42
2.647302881623335
  0
LINE
  5
4F2
102
{ACAD_REACTORS
330
881
330
A7C
102
}
330
A
100
AcDbEntity
  8
INSERT
 48
0.333415
100
AcDbLine
 10
45.96185199999638
 20
14.836812
 30
0.0
 11
45.50086999999638
 21
28.16545300000001
 31
0.0
  0
ELLIPSE
  5
4F3
102
{ACAD_REACTORS
330
881
330
A7C
102
}
330
A
100
AcDbEntity
  8
INSERT
 48
0.333415
100
AcDbEllipse
 10
46.75713499999639
 20
14.87805199999997
 30
0.0
 11
0.6871811747550967
 21
0.4096120297908782
 31
0.0
210
0.0
220
0.0
230
1.0
 40
0.9795739999999998
 41
2.647302881623335
 42
3.141707126636541
  0
ELLIPSE
  5
4F4
102
{ACAD_REACTORS
330
881
330
A7C
102
}
330
A
100
AcDbEntity
  8
INSERT
 48
0.333415
100
AcDbEllipse
 10
46.75713499999639
 20
14.87805199999997
 30
0.0
 11
0.6871811747550967
 21
0.4096120297908782
 31
0.0
210
0.0
220
0.0
230
1.0
 40
0.9795739999999998
 41
3.141707126636541
 42
3.60723397022022
  0
LINE
  5
4F5
102
{ACAD_REACTORS
330
881
330
A7C
102
}
330
A
100
AcDbEntity
  8
INSERT
 48
0.333415
100
AcDbLine
 10
57.62223399999638
 20
7.137012999999987
 30
0.0
 11
46.3232729999964
 21
14.20980999999999
 31
0.0
  0
ELLIPSE
  5
4F6
102
{ACAD_REACTORS
330
881
330
A7C
102
}
330
A
100
AcDbEntity
  8
INSERT
 48
0.333415
100
AcDbEllipse
 10
58.05609599999638
 20
7.805253999999997
 30
0.0
 11
0.6871811747550967
 21
0.4096120297908782
 31
0.0
210
0.0
220
0.0
230
1.0
 40
0.9795739999999998
 41
3.60723397022022
 42
5.788895535213133
  0
ELLIPSE
  5
4F7
102
{ACAD_REACTORS
330
881
102
}
330
A
100
AcDbEntity
  8
INSERT
 48
0.333415
100
AcDbEllipse
 10
58.70987499999639
 20
6.708447999999995
 30
0.0
 11
0.6871811747550967
 21
0.4096120297908782
 31
0.0
210
0.0
220
0.0
230
1.0
 40
0.9795739999999998
 41
4.751572559976526
 42
5.788895535213133
  0
LINE
  5
4F8
102
{ACAD_REACTORS
330
881
330
A7C
102
}
330
A
100
AcDbEntity
  8
INSERT
 48
0.333415
100
AcDbLine
 10
58.3903969999964
 20
21.17513499999998
 30
0.0
 11
58.85137899999639
 21
7.846493999999997
 31
0.0
  0
LINE
  5
4F9
102
{ACAD_REACTORS
330
881
102
}
330
A
100
AcDbEntity
  8
INSERT
 48
0.333415
100
AcDbLine
 10
59.34468099999639
 20
11.38967599999999
 30
0.0
 11
59.50515799999639
 21
6.749687999999999
 31
0.0
  0
ELLIPSE
  5
4FA
102
{ACAD_REACTORS
330
881
330
A7C
102
}
330
A
100
AcDbEntity
  8
INSERT
 48
0.333415
100
AcDbEllipse
 10
57.59511499999638
 20
21.133896
 30
0.0
 11
0.6871811747550967
 21
0.4096120297908782
 31
0.0
210
0.0
220
0.0
230
1.0
 40
0.9795739999999998
 41
5.788895535213128
 42
6.283299780226338
  0
ELLIPSE
  5
4FB
102
{ACAD_REACTORS
330
881
330
A7C
102
}
330
A
100
AcDbEntity
  8
INSERT
 48
0.333415
100
AcDbEllipse
 10
57.59511499999638
 20
21.133896
 30
0.0
 11
0.6871811747550967
 21
0.4096120297908782
 31
0.0
210
0.0
220
0.0
230
1.0
 40
0.9795739999999998
 41
0.0001144730467513
 42
0.4656413166304285
  0
ELLIPSE
  5
4FC
102
{ACAD_REACTORS
330
881
102
}
330
A
100
AcDbEntity
  8
INSERT
 48
0.333415
100
AcDbEllipse
 10
58.2488939999964
 20
20.03709000000001
 30
0.0
 11
0.6871811747550967
 21
0.4096120297908782
 31
0.0
210
0.0
220
0.0
230
1.0
 40
0.9795739999999998
 41
5.897291647783956
 42
6.283299780226339
  0
LINE
  5
4FD
102
{ACAD_REACTORS
330
881
330
A7C
102
}
330
A
100
AcDbEntity
  8
INSERT
 48
0.333252
100
AcDbLine
 10
46.73001499999639
 20
28.87493399999998
 30
0.0
 11
58.02897599999639
 21
21.80213799999998
 31
0.0
  0
ELLIPSE
  5
4FE
102
{ACAD_REACTORS
330
881
330
A7C
102
}
330
A
100
AcDbEntity
  8
INSERT
 48
0.333415
100
AcDbEllipse
 10
52.17612499999639
 20
18.005974
 30
0.0
 11
2.602698802947997
 21
1.551405549049374
 31
0.0
210
0.0
220
0.0
230
1.0
 40
0.9795739999999998
 41
4.678030297015457
 42
10.96121560419504
  0
ELLIPSE
  5
4FF
102
{ACAD_REACTORS
330
881
102
}
330
A
100
AcDbEntity
  8
INSERT
 48
0.333415
100
AcDbEllipse
 10
52.22245599999638
 20
17.92824699999998
 30
0.0
 11
2.216159343719481
 21
1.320998787879942
 31
0.0
210
0.0
220
0.0
230
1.0
 40
0.9795739999999996
 41
0.0001186651644771
 42
3.141711318754268
  0
ELLIPSE
  5
500
102
{ACAD_REACTORS
330
881
102
}
330
A
100
AcDbEntity
  8
INSERT
 48
0.333415
100
AcDbEllipse
 10
52.22245599999638
 20
17.92824699999998
 30
0.0
 11
2.216159343719481
 21
1.320998787879942
 31
0.0
210
0.0
220
0.0
230
1.0
 40
0.9795739999999996
 41
3.141711318754268
 42
4.678030297015111
  0
ELLIPSE
  5
501
102
{ACAD_REACTORS
330
881
102
}
330
A
100
AcDbEntity
  8
INSERT
 48
0.333415
100
AcDbEllipse
 10
52.22245599999638
 20
17.92824699999998
 30
0.0
 11
2.216159343719481
 21
1.320998787879942
 31
0.0
210
0.0
220
0.0
230
1.0
 40
0.9795739999999996
 41
4.678030297015111
 42
6.283303972344062
  0
LINE
  5
504
102
{ACAD_REACTORS
330
881
102
}
330
A
100
AcDbEntity
  8
INSERT
 48
0.333415
100
AcDbLine
 10
46.28414399999638
 20
14.10910599999999
 30
0.0
 11
46.06999999999638
 21
14.46836200000001
 31
0.0
  0
LINE
  5
505
102
{ACAD_REACTORS
330
881
330
A7C
102
}
330
A
100
AcDbEntity
  8
INSERT
 48
0.333415
100
AcDbLine
 10
58.93602899999638
 20
20.44677899999998
 30
0.0
 11
58.2822499999964
 21
21.54358500000001
 31
0.0
  0
ELLIPSE
  5
506
102
{ACAD_REACTORS
330
881
102
}
330
A
100
AcDbEntity
  8
INSERT
100
AcDbEllipse
 10
54.25040199999639
 20
3.257983999999998
 30
0.0
 11
3.435905933380126
 21
2.04806017875671
 31
0.0
210
0.0
220
0.0
230
0.9999999999999998
 40
0.9795739999999998
 41
3.141516874493609
 42
6.283109528083401
  0
ELLIPSE
  5
507
102
{ACAD_REACTORS
330
881
102
}
330
A
100
AcDbEntity
  8
INSERT
100
AcDbEllipse
 10
54.25040199999639
 20
3.257983999999998
 30
0.0
 11
3.435905933380126
 21
2.04806017875671
 31
0.0
210
0.0
220
0.0
230
0.9999999999999998
 40
0.9795739999999998
 41
6.283109528083401
 42
8.319622950604902
  0
ELLIPSE
  5
508
102
{ACAD_REACTORS
330
881
102
}
330
A
100
AcDbEntity
  8
INSERT
100
AcDbEllipse
 10
54.25040199999639
 20
3.257983999999998
 30
0.0
 11
3.435905933380126
 21
2.04806017875671
 31
0.0
210
0.0
220
0.0
230
0.9999999999999998
 40
0.9795739999999998
 41
2.036437643425315
 42
3.141516874493609
  0
ELLIPSE
  5
509
102
{ACAD_REACTORS
330
881
102
}
330
A
100
AcDbEntity
  8
INSERT
100
AcDbEllipse
 10
54.18862799999638
 20
3.361619999999993
 30
0.0
 11
2.543231487274169
 21
1.515958547592162
 31
0.0
210
0.0
220
0.0
230
1.0
 40
0.9795739999999998
 41
5.178030297015108
 42
11.46121560419467
  0
LINE
  5
50A
102
{ACAD_REACTORS
330
881
102
}
330
A
100
AcDbEntity
  8
INSERT
 48
0.042597
100
AcDbLine
 10
54.27999699999639
 20
5.066597999999991
 30
0.0
 11
55.7242409999964
 21
4.162545999999998
 31
0.0
  0
LINE
  5
50B
102
{ACAD_REACTORS
330
881
102
}
330
A
100
AcDbEntity
  8
INSERT
 48
0.042686
100
AcDbLine
 10
55.7242409999964
 20
4.162545999999998
 30
0.0
 11
55.63287199999638
 21
2.457566999999989
 31
0.0
  0
LINE
  5
50C
102
{ACAD_REACTORS
330
881
102
}
330
A
100
AcDbEntity
  8
INSERT
 48
0.043298
100
AcDbLine
 10
55.63287199999638
 20
2.457566999999989
 30
0.0
 11
54.0972589999964
 21
1.656639999999988
 31
0.0
  0
LINE
  5
50D
102
{ACAD_REACTORS
330
881
102
}
330
A
100
AcDbEntity
  8
INSERT
 48
0.042597
100
AcDbLine
 10
54.0972589999964
 20
1.656639999999988
 30
0.0
 11
52.65301399999639
 21
2.560691999999995
 31
0.0
  0
LINE
  5
50E
102
{ACAD_REACTORS
330
881
102
}
330
A
100
AcDbEntity
  8
INSERT
 48
0.042686
100
AcDbLine
 10
52.65301399999639
 20
2.560691999999995
 30
0.0
 11
52.7443829999964
 21
4.265670999999987
 31
0.0
  0
LINE
  5
50F
102
{ACAD_REACTORS
330
881
102
}
330
A
100
AcDbEntity
  8
INSERT
 48
0.043298
100
AcDbLine
 10
52.7443829999964
 20
4.265670999999987
 30
0.0
 11
54.27999699999639
 21
5.066597999999991
 31
0.0
  0
LINE
  5
510
102
{ACAD_REACTORS
330
881
102
}
330
A
100
AcDbEntity
  8
INSERT
 48
0.028187
100
AcDbLine
 10
54.74330499999638
 20
4.289333999999985
 30
0.0
 11
55.69897399999638
 21
3.691114999999987
 31
0.0
  0
LINE
  5
511
102
{ACAD_REACTORS
330
881
102
}
330
A
100
AcDbEntity
  8
INSERT
 48
0.043298
100
AcDbLine
 10
53.20769199999639
 20
3.488407000000001
 30
0.0
 11
54.74330499999638
 21
4.289333999999985
 31
0.0
  0
LINE
  5
512
102
{ACAD_REACTORS
330
881
102
}
330
A
100
AcDbEntity
  8
INSERT
 48
0.030883
100
AcDbLine
 10
53.1415859999964
 20
2.254855999999995
 30
0.0
 11
53.20769199999639
 21
3.488407000000001
 31
0.0
  0
LINE
  5
513
102
{ACAD_REACTORS
330
881
102
}
330
A
100
AcDbEntity
  8
INSERT
 48
0.022622
100
AcDbLine
 10
54.27999699999639
 20
5.066597999999991
 30
0.0
 11
54.74330499999638
 21
4.289333999999985
 31
0.0
  0
LINE
  5
514
102
{ACAD_REACTORS
330
881
102
}
330
A
100
AcDbEntity
  8
INSERT
 48
0.022622
100
AcDbLine
 10
52.7443829999964
 20
4.265670999999987
 30
0.0
 11
53.20769199999639
 21
3.488407000000001
 31
0.0
  0
ELLIPSE
  5
519
102
{ACAD_REACTORS
330
881
102
}
330
A
100
AcDbEntity
  8
INSERT
 48
0.333415
100
AcDbEllipse
 10
52.2833669999964
 20
17.98069599999997
 30
0.0
 11
-1.374362349510192
 21
-0.8192240595817562
 31
0.0
210
0.0
220
0.0
230
1.0
 40
0.9795739999999998
 41
2.734569343891627
 42
5.876161998144301
  0
LINE
  5
51A
102
{ACAD_REACTORS
330
881
102
}
330
A
100
AcDbEntity
  8
INSERT
 48
0.333415
100
AcDbLine
 10
50.7759289999964
 20
17.17613600000001
 30
0.0
 11
50.70360999999639
 21
17.76136700000001
 31
0.0
  0
ELLIPSE
  5
51B
102
{ACAD_REACTORS
330
881
102
}
330
A
100
AcDbEntity
  8
INSERT
 48
0.333415
100
AcDbEllipse
 10
52.35568599999639
 20
17.39546499999999
 30
0.0
 11
-1.374362349510192
 21
-0.8192240595817562
 31
0.0
210
0.0
220
0.0
230
1.0
 40
0.9795739999999998
 41
5.876161997482617
 42
9.017754651735648
  0
LINE
  5
51C
102
{ACAD_REACTORS
330
881
102
}
330
A
100
AcDbEntity
  8
INSERT
 48
0.333415
100
AcDbLine
 10
53.86312299999639
 20
18.20002400000002
 30
0.0
 11
53.93544199999638
 21
17.61479299999996
 31
0.0
  0
ELLIPSE
  5
51D
102
{ACAD_REACTORS
330
881
102
}
330
A
100
AcDbEntity
  8
INSERT
 48
0.333415
100
AcDbEllipse
 10
52.33484599999639
 20
17.89433299999998
 30
0.0
 11
-1.803850650787351
 21
-1.07523155212402
 31
0.0
210
0.0
220
0.0
230
1.0
 40
0.979574
 41
3.141665782661676
 42
5.876161997811258
  0
ELLIPSE
  5
51E
102
{ACAD_REACTORS
330
881
102
}
330
A
100
AcDbEntity
  8
INSERT
 48
0.333415
100
AcDbEllipse
 10
52.33484599999639
 20
17.89433299999998
 30
0.0
 11
-1.803850650787351
 21
-1.07523155212402
 31
0.0
210
0.0
220
0.0
230
1.0
 40
0.979574
 41
2.73456934422466
 42
3.141665782661676
  0
LINE
  5
520
102
{ACAD_REACTORS
330
881
102
}
330
A
100
AcDbEntity
  8
INSERT
 48
0.333415
100
AcDbLine
 10
50.3337169999964
 20
17.02123100000001
 30
0.0
 11
50.26139799999636
 21
17.60646199999996
 31
0.0
  0
ELLIPSE
  5
522
102
{ACAD_REACTORS
330
881
102
}
330
A
100
AcDbEntity
  8
INSERT
 48
0.333415
100
AcDbEllipse
 10
52.40716499999638
 20
17.30910199999997
 30
0.0
 11
-1.803850650787351
 21
-1.07523155212402
 31
0.0
210
0.0
220
0.0
230
1.0
 40
0.979574
 41
2.18467965731499
 42
2.734569344221451
  0
ELLIPSE
  5
523
102
{ACAD_REACTORS
330
881
102
}
330
A
100
AcDbEntity
  8
INSERT
 48
0.333415
100
AcDbEllipse
 10
52.40716499999638
 20
17.30910199999997
 30
0.0
 11
-1.803850650787351
 21
-1.07523155212402
 31
0.0
210
0.0
220
0.0
230
1.0
 40
0.979574
 41
0.0000731290718839
 42
0.471415280646283
  0
ELLIPSE
  5
524
102
{ACAD_REACTORS
330
881
102
}
330
A
100
AcDbEntity
  8
INSERT
 48
0.333415
100
AcDbEllipse
 10
52.40716499999638
 20
17.30910199999997
 30
0.0
 11
-1.803850650787351
 21
-1.07523155212402
 31
0.0
210
0.0
220
0.0
230
1.0
 40
0.979574
 41
5.876161997814437
 42
6.283258436251467
  0
LINE
  5
525
102
{ACAD_REACTORS
330
881
102
}
330
A
100
AcDbEntity
  8
INSERT
 48
0.333415
100
AcDbLine
 10
54.40829299999638
 20
18.182203
 30
0.0
 11
54.4806119999964
 21
17.59697299999998
 31
0.0
  0
LINE
  5
535
102
{ACAD_REACTORS
330
53D
102
}
330
A
100
AcDbEntity
  8
SK1
100
AcDbLine
 10
-0.0000000000036404
 20
-20.0
 30
0.0
 11
-253.5000000000035
 21
-19.99999999999996
 31
0.0
  0
LINE
  5
536
102
{ACAD_REACTORS
330
53D
102
}
330
A
100
AcDbEntity
  8
SK1
100
AcDbLine
 10
-0.0000000000036389
 20
-7.599341999999992
 30
0.0
 11
-253.5000000000035
 21
-7.599341999999959
 31
0.0
  0
LINE
  5
537
330
A
100
AcDbEntity
  8
SK4
100
AcDbLine
 10
-0.000000000003638
 20
0.0
 30
0.0
 11
-261.4541320000033
 21
0.000000000000032
 31
0.0
  0
LINE
  5
538
102
{ACAD_REACTORS
330
53D
102
}
330
A
100
AcDbEntity
  8
SK1
100
AcDbLine
 10
-0.0000000000036371
 20
7.599342000000008
 30
0.0
 11
-253.5000000000035
 21
7.599342000000039
 31
0.0
  0
LINE
  5
539
102
{ACAD_REACTORS
330
53D
102
}
330
A
100
AcDbEntity
  8
SK1
100
AcDbLine
 10
-0.0000000000036357
 20
18.5
 30
0.0
 11
-253.5000000000035
 21
18.50000000000003
 31
0.0
  0
DIMENSION
  5
7B8
102
{ACAD_REACTORS
330
880
102
}
330
A
100
AcDbEntity
  8
SK2
100
AcDbDimension
  2
*D2
 10
-254.5000000000035
 20
38.20792987494314
 30
0.0
 11
-104.5000000000035
 21
40.64441968520315
 31
0.0
 70
    32
 71
     5
 42
299.9999999999999
  3
STANDARD
100
AcDbAlignedDimension
 13
45.4999999999964
 23
28.99999999999998
 33
0.0
 14
-254.5000000000035
 24
18.50000000000003
 34
0.0
 50
180.0
100
AcDbRotatedDimension
  0
DIMENSION
  5
7C6
102
{ACAD_REACTORS
330
880
102
}
330
A
100
AcDbEntity
  8
SK2
100
AcDbDimension
  2
*D3
 10
-270.8164663147339
 20
20.00000000000006
 30
0.0
 11
-270.8164663147339
 21
-0.0000000000000663
 31
0.0
 70
   160
  1
D<>
 71
     5
 42
40.00000000000003
  3
DIAMETER
100
AcDbAlignedDimension
 13
-253.5000000000035
 23
-19.99999999999996
 33
0.0
 14
-253.5000000000035
 24
20.00000000000006
 34
0.0
 50
270.0
100
AcDbRotatedDimension
  0
DIMENSION
  5
7F3
102
{ACAD_REACTORS
330
86F
102
}
330
A
100
AcDbEntity
  8
2
100
AcDbDimension
  2
*D4
 10
10.49999999999635
 20
-30.83418594445431
 30
0.0
 11
27.99999999999637
 21
-28.39769613419429
 31
0.0
 70
    32
 71
     5
 42
35.00000000000005
  3
STANDARD
100
AcDbAlignedDimension
 13
45.4999999999964
 23
28.99999999999998
 33
0.0
 14
10.49999999999635
 24
-19.5
 34
0.0
 50
180.0
100
AcDbRotatedDimension
  0
DIMENSION
  5
800
102
{ACAD_REACTORS
330
86F
102
}
330
A
100
AcDbEntity
  8
2
100
AcDbDimension
  2
*D5
 10
91.59783068018739
 20
-0.0000000000000136
 30
0.0
 11
89.16134086992739
 21
14.49999999999999
 31
0.0
 70
    32
 71
     5
 42
28.99999999999998
  3
STANDARD
100
AcDbAlignedDimension
 13
45.4999999999964
 23
28.99999999999998
 33
0.0
 14
76.94653499999652
 24
-0.0000000000000094
 34
0.0
 50
270.0
100
AcDbRotatedDimension
  0
DIMENSION
  5
80D
102
{ACAD_REACTORS
330
86F
102
}
330
A
100
AcDbEntity
  8
2
100
AcDbDimension
  2
*D6
 10
45.4999999999964
 20
28.99999999999998
 30
0.0
 11
37.35923912116689
 21
24.19059551257401
 31
0.0
 70
   162
  1
93%%D
 71
     5
 42
1.605368368020614
  3
STANDARD
100
AcDb2LineAngularDimension
 13
45.96185199999638
 23
14.836812
 33
0.0
 14
45.50086999999638
 24
28.16545300000001
 34
0.0
 15
48.1249999999964
 25
28.99999999999998
 35
0.0
 16
40.94589495537489
 26
20.72584261705681
 36
0.0
  0
HATCH
  5
A7C
330
A
100
AcDbEntity
  8
7
100
AcDbHatch
 10
0.0
 20
0.0
 30
0.0
210
0.0
220
0.0
230
1.0
  2
ANSI37
 70
     0
 71
     1
 91
        2
 92
        5
 93
       11
 72
     3
 10
58.05609599999638
 20
7.805253999999997
 11
0.6871811747550967
 21
0.4096120297908782
 40
0.9795739999999998
 50
206.2078257488149
 51
332.1702813221155
 73
     1
 72
     1
 10
58.85137901535834
 20
7.846493555830839
 11
58.39039669653798
 21
21.17514377406988
 72
     3
 10
57.59511499999638
 20
21.133896
 11
0.6871811747550967
 21
0.4096120297908782
 40
0.9795739999999998
 50
332.1702813221153
 51
359.9553334649565
 73
     1
 72
     1
 10
58.28261528167018
 20
21.5429721887419
 11
58.28224896317045
 21
21.543586739421
 72
     3
 10
57.59511499999638
 20
21.133896
 11
0.6871811747550967
 21
0.4096120297908782
 40
0.9795739999999998
 50
333.7921742511848
 51
359.9935751480594
 73
     0
 72
     1
 10
58.02897803232909
 20
21.80213672782332
 11
46.73001384582952
 21
28.87493472247232
 72
     3
 10
46.29615299999639
 20
28.20669299999999
 11
0.6871811747550967
 21
0.4096120297908782
 40
0.9795739999999998
 50
26.2078257488151
 51
152.1702813221153
 73
     1
 72
     1
 10
45.50086998463442
 20
28.16545344416913
 11
45.96185198571665
 21
14.83681241287759
 72
     3
 10
46.75713499999639
 20
14.87805199999997
 11
0.6871811747550967
 21
0.4096120297908782
 40
0.9795739999999998
 50
152.1702813221153
 51
180.0064248519403
 73
     1
 72
     3
 10
46.75713499999639
 20
14.87805199999997
 11
0.6871811747550967
 21
0.4096120297908782
 40
0.9795739999999998
 50
180.0064248519403
 51
206.2078257488149
 73
     1
 72
     1
 10
46.32327547904341
 20
14.20980844819392
 11
57.62223515416295
 21
7.13701227752773
 97
       11
330
4F6
330
4F8
330
4FA
330
505
330
4FB
330
4FD
330
4F1
330
4F2
330
4F3
330
4F4
330
4F5
 92
       20
 93
        1
 72
     3
 10
52.17612499999639
 20
18.005974
 11
2.602698802947998
 21
1.551405549049373
 40
0.9795739999999998
 50
0.0
 51
360.0
 73
     1
 97
        1
330
4FE
 75
     0
 76
     1
 52
180.0
 41
0.125
 77
     0
 78
     2
 53
225.0
 43
0.0
 44
0.0
 45
0.2806330037834109
 46
-0.280633003783411
 79
     0
 53
315.0
 43
0.0
 44
0.0
 45
0.280633003783411
 46
0.2806330037834109
 79
     0
 47
0.021345972742191
 98
        4
 10
49.3326105762909
 20
13.60127833739384
 10
49.3326105762909
 20
13.60127833739384
 10
49.3326105762909
 20
13.60127833739384
 10
49.3326105762909
 20
13.60127833739384
1001
ACAD
1010
0.0
1020
0.0
1030
0.0
  0
TEXT
  5
C25
330
A
100
AcDbEntity
  8
SK6
100
AcDbText
 10
-98.33906459731423
 20
-43.64407899658814
 30
0.0
 40
3.5
  1
 S40T PDZNR 15
100
AcDbText
1001
ACAD
1000
MTEXTBEGIN
1070
    73
1070
     1
1070
    44
1040
1.0
1070
    74
1070
     0
1000
MTEXTEND
  0
VIEWPORT
  5
2B
102
{ACAD_XDICTIONARY
360
BF3
102
}
330
B
100
AcDbEntity
 67
     1
  8
0
 62
     0
370
     0
100
AcDbViewport
 10
0.0
 20
0.0
 30
0.0
 40
1000.0
 41
1000.0
 68
     1
 69
     1
 12
0.0
 22
0.0
 13
0.0
 23
0.0
 14
1.0
 24
1.0
 15
1.0
 25
1.0
 16
0.0
 26
0.0
 36
1.0
 17
0.0
 27
0.0
 37
0.0
 42
50.0
 43
0.0
 44
0.0
 45
1000.0
 50
0.0
 51
0.0
 72
   100
 90
        0
  1

281
     0
 71
     0
 74
     1
110
0.0
120
0.0
130
0.0
111
1.0
121
0.0
131
0.0
112
0.0
122
1.0
132
0.0
 79
     0
146
0.0
  0
ENDSEC
  0
SECTION
  2
OBJECTS
  0
DICTIONARY
  5
19
330
0
100
AcDbDictionary
281
     1
  3
ACAD_2007HEADERVARS_RT
350
BEC
  3
ACAD_COLOR
350
10F
  3
ACAD_GROUP
350
1A
  3
ACAD_LAYOUT
350
1E
  3
ACAD_MATERIAL
350
10E
  3
ACAD_MLEADERSTYLE
350
8E1
  3
ACAD_MLINESTYLE
350
1B
  3
ACAD_PLOTSETTINGS
350
22
  3
ACAD_PLOTSTYLENAME
350
1F
  3
ACAD_SCALELIST
350
8CF
  3
ACAD_TABLESTYLE
350
110
  3
ACAD_VISUALSTYLE
350
8BB
  3
ACAD_WIPEOUT_VARS
350
23
  3
ACDB_RECOMPOSE_DATA
350
BEA
  3
AcDbVariableDictionary
350
53B
  3
DWGPROPS
350
BEB
  0
DICTIONARY
  5
497
330
2
100
AcDbDictionary
280
     1
281
     1
  3
ACAD_LAYERFILTERS
360
886
  3
ACAD_LAYERSTATES
360
498
  3
ACLYDICTIONARY
360
885
  0
DICTIONARY
  5
98F
330
14
100
AcDbDictionary
280
     1
281
     1
  3
ADSK_XREC_LAYER_RECONCILED
360
990
  0
DICTIONARY
  5
459
330
458
100
AcDbDictionary
280
     1
281
     1
  3
ADSK_XREC_LAYER_RECONCILED
360
45A
  0
DICTIONARY
  5
45C
330
45B
100
AcDbDictionary
280
     1
281
     1
  3
ADSK_XREC_LAYER_RECONCILED
360
45D
  0
DICTIONARY
  5
45F
330
45E
100
AcDbDictionary
280
     1
281
     1
  3
ADSK_XREC_LAYER_RECONCILED
360
460
  0
DICTIONARY
  5
465
330
464
100
AcDbDictionary
280
     1
281
     1
  3
ADSK_XREC_LAYER_RECONCILED
360
466
  0
DICTIONARY
  5
468
330
467
100
AcDbDictionary
280
     1
281
     1
  3
ADSK_XREC_LAYER_RECONCILED
360
469
  0
DICTIONARY
  5
46B
330
46A
100
AcDbDictionary
280
     1
281
     1
  3
ADSK_XREC_LAYER_RECONCILED
360
46C
  0
DICTIONARY
  5
475
330
474
100
AcDbDictionary
280
     1
281
     1
  3
ADSK_XREC_LAYER_RECONCILED
360
476
  0
DICTIONARY
  5
991
330
478
100
AcDbDictionary
280
     1
281
     1
  3
ADSK_XREC_LAYER_RECONCILED
360
992
  0
DICTIONARY
  5
993
330
479
100
AcDbDictionary
280
     1
281
     1
  3
ADSK_XREC_LAYER_RECONCILED
360
994
  0
DICTIONARY
  5
A7E
330
A7D
100
AcDbDictionary
280
     1
281
     1
  0
DICTIONARY
  5
4B0
330
A
100
AcDbDictionary
280
     1
281
     1
  3
ACAD_SORTENTS
360
4B1
  0
DICTIONARY
  5
BF3
330
2B
100
AcDbDictionary
280
     1
281
     1
  3
ACAD_XREC_ROUNDTRIP
360
BF4
  0
DICTIONARY
  5
BEC
102
{ACAD_REACTORS
330
19
102
}
330
19
100
AcDbDictionary
281
     1
  3
DIMFXL
350
BED
  3
DIMJOGANG
350
BEE
  0
DICTIONARY
  5
10F
102
{ACAD_REACTORS
330
19
102
}
330
19
100
AcDbDictionary
281
     1
  0
DICTIONARY
  5
1A
102
{ACAD_REACTORS
330
19
102
}
330
19
100
AcDbDictionary
281
     1
  3
*A1
350
48D
  3
*A10
350
A84
  3
*A11
350
53D
  3
*A12
350
86F
  3
*A2
350
880
  3
*A3
350
881
  3
*A4
350
882
  3
*A5
350
A7F
  3
*A6
350
A80
  3
*A7
350
A81
  3
*A8
350
A82
  3
*A9
350
A83
  0
DICTIONARY
  5
1E
102
{ACAD_REACTORS
330
19
102
}
330
19
100
AcDbDictionary
281
     1
  3
Layout1
350
21
  3
Model
350
20
  0
DICTIONARY
  5
10E
102
{ACAD_REACTORS
330
19
102
}
330
19
100
AcDbDictionary
281
     1
  3
ByBlock
350
48E
  3
ByLayer
350
491
  3
Global
350
494
  0
DICTIONARY
  5
8E1
102
{ACAD_REACTORS
330
19
102
}
330
19
100
AcDbDictionary
281
     1
  3
Standard
350
8E2
  0
DICTIONARY
  5
1B
102
{ACAD_REACTORS
330
19
102
}
330
19
100
AcDbDictionary
281
     1
  3
Standard
350
1C
  0
DICTIONARY
  5
22
102
{ACAD_REACTORS
330
19
102
}
330
19
100
AcDbDictionary
281
     1
  0
ACDBDICTIONARYWDFLT
  5
1F
102
{ACAD_REACTORS
330
19
102
}
330
19
100
AcDbDictionary
281
     1
  3
Normal
350
1D
100
AcDbDictionaryWithDefault
340
1D
  0
DICTIONARY
  5
8CF
102
{ACAD_REACTORS
330
19
102
}
330
19
100
AcDbDictionary
281
     1
  3
A0
350
8D0
  3
A1
350
8D1
  3
A2
350
8D2
  3
A3
350
8D3
  3
A4
350
8D4
  3
A5
350
8D5
  3
A6
350
8D6
  3
A7
350
8D7
  3
A8
350
8D8
  3
A9
350
8D9
  3
B0
350
8DA
  3
B1
350
8DB
  3
B2
350
8DC
  3
B3
350
8DD
  3
B4
350
8DE
  3
B5
350
8DF
  3
B6
350
8E0
  0
DICTIONARY
  5
110
102
{ACAD_REACTORS
330
19
102
}
330
19
100
AcDbDictionary
281
     1
  3
Standard
350
111
  0
DICTIONARY
  5
8BB
102
{ACAD_REACTORS
330
19
102
}
330
19
100
AcDbDictionary
281
     1
  3
2dWireframe
350
8C1
  3
3D Hidden
350
8C3
  3
3dWireframe
350
8C2
  3
Basic
350
8C0
  3
Brighten
350
8C7
  3
ColorChange
350
8CB
  3
Conceptual
350
8C4
  3
Dim
350
8C6
  3
EdgeColorOff
350
8CE
  3
Facepattern
350
8CA
  3
Flat
350
8BC
  3
FlatWithEdges
350
8BD
  3
Gouraud
350
8BE
  3
GouraudWithEdges
350
8BF
  3
JitterOff
350
8CC
  3
Linepattern
350
8C9
  3
OverhangOff
350
8CD
  3
Realistic
350
8C5
  3
Thicken
350
8C8
  0
WIPEOUTVARIABLES
  5
23
330
19
100
AcDbWipeoutVariables
 70
     1
  0
XRECORD
  5
BEA
102
{ACAD_REACTORS
330
19
102
}
330
19
100
AcDbXrecord
280
     1
 90
        1
330
111
  0
DICTIONARY
  5
53B
102
{ACAD_REACTORS
330
19
102
}
330
19
100
AcDbDictionary
281
     1
  3
CANNOSCALE
350
996
  3
CMLEADERSTYLE
350
995
  3
CTABLESTYLE
350
53C
  3
DIMASSOC
350
8AD
  3
INDEXCTL
350
998
  3
PROJECTNAME
350
8AE
  3
SORTENTS
350
997
  3
XCLIPFRAME
350
BE8
  0
XRECORD
  5
BEB
102
{ACAD_REACTORS
330
19
102
}
330
19
100
AcDbXrecord
280
     1
  1
DWGPROPS COOKIE
  2

  3

  4

  6

  7

  8
designcad03
  9

300
=
301
=
302
=
303
=
304
=
305
=
306
=
307
=
308
=
309
=
 40
0.1147370486111111
 41
2455379.461028819
 42
2455477.680960278
  1

 90
        0
  0
DICTIONARY
  5
886
102
{ACAD_REACTORS
330
497
102
}
330
497
100
AcDbDictionary
281
     1
  0
DICTIONARY
  5
498
102
{ACAD_REACTORS
330
497
102
}
330
497
100
AcDbDictionary
281
     1
  3
_LAYISO_STATE
350
BE4
1001
AcLayerTools
1000
20
1000
0
  0
DICTIONARY
  5
885
102
{ACAD_REACTORS
330
497
102
}
330
497
100
AcDbDictionary
281
     1
1001
ACAD
1000
<All
  0
XRECORD
  5
990
102
{ACAD_REACTORS
330
98F
102
}
330
98F
100
AcDbXrecord
280
     1
290
     1
  0
XRECORD
  5
45A
102
{ACAD_REACTORS
330
459
102
}
330
459
100
AcDbXrecord
280
     1
290
     1
  0
XRECORD
  5
45D
102
{ACAD_REACTORS
330
45C
102
}
330
45C
100
AcDbXrecord
280
     1
290
     1
  0
XRECORD
  5
460
102
{ACAD_REACTORS
330
45F
102
}
330
45F
100
AcDbXrecord
280
     1
290
     1
  0
XRECORD
  5
466
102
{ACAD_REACTORS
330
465
102
}
330
465
100
AcDbXrecord
280
     1
290
     1
  0
XRECORD
  5
469
102
{ACAD_REACTORS
330
468
102
}
330
468
100
AcDbXrecord
280
     1
290
     1
  0
XRECORD
  5
46C
102
{ACAD_REACTORS
330
46B
102
}
330
46B
100
AcDbXrecord
280
     1
290
     1
  0
XRECORD
  5
476
102
{ACAD_REACTORS
330
475
102
}
330
475
100
AcDbXrecord
280
     1
290
     1
  0
XRECORD
  5
992
102
{ACAD_REACTORS
330
991
102
}
330
991
100
AcDbXrecord
280
     1
290
     1
  0
XRECORD
  5
994
102
{ACAD_REACTORS
330
993
102
}
330
993
100
AcDbXrecord
280
     1
290
     1
  0
SORTENTSTABLE
  5
4B1
102
{ACAD_REACTORS
330
4B0
102
}
330
4B0
100
AcDbSortentsTable
330
A
331
4CB
  5
4C9
331
4EB
  5
4E9
331
4D6
  5
4D4
331
A7C
  5
4F0
331
4C1
  5
4BD
331
520
  5
521
331
4E1
  5
4DF
331
501
  5
503
331
4CC
  5
4CA
331
4EC
  5
4EA
331
4D7
  5
4D5
331
4B2
  5
4A8
331
4C2
  5
4BE
331
4E2
  5
4E0
331
4CD
  5
4CB
331
4ED
  5
4EC
331
4B8
  5
4B3
331
4D8
  5
4D6
331
4B3
  5
4A9
331
4C3
  5
4C0
331
4E3
  5
4E1
331
535
  5
4EB
331
4CE
  5
4CC
331
4EE
  5
4ED
331
800
  5
80D
331
4B9
  5
4B4
331
4D9
  5
4D7
331
4B4
  5
4AA
331
4C4
  5
4C1
331
4E4
  5
4E2
331
7C6
  5
7F3
331
536
  5
4BB
331
4CF
  5
4CD
331
4EF
  5
4EE
331
4BA
  5
4B5
331
4DA
  5
4D8
331
4B5
  5
4AE
331
4C5
  5
4C3
331
4E5
  5
4E3
331
538
  5
4C2
331
4A5
  5
533
331
4D0
  5
4CE
331
537
  5
117
331
4F0
  5
4EF
331
4BB
  5
4B6
331
4DB
  5
4D9
331
80D
  5
A2F
331
4B6
  5
4AF
331
525
  5
52B
331
4C6
  5
4C4
331
4E6
  5
4E4
331
539
  5
4BF
331
4D1
  5
4CF
331
4A6
  5
534
331
4BC
  5
4B7
331
4DC
  5
4DA
331
4B7
  5
4B2
331
4C7
  5
4C5
331
4E7
  5
4E5
331
114
  5
114
331
4D2
  5
4D0
331
4A7
  5
535
331
4BD
  5
4B8
331
4DD
  5
4DB
331
4C8
  5
4C6
331
4E8
  5
4E6
331
4D3
  5
4D1
331
4BE
  5
4B9
331
4DE
  5
4DC
331
4A8
  5
536
331
7B8
  5
7C6
331
4C9
  5
4C7
331
4E9
  5
4E7
331
7F3
  5
800
331
4D4
  5
4D2
331
51E
  5
51F
331
4BF
  5
4BA
331
4A9
  5
537
331
4DF
  5
4DD
331
4CA
  5
4C8
331
4EA
  5
4E8
331
4D5
  5
4D3
331
4C0
  5
4BC
331
4E0
  5
4DE
331
4AA
  5
7B8
  0
XRECORD
  5
BF4
102
{ACAD_REACTORS
330
BF3
102
}
330
BF3
100
AcDbXrecord
280
     1
102
SHADEPLOT
 70
     0
  0
XRECORD
  5
BED
102
{ACAD_REACTORS
330
BEC
102
}
330
BEC
100
AcDbXrecord
280
     1
 40
1.25
  0
XRECORD
  5
BEE
102
{ACAD_REACTORS
330
BEC
102
}
330
BEC
100
AcDbXrecord
280
     1
 40
1.570796326794896
  0
GROUP
  5
48D
102
{ACAD_REACTORS
330
1A
102
}
330
1A
100
AcDbGroup
300

 70
     1
 71
     1
  0
GROUP
  5
A84
102
{ACAD_REACTORS
330
1A
102
}
330
1A
100
AcDbGroup
300

 70
     1
 71
     1
  0
GROUP
  5
53D
102
{ACAD_REACTORS
330
1A
102
}
330
1A
100
AcDbGroup
300

 70
     1
 71
     1
340
538
340
536
340
535
340
539
340
4ED
340
4C1
340
4BE
340
4BC
340
4BB
340
4BA
340
4B9
340
4B8
340
4B7
340
4B6
340
4B5
  0
GROUP
  5
86F
102
{ACAD_REACTORS
330
1A
102
}
330
1A
100
AcDbGroup
300

 70
     1
 71
     1
340
800
340
7F3
340
80D
  0
GROUP
  5
880
102
{ACAD_REACTORS
330
1A
102
}
330
1A
100
AcDbGroup
300

 70
     1
 71
     1
340
7B8
340
7C6
  0
GROUP
  5
881
102
{ACAD_REACTORS
330
1A
102
}
330
1A
100
AcDbGroup
300

 70
     1
 71
     1
340
525
340
524
340
523
340
522
340
520
340
51E
340
51D
340
51C
340
51B
340
51A
340
519
340
505
340
504
340
501
340
500
340
4FF
340
4FE
340
4FD
340
4FC
340
4FB
340
4FA
340
4F9
340
4F8
340
4F7
340
4F6
340
4F5
340
4F4
340
4F3
340
4F2
340
4F1
340
514
340
513
340
512
340
511
340
50F
340
50E
340
50D
340
50C
340
50A
340
509
340
508
340
507
340
506
340
4E6
340
4E7
340
50B
340
510
  0
GROUP
  5
882
102
{ACAD_REACTORS
330
1A
102
}
330
1A
100
AcDbGroup
300

 70
     1
 71
     1
340
4F0
340
4EF
340
4EE
340
4EC
340
4EB
340
4EA
340
4E9
340
4E8
340
4E5
340
4E4
340
4E3
340
4E2
340
4E1
340
4E0
340
4DF
340
4DE
340
4DD
340
4DC
340
4DB
340
4DA
340
4D9
340
4D8
340
4D7
340
4D6
340
4D5
340
4D4
340
4D3
340
4D2
340
4D1
340
4D0
340
4CF
340
4CE
340
4CD
340
4CC
340
4CB
340
4CA
340
4C9
340
4C8
340
4C7
340
4C6
340
4C5
340
4C4
340
4C3
340
4C2
340
4C0
340
4BF
340
4BD
340
4B4
340
4B3
340
4B2
  0
GROUP
  5
A7F
102
{ACAD_REACTORS
330
1A
102
}
330
1A
100
AcDbGroup
300

 70
     1
 71
     1
  0
GROUP
  5
A80
102
{ACAD_REACTORS
330
1A
102
}
330
1A
100
AcDbGroup
300

 70
     1
 71
     1
  0
GROUP
  5
A81
102
{ACAD_REACTORS
330
1A
102
}
330
1A
100
AcDbGroup
300

 70
     1
 71
     1
  0
GROUP
  5
A82
102
{ACAD_REACTORS
330
1A
102
}
330
1A
100
AcDbGroup
300

 70
     1
 71
     1
  0
GROUP
  5
A83
102
{ACAD_REACTORS
330
1A
102
}
330
1A
100
AcDbGroup
300

 70
     1
 71
     1
  0
LAYOUT
  5
21
102
{ACAD_XDICTIONARY
360
BF1
102
}
102
{ACAD_REACTORS
330
1E
102
}
330
1E
100
AcDbPlotSettings
  1

  2

  4

  6

 40
0.0
 41
0.0
 42
0.0
 43
0.0
 44
0.0
 45
0.0
 46
0.0
 47
0.0
 48
0.0
 49
0.0
140
0.0
141
0.0
142
1.0
143
1.0
 70
     0
 72
     0
 73
     0
 74
     0
  7

 75
     0
147
1.0
148
0.0
149
0.0
100
AcDbLayout
  1
Layout1
 70
     1
 71
     1
 10
0.0
 20
0.0
 11
420.0
 21
297.0
 12
0.0
 22
0.0
 32
0.0
 14
0.0
 24
0.0
 34
0.0
 15
331.7937319999999
 25
74.207825
 35
2.0
146
0.0
 13
0.0
 23
0.0
 33
0.0
 16
1.0
 26
0.0
 36
0.0
 17
0.0
 27
1.0
 37
0.0
 76
     0
330
B
331
2B
  0
LAYOUT
  5
20
102
{ACAD_XDICTIONARY
360
BEF
102
}
102
{ACAD_REACTORS
330
1E
102
}
330
1E
100
AcDbPlotSettings
  1

  2

  4

  6

 40
0.0
 41
0.0
 42
0.0
 43
0.0
 44
0.0
 45
0.0
 46
0.0
 47
0.0
 48
0.0
 49
0.0
140
0.0
141
0.0
142
1.0
143
1.0
 70
  1024
 72
     0
 73
     0
 74
     0
  7

 75
     0
147
1.0
148
0.0
149
0.0
100
AcDbLayout
  1
Model
 70
     0
 71
     0
 10
0.0
 20
0.0
 11
0.0
 21
0.0
 12
0.0
 22
0.0
 32
0.0
 14
0.0
 24
0.0
 34
0.0
 15
0.0
 25
0.0
 35
0.0
146
0.0
 13
0.0
 23
0.0
 33
0.0
 16
0.0
 26
0.0
 36
0.0
 17
0.0
 27
0.0
 37
0.0
 76
     0
330
A
331
8AF
  0
MATERIAL
  5
48E
102
{ACAD_XDICTIONARY
360
48F
102
}
102
{ACAD_REACTORS
330
10E
102
}
330
10E
100
AcDbMaterial
  1
ByBlock
  0
MATERIAL
  5
491
102
{ACAD_XDICTIONARY
360
492
102
}
102
{ACAD_REACTORS
330
10E
102
}
330
10E
100
AcDbMaterial
  1
ByLayer
  0
MATERIAL
  5
494
102
{ACAD_XDICTIONARY
360
495
102
}
102
{ACAD_REACTORS
330
10E
102
}
330
10E
100
AcDbMaterial
  1
Global
  0
MLEADERSTYLE
  5
8E2
102
{ACAD_REACTORS
330
8E1
102
}
330
8E1
100
AcDbMLeaderStyle
170
     2
171
     1
172
     0
 90
        2
 40
0.0
 41
0.0
173
     1
 91
-1056964608
340
11
 92
       -2
290
     1
 42
2.0
291
     1
 43
0.36
  3
Standard
 44
4.0
300

342
17
174
     1
178
     6
175
     1
176
     0
 93
-1056964608
 45
4.0
292
     0
297
     0
 46
4.0
 94
-1056964608
 47
1.0
 49
1.0
140
1.0
293
     1
141
0.0
294
     1
177
     0
142
1.0
295
     0
296
     0
143
0.125
1001
ACAD_MLEADERVER
1070
     2
  0
MLINESTYLE
  5
1C
102
{ACAD_REACTORS
330
1B
102
}
330
1B
100
AcDbMlineStyle
  2
STANDARD
 70
     0
  3

 62
     0
 51
90.0
 52
90.0
 71
     2
 49
0.5
 62
   256
  6
BYLAYER
 49
-0.5
 62
   256
  6
BYLAYER
  0
ACDBPLACEHOLDER
  5
1D
102
{ACAD_REACTORS
330
1F
102
}
330
1F
  0
SCALE
  5
8D0
102
{ACAD_REACTORS
330
8CF
102
}
330
8CF
100
AcDbScale
 70
     0
300
1:1
140
1.0
141
1.0
290
     1
  0
SCALE
  5
8D1
102
{ACAD_REACTORS
330
8CF
102
}
330
8CF
100
AcDbScale
 70
     0
300
1:2
140
1.0
141
2.0
290
     0
  0
SCALE
  5
8D2
102
{ACAD_REACTORS
330
8CF
102
}
330
8CF
100
AcDbScale
 70
     0
300
1:4
140
1.0
141
4.0
290
     0
  0
SCALE
  5
8D3
102
{ACAD_REACTORS
330
8CF
102
}
330
8CF
100
AcDbScale
 70
     0
300
1:5
140
1.0
141
5.0
290
     0
  0
SCALE
  5
8D4
102
{ACAD_REACTORS
330
8CF
102
}
330
8CF
100
AcDbScale
 70
     0
300
1:8
140
1.0
141
8.0
290
     0
  0
SCALE
  5
8D5
102
{ACAD_REACTORS
330
8CF
102
}
330
8CF
100
AcDbScale
 70
     0
300
1:10
140
1.0
141
10.0
290
     0
  0
SCALE
  5
8D6
102
{ACAD_REACTORS
330
8CF
102
}
330
8CF
100
AcDbScale
 70
     0
300
1:16
140
1.0
141
16.0
290
     0
  0
SCALE
  5
8D7
102
{ACAD_REACTORS
330
8CF
102
}
330
8CF
100
AcDbScale
 70
     0
300
1:20
140
1.0
141
20.0
290
     0
  0
SCALE
  5
8D8
102
{ACAD_REACTORS
330
8CF
102
}
330
8CF
100
AcDbScale
 70
     0
300
1:30
140
1.0
141
30.0
290
     0
  0
SCALE
  5
8D9
102
{ACAD_REACTORS
330
8CF
102
}
330
8CF
100
AcDbScale
 70
     0
300
1:40
140
1.0
141
40.0
290
     0
  0
SCALE
  5
8DA
102
{ACAD_REACTORS
330
8CF
102
}
330
8CF
100
AcDbScale
 70
     0
300
1:50
140
1.0
141
50.0
290
     0
  0
SCALE
  5
8DB
102
{ACAD_REACTORS
330
8CF
102
}
330
8CF
100
AcDbScale
 70
     0
300
1:100
140
1.0
141
100.0
290
     0
  0
SCALE
  5
8DC
102
{ACAD_REACTORS
330
8CF
102
}
330
8CF
100
AcDbScale
 70
     0
300
2:1
140
2.0
141
1.0
290
     0
  0
SCALE
  5
8DD
102
{ACAD_REACTORS
330
8CF
102
}
330
8CF
100
AcDbScale
 70
     0
300
4:1
140
4.0
141
1.0
290
     0
  0
SCALE
  5
8DE
102
{ACAD_REACTORS
330
8CF
102
}
330
8CF
100
AcDbScale
 70
     0
300
8:1
140
8.0
141
1.0
290
     0
  0
SCALE
  5
8DF
102
{ACAD_REACTORS
330
8CF
102
}
330
8CF
100
AcDbScale
 70
     0
300
10:1
140
10.0
141
1.0
290
     0
  0
SCALE
  5
8E0
102
{ACAD_REACTORS
330
8CF
102
}
330
8CF
100
AcDbScale
 70
     0
300
100:1
140
100.0
141
1.0
290
     0
  0
TABLESTYLE
  5
111
102
{ACAD_XDICTIONARY
360
99A
102
}
102
{ACAD_REACTORS
330
110
102
}
330
110
100
AcDbTableStyle
  3
Standard
 70
     0
 71
     0
 40
1.5
 41
1.5
280
     0
281
     0
  7
STANDARD
140
4.5
170
     2
 62
     0
 63
     7
283
     0
274
    -2
284
     1
 64
     0
275
    -2
285
     1
 65
     0
276
    -2
286
     1
 66
     0
277
    -2
287
     1
 67
     0
278
    -2
288
     1
 68
     0
279
    -2
289
     1
 69
     0
  7
STANDARD
140
6.0
170
     5
 62
     0
 63
     7
283
     0
274
    -2
284
     1
 64
     0
275
    -2
285
     1
 65
     0
276
    -2
286
     1
 66
     0
277
    -2
287
     1
 67
     0
278
    -2
288
     1
 68
     0
279
    -2
289
     1
 69
     0
  7
STANDARD
140
4.5
170
     5
 62
     0
 63
     7
283
     0
274
    -2
284
     1
 64
     0
275
    -2
285
     1
 65
     0
276
    -2
286
     1
 66
     0
277
    -2
287
     1
 67
     0
278
    -2
288
     1
 68
     0
279
    -2
289
     1
 69
     0
  0
VISUALSTYLE
  5
8C1
102
{ACAD_XDICTIONARY
360
C02
102
}
102
{ACAD_REACTORS
330
8BB
102
}
330
8BB
100
AcDbVisualStyle
  2

 70
     4
 71
     0
 72
     2
 73
     0
 90
        0
 40
-0.6
 41
-30.0
 62
     5
 63
     7
 74
     1
 91
        4
 64
     7
 65
   257
 75
     1
175
     1
 42
1.0
 92
        0
 66
   257
 43
1.0
 76
     1
 77
     6
 78
     2
 67
     7
 79
     5
170
     0
171
     0
290
     0
174
     0
 93
        1
 44
0.0
173
     0
291
     0
 45
0.0
1001
ACAD
1000
AcDbSavedByObjectVersion
1070
     0
  0
VISUALSTYLE
  5
8C3
102
{ACAD_XDICTIONARY
360
C06
102
}
102
{ACAD_REACTORS
330
8BB
102
}
330
8BB
100
AcDbVisualStyle
  2

 70
     6
 71
     1
 72
     2
 73
     2
 90
        0
 40
-0.6
 41
-30.0
 62
     5
 63
     7
 74
     2
 91
        2
 64
     7
 65
   257
 75
     2
175
     1
 42
179.0
 92
        0
 66
   257
 43
1.0
 76
     1
 77
     6
 78
     2
 67
     7
 79
     3
170
     0
171
     0
290
     0
174
     0
 93
        1
 44
0.0
173
     0
291
     0
 45
0.0
1001
ACAD
1000
AcDbSavedByObjectVersion
1070
     0
  0
VISUALSTYLE
  5
8C2
102
{ACAD_XDICTIONARY
360
C04
102
}
102
{ACAD_REACTORS
330
8BB
102
}
330
8BB
100
AcDbVisualStyle
  2

 70
     5
 71
     0
 72
     2
 73
     0
 90
        0
 40
-0.6
 41
-30.0
 62
     5
 63
     7
 74
     1
 91
        4
 64
     7
 65
   257
 75
     1
175
     1
 42
1.0
 92
        0
 66
   257
 43
1.0
 76
     1
 77
     6
 78
     2
 67
     7
 79
     5
170
     0
171
     0
290
     0
174
     0
 93
        1
 44
0.0
173
     0
291
     0
 45
0.0
1001
ACAD
1000
AcDbSavedByObjectVersion
1070
     0
  0
VISUALSTYLE
  5
8C0
102
{ACAD_XDICTIONARY
360
C00
102
}
102
{ACAD_REACTORS
330
8BB
102
}
330
8BB
100
AcDbVisualStyle
  2

 70
     7
 71
     1
 72
     0
 73
     1
 90
        0
 40
-0.6
 41
-30.0
 62
     5
 63
     7
 74
     0
 91
        4
 64
     7
 65
   257
 75
     1
175
     1
 42
1.0
 92
        8
 66
     7
 43
1.0
 76
     1
 77
     6
 78
     2
 67
     7
 79
     5
170
     0
171
     0
290
     0
174
     0
 93
        1
 44
0.0
173
     0
291
     1
 45
0.0
1001
ACAD
1000
AcDbSavedByObjectVersion
1070
     0
  0
VISUALSTYLE
  5
8C7
102
{ACAD_XDICTIONARY
360
C0E
102
}
102
{ACAD_REACTORS
330
8BB
102
}
330
8BB
100
AcDbVisualStyle
  2

 70
    12
 71
     2
 72
     2
 73
     0
 90
        0
 40
-0.6
 41
-30.0
 62
     5
 63
     7
 74
     1
 91
        4
 64
     7
 65
   257
 75
     1
175
     1
 42
1.0
 92
        8
 66
     7
 43
1.0
 76
     1
 77
     6
 78
     2
 67
     7
 79
     5
170
     0
171
     0
290
     0
174
     0
 93
        1
 44
50.0
173
     0
291
     1
 45
0.0
1001
ACAD
1000
AcDbSavedByObjectVersion
1070
     0
  0
VISUALSTYLE
  5
8CB
102
{ACAD_XDICTIONARY
360
C16
102
}
102
{ACAD_REACTORS
330
8BB
102
}
330
8BB
100
AcDbVisualStyle
  2

 70
    16
 71
     2
 72
     2
 73
     3
 90
        0
 40
-0.6
 41
-30.0
 62
     5
 63
     8
 74
     1
 91
        4
 64
     7
 65
   257
 75
     1
175
     1
 42
1.0
 92
        8
 66
     8
 43
1.0
 76
     1
 77
     6
 78
     2
 67
     7
 79
     5
170
     0
171
     0
290
     0
174
     0
 93
        1
 44
0.0
173
     0
291
     1
 45
0.0
1001
ACAD
1000
AcDbSavedByObjectVersion
1070
     0
  0
VISUALSTYLE
  5
8C4
102
{ACAD_XDICTIONARY
360
C08
102
}
102
{ACAD_REACTORS
330
8BB
102
}
330
8BB
100
AcDbVisualStyle
  2

 70
     9
 71
     3
 72
     2
 73
     0
 90
        0
 40
-0.6
 41
-30.0
 62
     5
 63
     7
 74
     2
 91
        2
 64
     7
 65
   257
 75
     1
175
     1
 42
179.0
 92
        8
 66
     7
 43
1.0
 76
     1
 77
     6
 78
     2
 67
     7
 79
     3
170
     0
171
     0
290
     0
174
     0
 93
        1
 44
0.0
173
     0
291
     0
 45
0.0
1001
ACAD
1000
AcDbSavedByObjectVersion
1070
     0
  0
VISUALSTYLE
  5
8C6
102
{ACAD_XDICTIONARY
360
C0C
102
}
102
{ACAD_REACTORS
330
8BB
102
}
330
8BB
100
AcDbVisualStyle
  2

 70
    11
 71
     2
 72
     2
 73
     0
 90
        0
 40
-0.6
 41
-30.0
 62
     5
 63
     7
 74
     1
 91
        4
 64
     7
 65
   257
 75
     1
175
     1
 42
1.0
 92
        8
 66
     7
 43
1.0
 76
     1
 77
     6
 78
     2
 67
     7
 79
     5
170
     0
171
     0
290
     0
174
     0
 93
        1
 44
-50.0
173
     0
291
     1
 45
0.0
1001
ACAD
1000
AcDbSavedByObjectVersion
1070
     0
  0
VISUALSTYLE
  5
8CE
102
{ACAD_XDICTIONARY
360
C1C
102
}
102
{ACAD_REACTORS
330
8BB
102
}
330
8BB
100
AcDbVisualStyle
  2

 70
    22
 71
     2
 72
     2
 73
     0
 90
        0
 40
-0.6
 41
-30.0
 62
     5
 63
     7
 74
     1
 91
        4
 64
     7
 65
   257
 75
     1
175
     1
 42
1.0
 92
        8
 66
     7
 43
1.0
 76
     1
 77
     6
 78
     2
 67
     7
 79
     5
170
     0
171
     0
290
     0
174
     0
 93
        1
 44
0.0
173
     0
291
     1
 45
0.0
1001
ACAD
1000
AcDbSavedByObjectVersion
1070
     0
  0
VISUALSTYLE
  5
8CA
102
{ACAD_XDICTIONARY
360
C14
102
}
102
{ACAD_REACTORS
330
8BB
102
}
330
8BB
100
AcDbVisualStyle
  2

 70
    15
 71
     2
 72
     2
 73
     0
 90
        0
 40
-0.6
 41
-30.0
 62
     5
 63
     7
 74
     1
 91
        4
 64
     7
 65
   257
 75
     1
175
     1
 42
1.0
 92
        8
 66
     7
 43
1.0
 76
     1
 77
     6
 78
     2
 67
     7
 79
     5
170
     0
171
     0
290
     0
174
     0
 93
        1
 44
0.0
173
     0
291
     1
 45
0.0
1001
ACAD
1000
AcDbSavedByObjectVersion
1070
     0
  0
VISUALSTYLE
  5
8BC
102
{ACAD_XDICTIONARY
360
BF8
102
}
102
{ACAD_REACTORS
330
8BB
102
}
330
8BB
100
AcDbVisualStyle
  2

 70
     0
 71
     2
 72
     1
 73
     1
 90
        2
 40
-0.6
 41
30.0
 62
     5
 63
     7
 74
     0
 91
        4
 64
     7
 65
   257
 75
     1
175
     1
 42
1.0
 92
        8
 66
     7
 43
1.0
 76
     1
 77
     6
 78
     2
 67
     7
 79
     5
170
     0
171
     0
290
     0
174
     0
 93
       13
 44
0.0
173
     0
291
     1
 45
0.0
1001
ACAD
1000
AcDbSavedByObjectVersion
1070
     0
  0
VISUALSTYLE
  5
8BD
102
{ACAD_XDICTIONARY
360
BFA
102
}
102
{ACAD_REACTORS
330
8BB
102
}
330
8BB
100
AcDbVisualStyle
  2

 70
     1
 71
     2
 72
     1
 73
     1
 90
        2
 40
-0.6
 41
30.0
 62
     5
 63
     7
 74
     1
 91
        4
 64
     7
 65
   257
 75
     1
175
     1
 42
1.0
 92
        0
 66
   257
 43
1.0
 76
     1
 77
     6
 78
     2
 67
     7
 79
     5
170
     0
171
     0
290
     0
174
     0
 93
       13
 44
0.0
173
     0
291
     1
 45
0.0
1001
ACAD
1000
AcDbSavedByObjectVersion
1070
     0
  0
VISUALSTYLE
  5
8BE
102
{ACAD_XDICTIONARY
360
BFC
102
}
102
{ACAD_REACTORS
330
8BB
102
}
330
8BB
100
AcDbVisualStyle
  2

 70
     2
 71
     2
 72
     2
 73
     1
 90
        2
 40
-0.6
 41
30.0
 62
     5
 63
     7
 74
     0
 91
        4
 64
     7
 65
   257
 75
     1
175
     1
 42
1.0
 92
        0
 66
     7
 43
1.0
 76
     1
 77
     6
 78
     2
 67
     7
 79
     5
170
     0
171
     0
290
     0
174
     0
 93
       13
 44
0.0
173
     0
291
     1
 45
0.0
1001
ACAD
1000
AcDbSavedByObjectVersion
1070
     0
  0
VISUALSTYLE
  5
8BF
102
{ACAD_XDICTIONARY
360
BFE
102
}
102
{ACAD_REACTORS
330
8BB
102
}
330
8BB
100
AcDbVisualStyle
  2

 70
     3
 71
     2
 72
     2
 73
     1
 90
        2
 40
-0.6
 41
30.0
 62
     5
 63
     7
 74
     1
 91
        4
 64
     7
 65
   257
 75
     1
175
     1
 42
1.0
 92
        0
 66
   257
 43
1.0
 76
     1
 77
     6
 78
     2
 67
     7
 79
     5
170
     0
171
     0
290
     0
174
     0
 93
       13
 44
0.0
173
     0
291
     1
 45
0.0
1001
ACAD
1000
AcDbSavedByObjectVersion
1070
     0
  0
VISUALSTYLE
  5
8CC
102
{ACAD_XDICTIONARY
360
C18
102
}
102
{ACAD_REACTORS
330
8BB
102
}
330
8BB
100
AcDbVisualStyle
  2

 70
    20
 71
     2
 72
     2
 73
     0
 90
        0
 40
-0.6
 41
-30.0
 62
     5
 63
     7
 74
     1
 91
        4
 64
     7
 65
   257
 75
     1
175
     1
 42
1.0
 92
       10
 66
     7
 43
1.0
 76
     1
 77
     6
 78
     2
 67
     7
 79
     5
170
     0
171
     0
290
     0
174
     0
 93
        1
 44
0.0
173
     0
291
     1
 45
0.0
1001
ACAD
1000
AcDbSavedByObjectVersion
1070
     0
  0
VISUALSTYLE
  5
8C9
102
{ACAD_XDICTIONARY
360
C12
102
}
102
{ACAD_REACTORS
330
8BB
102
}
330
8BB
100
AcDbVisualStyle
  2

 70
    14
 71
     2
 72
     2
 73
     0
 90
        0
 40
-0.6
 41
-30.0
 62
     5
 63
     7
 74
     1
 91
        4
 64
     7
 65
   257
 75
     7
175
     7
 42
1.0
 92
        8
 66
     7
 43
1.0
 76
     1
 77
     6
 78
     2
 67
     7
 79
     5
170
     0
171
     0
290
     0
174
     0
 93
        1
 44
0.0
173
     0
291
     1
 45
0.0
1001
ACAD
1000
AcDbSavedByObjectVersion
1070
     0
  0
VISUALSTYLE
  5
8CD
102
{ACAD_XDICTIONARY
360
C1A
102
}
102
{ACAD_REACTORS
330
8BB
102
}
330
8BB
100
AcDbVisualStyle
  2

 70
    21
 71
     2
 72
     2
 73
     0
 90
        0
 40
-0.6
 41
-30.0
 62
     5
 63
     7
 74
     1
 91
        4
 64
     7
 65
   257
 75
     1
175
     1
 42
1.0
 92
        9
 66
     7
 43
1.0
 76
     1
 77
     6
 78
     2
 67
     7
 79
     5
170
     0
171
     0
290
     0
174
     0
 93
        1
 44
0.0
173
     0
291
     1
 45
0.0
1001
ACAD
1000
AcDbSavedByObjectVersion
1070
     0
  0
VISUALSTYLE
  5
8C5
102
{ACAD_XDICTIONARY
360
C0A
102
}
102
{ACAD_REACTORS
330
8BB
102
}
330
8BB
100
AcDbVisualStyle
  2

 70
     8
 71
     2
 72
     2
 73
     0
 90
        0
 40
-0.6
 41
-30.0
 62
     5
 63
     7
 74
     1
 91
        0
 64
     7
 65
   257
 75
     1
175
     1
 42
1.0
 92
        8
 66
     8
 43
1.0
 76
     1
 77
     6
 78
     2
 67
     7
 79
     5
170
     0
171
     0
290
     0
174
     0
 93
       13
 44
0.0
173
     0
291
     0
 45
0.0
1001
ACAD
1000
AcDbSavedByObjectVersion
1070
     0
  0
VISUALSTYLE
  5
8C8
102
{ACAD_XDICTIONARY
360
C10
102
}
102
{ACAD_REACTORS
330
8BB
102
}
330
8BB
100
AcDbVisualStyle
  2

 70
    13
 71
     2
 72
     2
 73
     0
 90
        0
 40
-0.6
 41
-30.0
 62
     5
 63
     7
 74
     1
 91
        4
 64
     7
 65
   257
 75
     1
175
     1
 42
1.0
 92
       12
 66
     7
 43
1.0
 76
     1
 77
     6
 78
     2
 67
     7
 79
     5
170
     0
171
     0
290
     0
174
     0
 93
        1
 44
0.0
173
     0
291
     1
 45
0.0
1001
ACAD
1000
AcDbSavedByObjectVersion
1070
     0
  0
DICTIONARYVAR
  5
996
102
{ACAD_REACTORS
330
53B
102
}
330
53B
100
DictionaryVariables
280
     0
  1
1:1
  0
DICTIONARYVAR
  5
995
102
{ACAD_REACTORS
330
53B
102
}
330
53B
100
DictionaryVariables
280
     0
  1
STANDARD
  0
DICTIONARYVAR
  5
53C
102
{ACAD_REACTORS
330
53B
102
}
330
53B
100
DictionaryVariables
280
     0
  1
STANDARD
  0
DICTIONARYVAR
  5
8AD
102
{ACAD_REACTORS
330
53B
102
}
330
53B
100
DictionaryVariables
280
     0
  1
1
  0
DICTIONARYVAR
  5
998
102
{ACAD_REACTORS
330
53B
102
}
330
53B
100
DictionaryVariables
280
     0
  1
0
  0
DICTIONARYVAR
  5
8AE
102
{ACAD_REACTORS
330
53B
102
}
330
53B
100
DictionaryVariables
280
     0
  1

  0
DICTIONARYVAR
  5
997
102
{ACAD_REACTORS
330
53B
102
}
330
53B
100
DictionaryVariables
280
     0
  1
127
  0
DICTIONARYVAR
  5
BE8
102
{ACAD_REACTORS
330
53B
102
}
330
53B
100
DictionaryVariables
280
     0
  1
2
  0
XRECORD
  5
BE4
102
{ACAD_XDICTIONARY
360
BE5
102
}
102
{ACAD_REACTORS
330
498
102
}
330
498
100
AcDbXrecord
280
     1
 91
      535
301

290
     0
302
0
330
A7D
 90
        8
 62
     5
370
    25
331
13
390
1D
330
479
 90
        8
 62
     4
370
    50
331
13
390
1D
330
478
 90
        8
 62
     4
370
    50
331
13
390
1D
330
474
 90
        8
 62
     9
370
    18
331
13
390
1D
330
46D
 90
        0
 62
     7
370
    25
331
13
390
1D
330
46A
 90
        8
 62
     5
370
    -3
331
13
390
1D
330
467
 90
        8
 62
     2
370
    25
331
456
390
1D
330
464
 90
        8
 62
     2
370
    25
331
456
390
1D
330
45E
 90
        8
 62
     7
370
    25
331
13
390
1D
330
45B
 90
        8
 62
     7
370
    25
331
13
390
1D
330
458
 90
        8
 62
     4
370
    50
331
13
390
1D
330
14
 90
        8
 62
     7
370
    -3
331
13
390
1D
  0
DICTIONARY
  5
BF1
330
21
100
AcDbDictionary
280
     1
281
     1
  3
ACAD_XREC_ROUNDTRIP
360
BF2
  0
DICTIONARY
  5
BEF
330
20
100
AcDbDictionary
280
     1
281
     1
  3
ACAD_XREC_ROUNDTRIP
360
BF0
  0
DICTIONARY
  5
48F
330
48E
100
AcDbDictionary
280
     1
281
     1
  3
ACAD_XREC_ROUNDTRIP
360
490
  0
DICTIONARY
  5
492
330
491
100
AcDbDictionary
280
     1
281
     1
  3
ACAD_XREC_ROUNDTRIP
360
493
  0
DICTIONARY
  5
495
330
494
100
AcDbDictionary
280
     1
281
     1
  3
ACAD_XREC_ROUNDTRIP
360
496
  0
DICTIONARY
  5
99A
330
111
100
AcDbDictionary
280
     1
281
     1
  3
ACAD_ROUNDTRIP_2008_TABLESTYLE_CELLSTYLEMAP
360
BE9
  3
ACAD_XREC_ROUNDTRIP
360
BF5
  0
DICTIONARY
  5
C02
330
8C1
100
AcDbDictionary
280
     1
281
     1
  3
ACAD_XREC_ROUNDTRIP
360
C03
  0
DICTIONARY
  5
C06
330
8C3
100
AcDbDictionary
280
     1
281
     1
  3
ACAD_XREC_ROUNDTRIP
360
C07
  0
DICTIONARY
  5
C04
330
8C2
100
AcDbDictionary
280
     1
281
     1
  3
ACAD_XREC_ROUNDTRIP
360
C05
  0
DICTIONARY
  5
C00
330
8C0
100
AcDbDictionary
280
     1
281
     1
  3
ACAD_XREC_ROUNDTRIP
360
C01
  0
DICTIONARY
  5
C0E
330
8C7
100
AcDbDictionary
280
     1
281
     1
  3
ACAD_XREC_ROUNDTRIP
360
C0F
  0
DICTIONARY
  5
C16
330
8CB
100
AcDbDictionary
280
     1
281
     1
  3
ACAD_XREC_ROUNDTRIP
360
C17
  0
DICTIONARY
  5
C08
330
8C4
100
AcDbDictionary
280
     1
281
     1
  3
ACAD_XREC_ROUNDTRIP
360
C09
  0
DICTIONARY
  5
C0C
330
8C6
100
AcDbDictionary
280
     1
281
     1
  3
ACAD_XREC_ROUNDTRIP
360
C0D
  0
DICTIONARY
  5
C1C
330
8CE
100
AcDbDictionary
280
     1
281
     1
  3
ACAD_XREC_ROUNDTRIP
360
C1D
  0
DICTIONARY
  5
C14
330
8CA
100
AcDbDictionary
280
     1
281
     1
  3
ACAD_XREC_ROUNDTRIP
360
C15
  0
DICTIONARY
  5
BF8
330
8BC
100
AcDbDictionary
280
     1
281
     1
  3
ACAD_XREC_ROUNDTRIP
360
BF9
  0
DICTIONARY
  5
BFA
330
8BD
100
AcDbDictionary
280
     1
281
     1
  3
ACAD_XREC_ROUNDTRIP
360
BFB
  0
DICTIONARY
  5
BFC
330
8BE
100
AcDbDictionary
280
     1
281
     1
  3
ACAD_XREC_ROUNDTRIP
360
BFD
  0
DICTIONARY
  5
BFE
330
8BF
100
AcDbDictionary
280
     1
281
     1
  3
ACAD_XREC_ROUNDTRIP
360
BFF
  0
DICTIONARY
  5
C18
330
8CC
100
AcDbDictionary
280
     1
281
     1
  3
ACAD_XREC_ROUNDTRIP
360
C19
  0
DICTIONARY
  5
C12
330
8C9
100
AcDbDictionary
280
     1
281
     1
  3
ACAD_XREC_ROUNDTRIP
360
C13
  0
DICTIONARY
  5
C1A
330
8CD
100
AcDbDictionary
280
     1
281
     1
  3
ACAD_XREC_ROUNDTRIP
360
C1B
  0
DICTIONARY
  5
C0A
330
8C5
100
AcDbDictionary
280
     1
281
     1
  3
ACAD_XREC_ROUNDTRIP
360
C0B
  0
DICTIONARY
  5
C10
330
8C8
100
AcDbDictionary
280
     1
281
     1
  3
ACAD_XREC_ROUNDTRIP
360
C11
  0
DICTIONARY
  5
BE5
330
BE4
100
AcDbDictionary
280
     1
281
     1
  3
AcadLayerStateAnnoScale
360
BE6
  0
XRECORD
  5
BF2
102
{ACAD_REACTORS
330
BF1
102
}
330
BF1
100
AcDbXrecord
280
     1
102
SHADEPLOT
 70
     0
102
SHADEPLOTRESLEVEL
 70
     2
102
SHADEPLOTCUSTOMDPI
 70
   300
  0
XRECORD
  5
BF0
102
{ACAD_REACTORS
330
BEF
102
}
330
BEF
100
AcDbXrecord
280
     1
102
SHADEPLOT
 70
     0
102
SHADEPLOTRESLEVEL
 70
     2
102
SHADEPLOTCUSTOMDPI
 70
   300
  0
XRECORD
  5
490
102
{ACAD_REACTORS
330
48F
102
}
330
48F
100
AcDbXrecord
280
     1
102
MATERIAL
148
0.0
149
0.0
149
0.0
 93
        0
 94
      127
282
     0
 72
     1
 77
     1
171
     1
175
     1
179
     1
273
     0
  0
XRECORD
  5
493
102
{ACAD_REACTORS
330
492
102
}
330
492
100
AcDbXrecord
280
     1
102
MATERIAL
148
0.0
149
0.0
149
0.0
 93
        0
 94
      127
282
     0
 72
     1
 77
     1
171
     1
175
     1
179
     1
273
     0
  0
XRECORD
  5
496
102
{ACAD_REACTORS
330
495
102
}
330
495
100
AcDbXrecord
280
     1
102
MATERIAL
148
0.0
149
0.0
149
0.0
 93
        0
 94
      127
282
     0
 72
     1
 77
     1
171
     1
175
     1
179
     1
273
     0
  0
CELLSTYLEMAP
  5
BE9
102
{ACAD_REACTORS
330
99A
102
}
330
99A
100
AcDbCellStyleMap
 90
        3
300
CELLSTYLE
  1
TABLEFORMAT_BEGIN
 90
        5
170
     1
 91
        0
 92
    32768
 62
   257
 93
        1
300
CONTENTFORMAT
  1
CONTENTFORMAT_BEGIN
 90
        0
 91
        0
 92
        4
 93
        0
300

 40
0.0
140
1.0
 94
        5
 62
     0
340
17
144
6.0
309
CONTENTFORMAT_END
171
     1
301
MARGIN
  1
CELLMARGIN_BEGIN
 40
1.5
 40
1.5
 40
1.5
 40
1.5
 40
0.18
 40
0.18
309
CELLMARGIN_END
 94
        6
 95
        1
302
GRIDFORMAT
  1
GRIDFORMAT_BEGIN
 90
        0
 91
        1
 62
     0
 92
       -2
340
0
 93
        0
 40
0.045
309
GRIDFORMAT_END
 95
        2
302
GRIDFORMAT
  1
GRIDFORMAT_BEGIN
 90
        0
 91
        1
 62
     0
 92
       -2
340
0
 93
        0
 40
0.045
309
GRIDFORMAT_END
 95
        4
302
GRIDFORMAT
  1
GRIDFORMAT_BEGIN
 90
        0
 91
        1
 62
     0
 92
       -2
340
0
 93
        0
 40
0.045
309
GRIDFORMAT_END
 95
        8
302
GRIDFORMAT
  1
GRIDFORMAT_BEGIN
 90
        0
 91
        1
 62
     0
 92
       -2
340
0
 93
        0
 40
0.045
309
GRIDFORMAT_END
 95
       16
302
GRIDFORMAT
  1
GRIDFORMAT_BEGIN
 90
        0
 91
        1
 62
     0
 92
       -2
340
0
 93
        0
 40
0.045
309
GRIDFORMAT_END
 95
       32
302
GRIDFORMAT
  1
GRIDFORMAT_BEGIN
 90
        0
 91
        1
 62
     0
 92
       -2
340
0
 93
        0
 40
0.045
309
GRIDFORMAT_END
309
TABLEFORMAT_END
  1
CELLSTYLE_BEGIN
 90
        1
 91
        1
300
_TITLE
309
CELLSTYLE_END
300
CELLSTYLE
  1
TABLEFORMAT_BEGIN
 90
        5
170
     1
 91
        0
 92
        0
 62
   257
 93
        1
300
CONTENTFORMAT
  1
CONTENTFORMAT_BEGIN
 90
        0
 91
        0
 92
        4
 93
        0
300

 40
0.0
140
1.0
 94
        5
 62
     0
340
17
144
4.5
309
CONTENTFORMAT_END
171
     1
301
MARGIN
  1
CELLMARGIN_BEGIN
 40
1.5
 40
1.5
 40
1.5
 40
1.5
 40
0.18
 40
0.18
309
CELLMARGIN_END
 94
        6
 95
        1
302
GRIDFORMAT
  1
GRIDFORMAT_BEGIN
 90
        0
 91
        1
 62
     0
 92
       -2
340
0
 93
        0
 40
0.045
309
GRIDFORMAT_END
 95
        2
302
GRIDFORMAT
  1
GRIDFORMAT_BEGIN
 90
        0
 91
        1
 62
     0
 92
       -2
340
0
 93
        0
 40
0.045
309
GRIDFORMAT_END
 95
        4
302
GRIDFORMAT
  1
GRIDFORMAT_BEGIN
 90
        0
 91
        1
 62
     0
 92
       -2
340
0
 93
        0
 40
0.045
309
GRIDFORMAT_END
 95
        8
302
GRIDFORMAT
  1
GRIDFORMAT_BEGIN
 90
        0
 91
        1
 62
     0
 92
       -2
340
0
 93
        0
 40
0.045
309
GRIDFORMAT_END
 95
       16
302
GRIDFORMAT
  1
GRIDFORMAT_BEGIN
 90
        0
 91
        1
 62
     0
 92
       -2
340
0
 93
        0
 40
0.045
309
GRIDFORMAT_END
 95
       32
302
GRIDFORMAT
  1
GRIDFORMAT_BEGIN
 90
        0
 91
        1
 62
     0
 92
       -2
340
0
 93
        0
 40
0.045
309
GRIDFORMAT_END
309
TABLEFORMAT_END
  1
CELLSTYLE_BEGIN
 90
        2
 91
        1
300
_HEADER
309
CELLSTYLE_END
300
CELLSTYLE
  1
TABLEFORMAT_BEGIN
 90
        5
170
     1
 91
        0
 92
        0
 62
   257
 93
        1
300
CONTENTFORMAT
  1
CONTENTFORMAT_BEGIN
 90
        0
 91
        0
 92
        4
 93
        0
300

 40
0.0
140
1.0
 94
        2
 62
     0
340
17
144
4.5
309
CONTENTFORMAT_END
171
     1
301
MARGIN
  1
CELLMARGIN_BEGIN
 40
1.5
 40
1.5
 40
1.5
 40
1.5
 40
0.18
 40
0.18
309
CELLMARGIN_END
 94
        6
 95
        1
302
GRIDFORMAT
  1
GRIDFORMAT_BEGIN
 90
        0
 91
        1
 62
     0
 92
       -2
340
0
 93
        0
 40
0.045
309
GRIDFORMAT_END
 95
        2
302
GRIDFORMAT
  1
GRIDFORMAT_BEGIN
 90
        0
 91
        1
 62
     0
 92
       -2
340
0
 93
        0
 40
0.045
309
GRIDFORMAT_END
 95
        4
302
GRIDFORMAT
  1
GRIDFORMAT_BEGIN
 90
        0
 91
        1
 62
     0
 92
       -2
340
0
 93
        0
 40
0.045
309
GRIDFORMAT_END
 95
        8
302
GRIDFORMAT
  1
GRIDFORMAT_BEGIN
 90
        0
 91
        1
 62
     0
 92
       -2
340
0
 93
        0
 40
0.045
309
GRIDFORMAT_END
 95
       16
302
GRIDFORMAT
  1
GRIDFORMAT_BEGIN
 90
        0
 91
        1
 62
     0
 92
       -2
340
0
 93
        0
 40
0.045
309
GRIDFORMAT_END
 95
       32
302
GRIDFORMAT
  1
GRIDFORMAT_BEGIN
 90
        0
 91
        1
 62
     0
 92
       -2
340
0
 93
        0
 40
0.045
309
GRIDFORMAT_END
309
TABLEFORMAT_END
  1
CELLSTYLE_BEGIN
 90
        3
 91
        2
300
_DATA
309
CELLSTYLE_END
  0
XRECORD
  5
BF5
102
{ACAD_REACTORS
330
99A
102
}
330
99A
100
AcDbXrecord
280
     1
102
ACAD_ROUNDTRIP_PRE2007_TABLESTYLE
 90
        4
 91
        0
  1

 92
        4
 93
        0
  2

 94
        4
 95
        0
  3

  0
XRECORD
  5
C03
102
{ACAD_REACTORS
330
C02
102
}
330
C02
100
AcDbXrecord
280
     1
102
RTVSPropertyOp0
 70
     1
102
RTVSPropertyOp1
 70
     1
102
RTVSPropertyOp2
 70
     1
102
RTVSPropertyOp3
 70
     1
102
RTVSPropertyOp4
 70
     1
102
RTVSPropertyOp5
 70
     1
102
RTVSPropertyOp6
 70
     1
102
RTVSPropertyOp7
 70
     1
102
RTVSPropertyOp8
 70
     1
102
RTVSPropertyOp9
 70
     1
102
RTVSPropertyOp10
 70
     1
102
RTVSPropertyOp11
 70
     1
102
RTVSPropertyOp12
 70
     1
102
RTVSPropertyOp13
 70
     1
102
RTVSPropertyOp14
 70
     1
102
RTVSPropertyOp15
 70
     1
102
RTVSPropertyOp16
 70
     1
102
RTVSPropertyOp17
 70
     1
102
RTVSPropertyOp18
 70
     1
102
RTVSPropertyOp19
 70
     1
102
RTVSPropertyOp20
 70
     1
102
RTVSPropertyOp21
 70
     1
102
RTVSPropertyOp22
 70
     1
102
RTVSPropertyOp23
 70
     1
102
RTVSPropertyOp24
 70
     1
102
RTVSPropertyOp25
 70
     1
102
RTVSPropertyOp26
 70
     1
102
RTVSPropertyOp27
 70
     1
  0
XRECORD
  5
C07
102
{ACAD_REACTORS
330
C06
102
}
330
C06
100
AcDbXrecord
280
     1
102
RTVSPropertyOp0
 70
     1
102
RTVSPropertyOp1
 70
     1
102
RTVSPropertyOp2
 70
     1
102
RTVSPropertyOp3
 70
     1
102
RTVSPropertyOp4
 70
     1
102
RTVSPropertyOp5
 70
     1
102
RTVSPropertyOp6
 70
     1
102
RTVSPropertyOp7
 70
     1
102
RTVSPropertyOp8
 70
     1
102
RTVSPropertyOp9
 70
     1
102
RTVSPropertyOp10
 70
     1
102
RTVSPropertyOp11
 70
     1
102
RTVSPropertyOp12
 70
     1
102
RTVSPropertyOp13
 70
     1
102
RTVSPropertyOp14
 70
     1
102
RTVSPropertyOp15
 70
     1
102
RTVSPropertyOp16
 70
     1
102
RTVSPropertyOp17
 70
     1
102
RTVSPropertyOp18
 70
     1
102
RTVSPropertyOp19
 70
     1
102
RTVSPropertyOp20
 70
     1
102
RTVSPropertyOp21
 70
     1
102
RTVSPropertyOp22
 70
     1
102
RTVSPropertyOp23
 70
     1
102
RTVSPropertyOp24
 70
     1
102
RTVSPropertyOp25
 70
     1
102
RTVSPropertyOp26
 70
     1
102
RTVSPropertyOp27
 70
     1
  0
XRECORD
  5
C05
102
{ACAD_REACTORS
330
C04
102
}
330
C04
100
AcDbXrecord
280
     1
102
RTVSPropertyOp0
 70
     1
102
RTVSPropertyOp1
 70
     1
102
RTVSPropertyOp2
 70
     1
102
RTVSPropertyOp3
 70
     1
102
RTVSPropertyOp4
 70
     1
102
RTVSPropertyOp5
 70
     1
102
RTVSPropertyOp6
 70
     1
102
RTVSPropertyOp7
 70
     1
102
RTVSPropertyOp8
 70
     1
102
RTVSPropertyOp9
 70
     1
102
RTVSPropertyOp10
 70
     1
102
RTVSPropertyOp11
 70
     1
102
RTVSPropertyOp12
 70
     1
102
RTVSPropertyOp13
 70
     1
102
RTVSPropertyOp14
 70
     1
102
RTVSPropertyOp15
 70
     1
102
RTVSPropertyOp16
 70
     1
102
RTVSPropertyOp17
 70
     1
102
RTVSPropertyOp18
 70
     1
102
RTVSPropertyOp19
 70
     1
102
RTVSPropertyOp20
 70
     1
102
RTVSPropertyOp21
 70
     1
102
RTVSPropertyOp22
 70
     1
102
RTVSPropertyOp23
 70
     1
102
RTVSPropertyOp24
 70
     1
102
RTVSPropertyOp25
 70
     1
102
RTVSPropertyOp26
 70
     1
102
RTVSPropertyOp27
 70
     1
  0
XRECORD
  5
C01
102
{ACAD_REACTORS
330
C00
102
}
330
C00
100
AcDbXrecord
280
     1
102
RTVSPropertyOp0
 70
     1
102
RTVSPropertyOp1
 70
     1
102
RTVSPropertyOp2
 70
     1
102
RTVSPropertyOp3
 70
     1
102
RTVSPropertyOp4
 70
     1
102
RTVSPropertyOp5
 70
     1
102
RTVSPropertyOp6
 70
     1
102
RTVSPropertyOp7
 70
     1
102
RTVSPropertyOp8
 70
     1
102
RTVSPropertyOp9
 70
     1
102
RTVSPropertyOp10
 70
     1
102
RTVSPropertyOp11
 70
     1
102
RTVSPropertyOp12
 70
     1
102
RTVSPropertyOp13
 70
     1
102
RTVSPropertyOp14
 70
     1
102
RTVSPropertyOp15
 70
     1
102
RTVSPropertyOp16
 70
     1
102
RTVSPropertyOp17
 70
     1
102
RTVSPropertyOp18
 70
     1
102
RTVSPropertyOp19
 70
     1
102
RTVSPropertyOp20
 70
     1
102
RTVSPropertyOp21
 70
     1
102
RTVSPropertyOp22
 70
     1
102
RTVSPropertyOp23
 70
     1
102
RTVSPropertyOp24
 70
     1
102
RTVSPropertyOp25
 70
     1
102
RTVSPropertyOp26
 70
     1
102
RTVSPropertyOp27
 70
     1
  0
XRECORD
  5
C0F
102
{ACAD_REACTORS
330
C0E
102
}
330
C0E
100
AcDbXrecord
280
     1
102
RTVSPropertyOp0
 70
     1
102
RTVSPropertyOp1
 70
     1
102
RTVSPropertyOp2
 70
     1
102
RTVSPropertyOp3
 70
     1
102
RTVSPropertyOp4
 70
     1
102
RTVSPropertyOp5
 70
     1
102
RTVSPropertyOp6
 70
     1
102
RTVSPropertyOp7
 70
     1
102
RTVSPropertyOp8
 70
     1
102
RTVSPropertyOp9
 70
     1
102
RTVSPropertyOp10
 70
     1
102
RTVSPropertyOp11
 70
     1
102
RTVSPropertyOp12
 70
     1
102
RTVSPropertyOp13
 70
     1
102
RTVSPropertyOp14
 70
     1
102
RTVSPropertyOp15
 70
     1
102
RTVSPropertyOp16
 70
     1
102
RTVSPropertyOp17
 70
     1
102
RTVSPropertyOp18
 70
     1
102
RTVSPropertyOp19
 70
     1
102
RTVSPropertyOp20
 70
     1
102
RTVSPropertyOp21
 70
     1
102
RTVSPropertyOp22
 70
     1
102
RTVSPropertyOp23
 70
     1
102
RTVSPropertyOp24
 70
     1
102
RTVSPropertyOp25
 70
     1
102
RTVSPropertyOp26
 70
     1
102
RTVSPropertyOp27
 70
     1
  0
XRECORD
  5
C17
102
{ACAD_REACTORS
330
C16
102
}
330
C16
100
AcDbXrecord
280
     1
102
RTVSPropertyOp0
 70
     1
102
RTVSPropertyOp1
 70
     1
102
RTVSPropertyOp2
 70
     1
102
RTVSPropertyOp3
 70
     1
102
RTVSPropertyOp4
 70
     1
102
RTVSPropertyOp5
 70
     1
102
RTVSPropertyOp6
 70
     1
102
RTVSPropertyOp7
 70
     1
102
RTVSPropertyOp8
 70
     1
102
RTVSPropertyOp9
 70
     1
102
RTVSPropertyOp10
 70
     1
102
RTVSPropertyOp11
 70
     1
102
RTVSPropertyOp12
 70
     1
102
RTVSPropertyOp13
 70
     1
102
RTVSPropertyOp14
 70
     1
102
RTVSPropertyOp15
 70
     1
102
RTVSPropertyOp16
 70
     1
102
RTVSPropertyOp17
 70
     1
102
RTVSPropertyOp18
 70
     1
102
RTVSPropertyOp19
 70
     1
102
RTVSPropertyOp20
 70
     1
102
RTVSPropertyOp21
 70
     1
102
RTVSPropertyOp22
 70
     1
102
RTVSPropertyOp23
 70
     1
102
RTVSPropertyOp24
 70
     1
102
RTVSPropertyOp25
 70
     1
102
RTVSPropertyOp26
 70
     1
102
RTVSPropertyOp27
 70
     1
  0
XRECORD
  5
C09
102
{ACAD_REACTORS
330
C08
102
}
330
C08
100
AcDbXrecord
280
     1
102
RTVSPropertyOp0
 70
     1
102
RTVSPropertyOp1
 70
     1
102
RTVSPropertyOp2
 70
     1
102
RTVSPropertyOp3
 70
     1
102
RTVSPropertyOp4
 70
     1
102
RTVSPropertyOp5
 70
     1
102
RTVSPropertyOp6
 70
     1
102
RTVSPropertyOp7
 70
     1
102
RTVSPropertyOp8
 70
     1
102
RTVSPropertyOp9
 70
     1
102
RTVSPropertyOp10
 70
     1
102
RTVSPropertyOp11
 70
     1
102
RTVSPropertyOp12
 70
     1
102
RTVSPropertyOp13
 70
     1
102
RTVSPropertyOp14
 70
     1
102
RTVSPropertyOp15
 70
     1
102
RTVSPropertyOp16
 70
     1
102
RTVSPropertyOp17
 70
     1
102
RTVSPropertyOp18
 70
     1
102
RTVSPropertyOp19
 70
     1
102
RTVSPropertyOp20
 70
     1
102
RTVSPropertyOp21
 70
     1
102
RTVSPropertyOp22
 70
     1
102
RTVSPropertyOp23
 70
     1
102
RTVSPropertyOp24
 70
     1
102
RTVSPropertyOp25
 70
     1
102
RTVSPropertyOp26
 70
     1
102
RTVSPropertyOp27
 70
     1
  0
XRECORD
  5
C0D
102
{ACAD_REACTORS
330
C0C
102
}
330
C0C
100
AcDbXrecord
280
     1
102
RTVSPropertyOp0
 70
     1
102
RTVSPropertyOp1
 70
     1
102
RTVSPropertyOp2
 70
     1
102
RTVSPropertyOp3
 70
     1
102
RTVSPropertyOp4
 70
     1
102
RTVSPropertyOp5
 70
     1
102
RTVSPropertyOp6
 70
     1
102
RTVSPropertyOp7
 70
     1
102
RTVSPropertyOp8
 70
     1
102
RTVSPropertyOp9
 70
     1
102
RTVSPropertyOp10
 70
     1
102
RTVSPropertyOp11
 70
     1
102
RTVSPropertyOp12
 70
     1
102
RTVSPropertyOp13
 70
     1
102
RTVSPropertyOp14
 70
     1
102
RTVSPropertyOp15
 70
     1
102
RTVSPropertyOp16
 70
     1
102
RTVSPropertyOp17
 70
     1
102
RTVSPropertyOp18
 70
     1
102
RTVSPropertyOp19
 70
     1
102
RTVSPropertyOp20
 70
     1
102
RTVSPropertyOp21
 70
     1
102
RTVSPropertyOp22
 70
     1
102
RTVSPropertyOp23
 70
     1
102
RTVSPropertyOp24
 70
     1
102
RTVSPropertyOp25
 70
     1
102
RTVSPropertyOp26
 70
     1
102
RTVSPropertyOp27
 70
     1
  0
XRECORD
  5
C1D
102
{ACAD_REACTORS
330
C1C
102
}
330
C1C
100
AcDbXrecord
280
     1
102
RTVSPropertyOp0
 70
     0
102
RTVSPropertyOp1
 70
     0
102
RTVSPropertyOp2
 70
     0
102
RTVSPropertyOp3
 70
     0
102
RTVSPropertyOp4
 70
     0
102
RTVSPropertyOp5
 70
     0
102
RTVSPropertyOp6
 70
     0
102
RTVSPropertyOp7
 70
     0
102
RTVSPropertyOp8
 70
     0
102
RTVSPropertyOp9
 70
     0
102
RTVSPropertyOp10
 70
     0
102
RTVSPropertyOp11
 70
     0
102
RTVSPropertyOp12
 70
     0
102
RTVSPropertyOp13
 70
     0
102
RTVSPropertyOp14
 70
     2
102
RTVSPropertyOp15
 70
     0
102
RTVSPropertyOp16
 70
     0
102
RTVSPropertyOp17
 70
     0
102
RTVSPropertyOp18
 70
     0
102
RTVSPropertyOp19
 70
     0
102
RTVSPropertyOp20
 70
     0
102
RTVSPropertyOp21
 70
     0
102
RTVSPropertyOp22
 70
     0
102
RTVSPropertyOp23
 70
     0
102
RTVSPropertyOp24
 70
     0
102
RTVSPropertyOp25
 70
     0
102
RTVSPropertyOp26
 70
     0
102
RTVSPropertyOp27
 70
     0
  0
XRECORD
  5
C15
102
{ACAD_REACTORS
330
C14
102
}
330
C14
100
AcDbXrecord
280
     1
102
RTVSPropertyOp0
 70
     1
102
RTVSPropertyOp1
 70
     1
102
RTVSPropertyOp2
 70
     1
102
RTVSPropertyOp3
 70
     1
102
RTVSPropertyOp4
 70
     1
102
RTVSPropertyOp5
 70
     1
102
RTVSPropertyOp6
 70
     1
102
RTVSPropertyOp7
 70
     1
102
RTVSPropertyOp8
 70
     1
102
RTVSPropertyOp9
 70
     1
102
RTVSPropertyOp10
 70
     1
102
RTVSPropertyOp11
 70
     1
102
RTVSPropertyOp12
 70
     1
102
RTVSPropertyOp13
 70
     1
102
RTVSPropertyOp14
 70
     1
102
RTVSPropertyOp15
 70
     1
102
RTVSPropertyOp16
 70
     1
102
RTVSPropertyOp17
 70
     1
102
RTVSPropertyOp18
 70
     1
102
RTVSPropertyOp19
 70
     1
102
RTVSPropertyOp20
 70
     1
102
RTVSPropertyOp21
 70
     1
102
RTVSPropertyOp22
 70
     1
102
RTVSPropertyOp23
 70
     1
102
RTVSPropertyOp24
 70
     1
102
RTVSPropertyOp25
 70
     1
102
RTVSPropertyOp26
 70
     1
102
RTVSPropertyOp27
 70
     1
  0
XRECORD
  5
BF9
102
{ACAD_REACTORS
330
BF8
102
}
330
BF8
100
AcDbXrecord
280
     1
102
RTVSPropertyOp0
 70
     1
102
RTVSPropertyOp1
 70
     1
102
RTVSPropertyOp2
 70
     1
102
RTVSPropertyOp3
 70
     1
102
RTVSPropertyOp4
 70
     1
102
RTVSPropertyOp5
 70
     1
102
RTVSPropertyOp6
 70
     1
102
RTVSPropertyOp7
 70
     1
102
RTVSPropertyOp8
 70
     1
102
RTVSPropertyOp9
 70
     1
102
RTVSPropertyOp10
 70
     1
102
RTVSPropertyOp11
 70
     1
102
RTVSPropertyOp12
 70
     1
102
RTVSPropertyOp13
 70
     1
102
RTVSPropertyOp14
 70
     1
102
RTVSPropertyOp15
 70
     1
102
RTVSPropertyOp16
 70
     1
102
RTVSPropertyOp17
 70
     1
102
RTVSPropertyOp18
 70
     1
102
RTVSPropertyOp19
 70
     1
102
RTVSPropertyOp20
 70
     1
102
RTVSPropertyOp21
 70
     1
102
RTVSPropertyOp22
 70
     1
102
RTVSPropertyOp23
 70
     1
102
RTVSPropertyOp24
 70
     1
102
RTVSPropertyOp25
 70
     1
102
RTVSPropertyOp26
 70
     1
102
RTVSPropertyOp27
 70
     1
  0
XRECORD
  5
BFB
102
{ACAD_REACTORS
330
BFA
102
}
330
BFA
100
AcDbXrecord
280
     1
102
RTVSPropertyOp0
 70
     1
102
RTVSPropertyOp1
 70
     1
102
RTVSPropertyOp2
 70
     1
102
RTVSPropertyOp3
 70
     1
102
RTVSPropertyOp4
 70
     1
102
RTVSPropertyOp5
 70
     1
102
RTVSPropertyOp6
 70
     1
102
RTVSPropertyOp7
 70
     1
102
RTVSPropertyOp8
 70
     1
102
RTVSPropertyOp9
 70
     1
102
RTVSPropertyOp10
 70
     1
102
RTVSPropertyOp11
 70
     1
102
RTVSPropertyOp12
 70
     1
102
RTVSPropertyOp13
 70
     1
102
RTVSPropertyOp14
 70
     1
102
RTVSPropertyOp15
 70
     1
102
RTVSPropertyOp16
 70
     1
102
RTVSPropertyOp17
 70
     1
102
RTVSPropertyOp18
 70
     1
102
RTVSPropertyOp19
 70
     1
102
RTVSPropertyOp20
 70
     1
102
RTVSPropertyOp21
 70
     1
102
RTVSPropertyOp22
 70
     1
102
RTVSPropertyOp23
 70
     1
102
RTVSPropertyOp24
 70
     1
102
RTVSPropertyOp25
 70
     1
102
RTVSPropertyOp26
 70
     1
102
RTVSPropertyOp27
 70
     1
  0
XRECORD
  5
BFD
102
{ACAD_REACTORS
330
BFC
102
}
330
BFC
100
AcDbXrecord
280
     1
102
RTVSPropertyOp0
 70
     1
102
RTVSPropertyOp1
 70
     1
102
RTVSPropertyOp2
 70
     1
102
RTVSPropertyOp3
 70
     1
102
RTVSPropertyOp4
 70
     1
102
RTVSPropertyOp5
 70
     1
102
RTVSPropertyOp6
 70
     1
102
RTVSPropertyOp7
 70
     1
102
RTVSPropertyOp8
 70
     1
102
RTVSPropertyOp9
 70
     1
102
RTVSPropertyOp10
 70
     1
102
RTVSPropertyOp11
 70
     1
102
RTVSPropertyOp12
 70
     1
102
RTVSPropertyOp13
 70
     1
102
RTVSPropertyOp14
 70
     1
102
RTVSPropertyOp15
 70
     1
102
RTVSPropertyOp16
 70
     1
102
RTVSPropertyOp17
 70
     1
102
RTVSPropertyOp18
 70
     1
102
RTVSPropertyOp19
 70
     1
102
RTVSPropertyOp20
 70
     1
102
RTVSPropertyOp21
 70
     1
102
RTVSPropertyOp22
 70
     1
102
RTVSPropertyOp23
 70
     1
102
RTVSPropertyOp24
 70
     1
102
RTVSPropertyOp25
 70
     1
102
RTVSPropertyOp26
 70
     1
102
RTVSPropertyOp27
 70
     1
  0
XRECORD
  5
BFF
102
{ACAD_REACTORS
330
BFE
102
}
330
BFE
100
AcDbXrecord
280
     1
102
RTVSPropertyOp0
 70
     1
102
RTVSPropertyOp1
 70
     1
102
RTVSPropertyOp2
 70
     1
102
RTVSPropertyOp3
 70
     1
102
RTVSPropertyOp4
 70
     1
102
RTVSPropertyOp5
 70
     1
102
RTVSPropertyOp6
 70
     1
102
RTVSPropertyOp7
 70
     1
102
RTVSPropertyOp8
 70
     1
102
RTVSPropertyOp9
 70
     1
102
RTVSPropertyOp10
 70
     1
102
RTVSPropertyOp11
 70
     1
102
RTVSPropertyOp12
 70
     1
102
RTVSPropertyOp13
 70
     1
102
RTVSPropertyOp14
 70
     1
102
RTVSPropertyOp15
 70
     1
102
RTVSPropertyOp16
 70
     1
102
RTVSPropertyOp17
 70
     1
102
RTVSPropertyOp18
 70
     1
102
RTVSPropertyOp19
 70
     1
102
RTVSPropertyOp20
 70
     1
102
RTVSPropertyOp21
 70
     1
102
RTVSPropertyOp22
 70
     1
102
RTVSPropertyOp23
 70
     1
102
RTVSPropertyOp24
 70
     1
102
RTVSPropertyOp25
 70
     1
102
RTVSPropertyOp26
 70
     1
102
RTVSPropertyOp27
 70
     1
  0
XRECORD
  5
C19
102
{ACAD_REACTORS
330
C18
102
}
330
C18
100
AcDbXrecord
280
     1
102
RTVSPropertyOp0
 70
     0
102
RTVSPropertyOp1
 70
     0
102
RTVSPropertyOp2
 70
     0
102
RTVSPropertyOp3
 70
     0
102
RTVSPropertyOp4
 70
     0
102
RTVSPropertyOp5
 70
     0
102
RTVSPropertyOp6
 70
     0
102
RTVSPropertyOp7
 70
     0
102
RTVSPropertyOp8
 70
     0
102
RTVSPropertyOp9
 70
     0
102
RTVSPropertyOp10
 70
     0
102
RTVSPropertyOp11
 70
     0
102
RTVSPropertyOp12
 70
     0
102
RTVSPropertyOp13
 70
     0
102
RTVSPropertyOp14
 70
     2
102
RTVSPropertyOp15
 70
     0
102
RTVSPropertyOp16
 70
     0
102
RTVSPropertyOp17
 70
     0
102
RTVSPropertyOp18
 70
     0
102
RTVSPropertyOp19
 70
     0
102
RTVSPropertyOp20
 70
     0
102
RTVSPropertyOp21
 70
     0
102
RTVSPropertyOp22
 70
     0
102
RTVSPropertyOp23
 70
     0
102
RTVSPropertyOp24
 70
     0
102
RTVSPropertyOp25
 70
     0
102
RTVSPropertyOp26
 70
     0
102
RTVSPropertyOp27
 70
     0
  0
XRECORD
  5
C13
102
{ACAD_REACTORS
330
C12
102
}
330
C12
100
AcDbXrecord
280
     1
102
RTVSPropertyOp0
 70
     1
102
RTVSPropertyOp1
 70
     1
102
RTVSPropertyOp2
 70
     1
102
RTVSPropertyOp3
 70
     1
102
RTVSPropertyOp4
 70
     1
102
RTVSPropertyOp5
 70
     1
102
RTVSPropertyOp6
 70
     1
102
RTVSPropertyOp7
 70
     1
102
RTVSPropertyOp8
 70
     1
102
RTVSPropertyOp9
 70
     1
102
RTVSPropertyOp10
 70
     1
102
RTVSPropertyOp11
 70
     1
102
RTVSPropertyOp12
 70
     1
102
RTVSPropertyOp13
 70
     1
102
RTVSPropertyOp14
 70
     1
102
RTVSPropertyOp15
 70
     1
102
RTVSPropertyOp16
 70
     1
102
RTVSPropertyOp17
 70
     1
102
RTVSPropertyOp18
 70
     1
102
RTVSPropertyOp19
 70
     1
102
RTVSPropertyOp20
 70
     1
102
RTVSPropertyOp21
 70
     1
102
RTVSPropertyOp22
 70
     1
102
RTVSPropertyOp23
 70
     1
102
RTVSPropertyOp24
 70
     1
102
RTVSPropertyOp25
 70
     1
102
RTVSPropertyOp26
 70
     1
102
RTVSPropertyOp27
 70
     1
  0
XRECORD
  5
C1B
102
{ACAD_REACTORS
330
C1A
102
}
330
C1A
100
AcDbXrecord
280
     1
102
RTVSPropertyOp0
 70
     0
102
RTVSPropertyOp1
 70
     0
102
RTVSPropertyOp2
 70
     0
102
RTVSPropertyOp3
 70
     0
102
RTVSPropertyOp4
 70
     0
102
RTVSPropertyOp5
 70
     0
102
RTVSPropertyOp6
 70
     0
102
RTVSPropertyOp7
 70
     0
102
RTVSPropertyOp8
 70
     0
102
RTVSPropertyOp9
 70
     0
102
RTVSPropertyOp10
 70
     0
102
RTVSPropertyOp11
 70
     0
102
RTVSPropertyOp12
 70
     0
102
RTVSPropertyOp13
 70
     0
102
RTVSPropertyOp14
 70
     2
102
RTVSPropertyOp15
 70
     0
102
RTVSPropertyOp16
 70
     0
102
RTVSPropertyOp17
 70
     0
102
RTVSPropertyOp18
 70
     0
102
RTVSPropertyOp19
 70
     0
102
RTVSPropertyOp20
 70
     0
102
RTVSPropertyOp21
 70
     0
102
RTVSPropertyOp22
 70
     0
102
RTVSPropertyOp23
 70
     0
102
RTVSPropertyOp24
 70
     0
102
RTVSPropertyOp25
 70
     0
102
RTVSPropertyOp26
 70
     0
102
RTVSPropertyOp27
 70
     0
  0
XRECORD
  5
C0B
102
{ACAD_REACTORS
330
C0A
102
}
330
C0A
100
AcDbXrecord
280
     1
102
RTVSPropertyOp0
 70
     1
102
RTVSPropertyOp1
 70
     1
102
RTVSPropertyOp2
 70
     1
102
RTVSPropertyOp3
 70
     1
102
RTVSPropertyOp4
 70
     1
102
RTVSPropertyOp5
 70
     1
102
RTVSPropertyOp6
 70
     1
102
RTVSPropertyOp7
 70
     1
102
RTVSPropertyOp8
 70
     1
102
RTVSPropertyOp9
 70
     1
102
RTVSPropertyOp10
 70
     1
102
RTVSPropertyOp11
 70
     1
102
RTVSPropertyOp12
 70
     1
102
RTVSPropertyOp13
 70
     1
102
RTVSPropertyOp14
 70
     1
102
RTVSPropertyOp15
 70
     1
102
RTVSPropertyOp16
 70
     1
102
RTVSPropertyOp17
 70
     1
102
RTVSPropertyOp18
 70
     1
102
RTVSPropertyOp19
 70
     1
102
RTVSPropertyOp20
 70
     1
102
RTVSPropertyOp21
 70
     1
102
RTVSPropertyOp22
 70
     1
102
RTVSPropertyOp23
 70
     1
102
RTVSPropertyOp24
 70
     1
102
RTVSPropertyOp25
 70
     1
102
RTVSPropertyOp26
 70
     1
102
RTVSPropertyOp27
 70
     1
  0
XRECORD
  5
C11
102
{ACAD_REACTORS
330
C10
102
}
330
C10
100
AcDbXrecord
280
     1
102
RTVSPropertyOp0
 70
     1
102
RTVSPropertyOp1
 70
     1
102
RTVSPropertyOp2
 70
     1
102
RTVSPropertyOp3
 70
     1
102
RTVSPropertyOp4
 70
     1
102
RTVSPropertyOp5
 70
     1
102
RTVSPropertyOp6
 70
     1
102
RTVSPropertyOp7
 70
     1
102
RTVSPropertyOp8
 70
     1
102
RTVSPropertyOp9
 70
     1
102
RTVSPropertyOp10
 70
     1
102
RTVSPropertyOp11
 70
     1
102
RTVSPropertyOp12
 70
     1
102
RTVSPropertyOp13
 70
     1
102
RTVSPropertyOp14
 70
     1
102
RTVSPropertyOp15
 70
     1
102
RTVSPropertyOp16
 70
     1
102
RTVSPropertyOp17
 70
     1
102
RTVSPropertyOp18
 70
     1
102
RTVSPropertyOp19
 70
     1
102
RTVSPropertyOp20
 70
     1
102
RTVSPropertyOp21
 70
     1
102
RTVSPropertyOp22
 70
     1
102
RTVSPropertyOp23
 70
     1
102
RTVSPropertyOp24
 70
     1
102
RTVSPropertyOp25
 70
     1
102
RTVSPropertyOp26
 70
     1
102
RTVSPropertyOp27
 70
     1
  0
XRECORD
  5
BE6
102
{ACAD_REACTORS
330
BE5
102
}
330
BE5
100
AcDbXrecord
280
     1
330
8D0
  0
ENDSEC
  0
EOF
