  0
SECTION
  2
HEADER
  9
$ACADVER
  1
AC1015
  9
$ACADMAINTVER
 70
    10
  9
$DWGCODEPAGE
  3
ANSI_1252
  9
$INSBASE
 10
0.0
 20
0.0
 30
0.0
  9
$EXTMIN
 10
-281.9482806792491
 20
-58.39608905198099
 30
-0.0000000000000109
  9
$EXTMAX
 10
99.10874583909913
 20
37.45830291570735
 30
0.0000000000000044
  9
$LIMMIN
 10
0.0
 20
0.0
  9
$LIMMAX
 10
420.0
 20
297.0
  9
$ORTHOMODE
 70
     1
  9
$REGENMODE
 70
     1
  9
$FILLMODE
 70
     1
  9
$QTEXTMODE
 70
     0
  9
$MIRRTEXT
 70
     1
  9
$LTSCALE
 40
1.0
  9
$ATTMODE
 70
     1
  9
$TEXTSIZE
 40
0.0
  9
$TRACEWID
 40
1.0
  9
$TEXTSTYLE
  7
STANDARD
  9
$CLAYER
  8
0
  9
$CELTYPE
  6
ByLayer
  9
$CECOLOR
 62
   256
  9
$CELTSCALE
 40
1.0
  9
$DISPSILH
 70
     0
  9
$DIMSCALE
 40
1.0
  9
$DIMASZ
 40
2.5
  9
$DIMEXO
 40
0.625
  9
$DIMDLI
 40
3.75
  9
$DIMRND
 40
0.0
  9
$DIMDLE
 40
0.0
  9
$DIMEXE
 40
1.25
  9
$DIMTP
 40
0.0
  9
$DIMTM
 40
0.0
  9
$DIMTXT
 40
3.5
  9
$DIMCEN
 40
2.5
  9
$DIMTSZ
 40
0.0
  9
$DIMTOL
 70
     0
  9
$DIMLIM
 70
     0
  9
$DIMTIH
 70
     0
  9
$DIMTOH
 70
     0
  9
$DIMSE1
 70
     0
  9
$DIMSE2
 70
     0
  9
$DIMTAD
 70
     1
  9
$DIMZIN
 70
     8
  9
$DIMBLK
  1

  9
$DIMASO
 70
     1
  9
$DIMSHO
 70
     1
  9
$DIMPOST
  1

  9
$DIMAPOST
  1

  9
$DIMALT
 70
     0
  9
$DIMALTD
 70
     3
  9
$DIMALTF
 40
0.03937
  9
$DIMLFAC
 40
1.0
  9
$DIMTOFL
 70
     0
  9
$DIMTVP
 40
0.0
  9
$DIMTIX
 70
     0
  9
$DIMSOXD
 70
     0
  9
$DIMSAH
 70
     0
  9
$DIMBLK1
  1

  9
$DIMBLK2
  1

  9
$DIMSTYLE
  2
STANDARD
  9
$DIMCLRD
 70
     0
  9
$DIMCLRE
 70
     0
  9
$DIMCLRT
 70
     0
  9
$DIMTFAC
 40
1.0
  9
$DIMGAP
 40
0.625
  9
$DIMJUST
 70
     0
  9
$DIMSD1
 70
     0
  9
$DIMSD2
 70
     0
  9
$DIMTOLJ
 70
     0
  9
$DIMTZIN
 70
     8
  9
$DIMALTZ
 70
     0
  9
$DIMALTTZ
 70
     0
  9
$DIMUPT
 70
     0
  9
$DIMDEC
 70
     1
  9
$DIMTDEC
 70
     1
  9
$DIMALTU
 70
     2
  9
$DIMALTTD
 70
     3
  9
$DIMTXSTY
  7
STANDARD
  9
$DIMAUNIT
 70
     0
  9
$DIMADEC
 70
     0
  9
$DIMALTRND
 40
0.0
  9
$DIMAZIN
 70
     0
  9
$DIMDSEP
 70
    46
  9
$DIMATFIT
 70
     3
  9
$DIMFRAC
 70
     0
  9
$DIMLDRBLK
  1

  9
$DIMLUNIT
 70
     2
  9
$DIMLWD
 70
    -2
  9
$DIMLWE
 70
    -2
  9
$DIMTMOVE
 70
     0
  9
$LUNITS
 70
     2
  9
$LUPREC
 70
     4
  9
$SKETCHINC
 40
1.0
  9
$FILLETRAD
 40
2.5
  9
$AUNITS
 70
     0
  9
$AUPREC
 70
     0
  9
$MENU
  1
.
  9
$ELEVATION
 40
0.0
  9
$PELEVATION
 40
0.0
  9
$THICKNESS
 40
0.0
  9
$LIMCHECK
 70
     0
  9
$CHAMFERA
 40
2.5
  9
$CHAMFERB
 40
2.5
  9
$CHAMFERC
 40
0.0
  9
$CHAMFERD
 40
0.0
  9
$SKPOLY
 70
     0
  9
$TDCREATE
 40
2455379.087587708
  9
$TDUCREATE
 40
2455379.045921041
  9
$TDUPDATE
 40
2455511.318402164
  9
$TDUUPDATE
 40
2455511.276735498
  9
$TDINDWG
 40
0.1507393171
  9
$TDUSRTIMER
 40
0.1507384028
  9
$USRTIMER
 70
     1
  9
$ANGBASE
 50
0.0
  9
$ANGDIR
 70
     0
  9
$PDMODE
 70
     0
  9
$PDSIZE
 40
0.0
  9
$PLINEWID
 40
0.0
  9
$SPLFRAME
 70
     0
  9
$SPLINETYPE
 70
     6
  9
$SPLINESEGS
 70
     8
  9
$HANDSEED
  5
D90
  9
$SURFTAB1
 70
     6
  9
$SURFTAB2
 70
     6
  9
$SURFTYPE
 70
     6
  9
$SURFU
 70
     6
  9
$SURFV
 70
     6
  9
$UCSBASE
  2

  9
$UCSNAME
  2

  9
$UCSORG
 10
0.0
 20
0.0
 30
0.0
  9
$UCSXDIR
 10
1.0
 20
0.0
 30
0.0
  9
$UCSYDIR
 10
0.0
 20
1.0
 30
0.0
  9
$UCSORTHOREF
  2

  9
$UCSORTHOVIEW
 70
     0
  9
$UCSORGTOP
 10
243.8816351898211
 20
48.61333875306335
 30
0.0
  9
$UCSORGBOTTOM
 10
0.0
 20
0.0
 30
0.0
  9
$UCSORGLEFT
 10
0.0
 20
0.0
 30
0.0
  9
$UCSORGRIGHT
 10
0.0
 20
0.0
 30
0.0
  9
$UCSORGFRONT
 10
0.0
 20
0.0
 30
0.0
  9
$UCSORGBACK
 10
0.0
 20
0.0
 30
0.0
  9
$PUCSBASE
  2

  9
$PUCSNAME
  2

  9
$PUCSORG
 10
0.0
 20
0.0
 30
0.0
  9
$PUCSXDIR
 10
1.0
 20
0.0
 30
0.0
  9
$PUCSYDIR
 10
0.0
 20
1.0
 30
0.0
  9
$PUCSORTHOREF
  2

  9
$PUCSORTHOVIEW
 70
     0
  9
$PUCSORGTOP
 10
0.0
 20
0.0
 30
0.0
  9
$PUCSORGBOTTOM
 10
0.0
 20
0.0
 30
0.0
  9
$PUCSORGLEFT
 10
0.0
 20
0.0
 30
0.0
  9
$PUCSORGRIGHT
 10
0.0
 20
0.0
 30
0.0
  9
$PUCSORGFRONT
 10
0.0
 20
0.0
 30
0.0
  9
$PUCSORGBACK
 10
0.0
 20
0.0
 30
0.0
  9
$USERI1
 70
     0
  9
$USERI2
 70
     0
  9
$USERI3
 70
     0
  9
$USERI4
 70
     0
  9
$USERI5
 70
     0
  9
$USERR1
 40
0.0
  9
$USERR2
 40
0.0
  9
$USERR3
 40
0.0
  9
$USERR4
 40
0.0
  9
$USERR5
 40
0.0
  9
$WORLDVIEW
 70
     1
  9
$SHADEDGE
 70
     3
  9
$SHADEDIF
 70
    70
  9
$TILEMODE
 70
     1
  9
$MAXACTVP
 70
    48
  9
$PINSBASE
 10
0.0
 20
0.0
 30
0.0
  9
$PLIMCHECK
 70
     0
  9
$PEXTMIN
 10
0.0
 20
0.0
 30
0.0
  9
$PEXTMAX
 10
324.3201899999999
 20
85.87714400000001
 30
2.0
  9
$PLIMMIN
 10
0.0
 20
0.0
  9
$PLIMMAX
 10
420.0
 20
297.0
  9
$UNITMODE
 70
     0
  9
$VISRETAIN
 70
     0
  9
$PLINEGEN
 70
     0
  9
$PSLTSCALE
 70
     1
  9
$TREEDEPTH
 70
  3020
  9
$CMLSTYLE
  2
Standard
  9
$CMLJUST
 70
     0
  9
$CMLSCALE
 40
20.0
  9
$PROXYGRAPHICS
 70
     1
  9
$MEASUREMENT
 70
     1
  9
$CELWEIGHT
370
    -1
  9
$ENDCAPS
280
     0
  9
$JOINSTYLE
280
     0
  9
$LWDISPLAY
290
     0
  9
$INSUNITS
 70
     0
  9
$HYPERLINKBASE
  1

  9
$STYLESHEET
  1

  9
$XEDIT
290
     1
  9
$CEPSNTYPE
380
     0
  9
$PSTYLEMODE
290
     0
  9
$FINGERPRINTGUID
  2

  9
$VERSIONGUID
  2
{C9765DCB-353F-4C09-8D3F-6E1688768F26}
  9
$EXTNAMES
290
     0
  9
$PSVPSCALE
 40
0.0
  9
$OLESTARTUP
290
     0
  0
ENDSEC
  0
SECTION
  2
CLASSES
  0
CLASS
  1
IMAGE
  2
AcDbRasterImage
  3
ISM
 90
    34943
280
     0
281
     1
  0
CLASS
  1
DICTIONARYVAR
  2
AcDbDictionaryVar
  3
AutoCAD 2000
 90
        0
280
     0
281
     0
  0
CLASS
  1
RASTERVARIABLES
  2
AcDbRasterVariables
  3
ISM
 90
    32768
280
     0
281
     0
  0
CLASS
  1
IMAGEDEF
  2
AcDbRasterImageDef
  3
ISM
 90
    32768
280
     0
281
     0
  0
CLASS
  1
IMAGEDEF_REACTOR
  2
AcDbRasterImageDefReactor
  3
ISM
 90
    32769
280
     0
281
     0
  0
CLASS
  1
IDBUFFER
  2
AcDbIdBuffer
  3
AutoCAD 2000
 90
    32768
280
     0
281
     0
  0
CLASS
  1
SPATIAL_FILTER
  2
AcDbSpatialFilter
  3
AutoCAD 2000
 90
    32768
280
     0
281
     0
  0
CLASS
  1
SORTENTSTABLE
  2
AcDbSortentsTable
  3
AutoCAD 2000
 90
        0
280
     0
281
     0
  0
CLASS
  1
LAYER_INDEX
  2
AcDbLayerIndex
  3
AutoCAD 2000
 90
    32768
280
     0
281
     0
  0
CLASS
  1
SPATIAL_INDEX
  2
AcDbSpatialIndex
  3
AutoCAD 2000
 90
    32768
280
     0
281
     0
  0
CLASS
  1
OBJECT_PTR
  2
CAseDLPNTableRecord
  3
"ASE-LPNTableRecord"
 90
    32769
280
     0
281
     0
  0
CLASS
  1
LAYOUT
  2
AcDbLayout
  3
AutoCAD 2000
 90
        0
280
     0
281
     0
  0
CLASS
  1
PLOTSETTINGS
  2
AcDbPlotSettings
  3
AutoCAD 2000
 90
    32768
280
     0
281
     0
  0
CLASS
  1
ACDBDICTIONARYWDFLT
  2
AcDbDictionaryWithDefault
  3
AutoCAD 2000
 90
        0
280
     0
281
     0
  0
CLASS
  1
ACDBPLACEHOLDER
  2
AcDbPlaceHolder
  3
AutoCAD 2000
 90
        0
280
     0
281
     0
  0
CLASS
  1
VBA_PROJECT
  2
AcDbVbaProject
  3
acad
 90
    32768
280
     0
281
     0
  0
CLASS
  1
WIPEOUT
  2
AcDbWipeout
  3
"WipeOut|Product Desc: Object Enabler for WipeOut entity                        |Company: Autodesk, Inc.                        |WEB Address: www.autodesk.com"
 90
    34943
280
     0
281
     1
  0
CLASS
  1
WIPEOUTVARIABLES
  2
AcDbWipeoutVariables
  3
"WipeOut|Product Desc:     WipeOut Dbx Application|Company:          Autodesk, Inc.|WEB Address:      www.autodesk.com"
 90
        0
280
     0
281
     0
  0
CLASS
  1
RTEXT
  2
RText
  3
RText|AutoCAD Express Tool|expresstools@autodesk.com
 90
    32768
280
     0
281
     1
  0
CLASS
  1
ARCALIGNEDTEXT
  2
AcDbArcAlignedText
  3
ATEXT|AutoCAD Express Tool|expresstools@autodesk.com
 90
    32768
280
     0
281
     1
  0
CLASS
  1
TABLESTYLE
  2
AcDbTableStyle
  3
ObjectDBX Classes
 90
     4095
280
     0
281
     0
  0
CLASS
  1
MATERIAL
  2
AcDbMaterial
  3
ObjectDBX Classes
 90
     1153
280
     0
281
     0
  0
CLASS
  1
VISUALSTYLE
  2
AcDbVisualStyle
  3
ObjectDBX Classes
 90
     4095
280
     0
281
     0
  0
CLASS
  1
SCALE
  2
AcDbScale
  3
ObjectDBX Classes
 90
     1153
280
     0
281
     0
  0
CLASS
  1
MLEADERSTYLE
  2
AcDbMLeaderStyle
  3
ACDB_MLEADERSTYLE_CLASS
 90
     4095
280
     0
281
     0
  0
CLASS
  1
CELLSTYLEMAP
  2
AcDbCellStyleMap
  3
ObjectDBX Classes
 90
     1152
280
     0
281
     0
  0
ENDSEC
  0
SECTION
  2
TABLES
  0
TABLE
  2
VPORT
  5
7
330
0
100
AcDbSymbolTable
 70
     2
  0
VPORT
  5
D8F
330
7
100
AcDbSymbolTableRecord
100
AcDbViewportTableRecord
  2
*Active
 70
     0
 10
0.0
 20
0.0
 11
1.0
 21
1.0
 12
-91.419767420075
 22
-10.46889306813682
 13
0.0
 23
0.0
 14
1.0
 24
1.0
 15
0.0
 25
0.0
 16
0.0
 26
0.0
 36
1.0
 17
0.0
 27
0.0
 37
0.0
 40
155.8260372369273
 41
2.460199004975124
 42
50.0
 43
0.0
 44
0.0
 50
0.0
 51
0.0
 71
     0
 72
   100
 73
     1
 74
     3
 75
     0
 76
     0
 77
     0
 78
     0
281
     0
 65
     0
110
0.0
120
0.0
130
0.0
111
1.0
121
0.0
131
0.0
112
0.0
122
1.0
132
0.0
 79
     0
146
0.0
  0
ENDTAB
  0
TABLE
  2
LTYPE
  5
4
330
0
100
AcDbSymbolTable
 70
     2
  0
LTYPE
  5
11
330
4
100
AcDbSymbolTableRecord
100
AcDbLinetypeTableRecord
  2
ByBlock
 70
     0
  3

 72
    65
 73
     0
 40
0.0
  0
LTYPE
  5
12
330
4
100
AcDbSymbolTableRecord
100
AcDbLinetypeTableRecord
  2
ByLayer
 70
     0
  3

 72
    65
 73
     0
 40
0.0
  0
LTYPE
  5
13
330
4
100
AcDbSymbolTableRecord
100
AcDbLinetypeTableRecord
  2
Continuous
 70
     0
  3
Solid line
 72
    65
 73
     0
 40
0.0
  0
LTYPE
  5
4D4
330
4
100
AcDbSymbolTableRecord
100
AcDbLinetypeTableRecord
  2
CENTER2
 70
     0
  3
Center (.5x) ___ _ ___ _ ___ _ ___ _ ___ _ ___
 72
    65
 73
     4
 40
28.57499999999999
 49
19.05
 74
     0
 49
-3.174999999999998
 74
     0
 49
3.174999999999998
 74
     0
 49
-3.174999999999998
 74
     0
  0
ENDTAB
  0
TABLE
  2
LAYER
  5
2
102
{ACAD_XDICTIONARY
360
515
102
}
330
0
100
AcDbSymbolTable
 70
    12
  0
LAYER
  5
14
102
{ACAD_XDICTIONARY
360
B2B
102
}
330
2
100
AcDbSymbolTableRecord
100
AcDbLayerTableRecord
  2
0
 70
     0
 62
     7
  6
Continuous
370
    -3
390
1D
  0
LAYER
  5
4D6
102
{ACAD_XDICTIONARY
360
4D7
102
}
330
2
100
AcDbSymbolTableRecord
100
AcDbLayerTableRecord
  2
1
 70
     0
 62
     4
  6
Continuous
370
    50
390
1D
  0
LAYER
  5
4D9
102
{ACAD_XDICTIONARY
360
4DA
102
}
330
2
100
AcDbSymbolTableRecord
100
AcDbLayerTableRecord
  2
2
 70
     0
 62
     7
  6
Continuous
370
    25
390
1D
  0
LAYER
  5
4DC
102
{ACAD_XDICTIONARY
360
4DD
102
}
330
2
100
AcDbSymbolTableRecord
100
AcDbLayerTableRecord
  2
SK2
 70
     0
 62
     7
  6
Continuous
370
    25
390
1D
  0
LAYER
  5
4E2
102
{ACAD_XDICTIONARY
360
4E3
102
}
330
2
100
AcDbSymbolTableRecord
100
AcDbLayerTableRecord
  2
4
 70
     0
 62
     2
  6
CENTER2
370
    25
390
1D
  0
LAYER
  5
4E5
102
{ACAD_XDICTIONARY
360
4E6
102
}
330
2
100
AcDbSymbolTableRecord
100
AcDbLayerTableRecord
  2
SK4
 70
     0
 62
     2
  6
CENTER2
370
    25
390
1D
  0
LAYER
  5
4E8
102
{ACAD_XDICTIONARY
360
4E9
102
}
330
2
100
AcDbSymbolTableRecord
100
AcDbLayerTableRecord
  2
SK6
 70
     0
 62
     5
  6
Continuous
370
    -3
390
1D
  0
LAYER
  5
4EB
330
2
100
AcDbSymbolTableRecord
100
AcDbLayerTableRecord
  2
DEFPOINTS
 70
     0
 62
     7
  6
Continuous
290
     0
370
    25
390
1D
  0
LAYER
  5
4F2
102
{ACAD_XDICTIONARY
360
4F3
102
}
330
2
100
AcDbSymbolTableRecord
100
AcDbLayerTableRecord
  2
INFTOTAL
 70
     0
 62
     9
  6
Continuous
370
    18
390
1D
1001
AcAecLayerStandard
1000

1000

  0
LAYER
  5
4F6
102
{ACAD_XDICTIONARY
360
B2D
102
}
330
2
100
AcDbSymbolTableRecord
100
AcDbLayerTableRecord
  2
SK1
 70
     0
 62
     4
  6
Continuous
370
    50
390
1D
1001
AcAecLayerStandard
1000

1000

  0
LAYER
  5
4F7
102
{ACAD_XDICTIONARY
360
B2F
102
}
330
2
100
AcDbSymbolTableRecord
100
AcDbLayerTableRecord
  2
INSERT
 70
     0
 62
     4
  6
Continuous
370
    50
390
1D
1001
AcAecLayerStandard
1000

1000

  0
LAYER
  5
C1D
102
{ACAD_XDICTIONARY
360
C1E
102
}
330
2
100
AcDbSymbolTableRecord
100
AcDbLayerTableRecord
  2
7
 70
     0
 62
     5
  6
Continuous
370
    25
390
1D
1001
AcAecLayerStandard
1000

1000

  0
ENDTAB
  0
TABLE
  2
STYLE
  5
3
330
0
100
AcDbSymbolTable
 70
     1
  0
STYLE
  5
17
330
3
100
AcDbSymbolTableRecord
100
AcDbTextStyleTableRecord
  2
STANDARD
 70
     0
 40
0.0
 41
1.0
 50
0.0
 71
     0
 42
0.0
  3
monos.ttf
  4

1001
ACAD
1000
Monospac821 BT
1071
       49
  0
ENDTAB
  0
TABLE
  2
VIEW
  5
5
330
0
100
AcDbSymbolTable
 70
     0
  0
ENDTAB
  0
TABLE
  2
UCS
  5
6
330
0
100
AcDbSymbolTable
 70
     0
  0
ENDTAB
  0
TABLE
  2
APPID
  5
8
330
0
100
AcDbSymbolTable
 70
    19
  0
APPID
  5
16
330
8
100
AcDbSymbolTableRecord
100
AcDbRegAppTableRecord
  2
ACAD
 70
     0
  0
APPID
  5
4F9
330
8
100
AcDbSymbolTableRecord
100
AcDbRegAppTableRecord
  2
ACAD_PSEXT
 70
     0
  0
APPID
  5
4FA
330
8
100
AcDbSymbolTableRecord
100
AcDbRegAppTableRecord
  2
ACAD_EXEMPT_FROM_CAD_STANDARDS
 70
     0
  0
APPID
  5
4FB
330
8
100
AcDbSymbolTableRecord
100
AcDbRegAppTableRecord
  2
ACAD_MLEADERVER
 70
     0
  0
APPID
  5
4FC
330
8
100
AcDbSymbolTableRecord
100
AcDbRegAppTableRecord
  2
ACAD_DSTYLE_DIMJAG
 70
     0
  0
APPID
  5
4FD
330
8
100
AcDbSymbolTableRecord
100
AcDbRegAppTableRecord
  2
ACAD_DSTYLE_DIMBREAK
 70
     0
  0
APPID
  5
4FE
330
8
100
AcDbSymbolTableRecord
100
AcDbRegAppTableRecord
  2
ACAD_DSTYLE_DIMTALN
 70
     0
  0
APPID
  5
4FF
330
8
100
AcDbSymbolTableRecord
100
AcDbRegAppTableRecord
  2
AcAecLayerStandard
 70
     0
  0
APPID
  5
500
330
8
100
AcDbSymbolTableRecord
100
AcDbRegAppTableRecord
  2
DCO15
 70
     0
  0
APPID
  5
501
330
8
100
AcDbSymbolTableRecord
100
AcDbRegAppTableRecord
  2
AcadAnnoPO
 70
     0
  0
APPID
  5
502
330
8
100
AcDbSymbolTableRecord
100
AcDbRegAppTableRecord
  2
ACAD_DSTYLE_DIMRADIAL_EXTENSION
 70
     0
  0
APPID
  5
503
330
8
100
AcDbSymbolTableRecord
100
AcDbRegAppTableRecord
  2
ACAD_DSTYLE_DIMTEXT_FILL
 70
     0
  0
APPID
  5
504
330
8
100
AcDbSymbolTableRecord
100
AcDbRegAppTableRecord
  2
ACAD_DSTYLE_DIMEXT_LENGTH
 70
     0
  0
APPID
  5
505
330
8
100
AcDbSymbolTableRecord
100
AcDbRegAppTableRecord
  2
ACAD_DSTYLE_DIMEXT_ENABLED
 70
     0
  0
APPID
  5
506
330
8
100
AcDbSymbolTableRecord
100
AcDbRegAppTableRecord
  2
ACAD_DSTYLE_DIM_LINETYPE
 70
     0
  0
APPID
  5
507
330
8
100
AcDbSymbolTableRecord
100
AcDbRegAppTableRecord
  2
ACAD_DSTYLE_DIM_EXT1_LINETYPE
 70
     0
  0
APPID
  5
508
330
8
100
AcDbSymbolTableRecord
100
AcDbRegAppTableRecord
  2
ACAD_DSTYLE_DIM_EXT2_LINETYPE
 70
     0
  0
APPID
  5
509
330
8
100
AcDbSymbolTableRecord
100
AcDbRegAppTableRecord
  2
ACAD_DSTYLE_DIMJOGGED_JOGANGLE_SYMBOL
 70
     0
  0
APPID
  5
50A
330
8
100
AcDbSymbolTableRecord
100
AcDbRegAppTableRecord
  2
ACAD_DSTYLE_DIMARC_LENGTH_SYMBOL
 70
     0
  0
ENDTAB
  0
TABLE
  2
DIMSTYLE
  5
9
330
0
100
AcDbSymbolTable
 70
     2
100
AcDbDimStyleTable
 71
     2
340
18
340
4F8
  0
DIMSTYLE
105
18
102
{ACAD_REACTORS
330
74A
330
757
330
764
330
771
102
}
330
9
100
AcDbSymbolTableRecord
100
AcDbDimStyleTableRecord
  2
STANDARD
 70
     0
 41
2.5
 42
0.625
 43
3.75
 44
1.25
 73
     0
 74
     0
 77
     1
 78
     8
140
3.5
141
2.5
143
0.03937
147
0.625
171
     3
271
     1
272
     1
274
     3
283
     0
284
     8
340
17
1001
ACAD_DSTYLE_DIMJAG
1070
   388
1040
1.5
1001
ACAD_DSTYLE_DIMTALN
1070
   392
1070
     0
1001
ACAD_DSTYLE_DIMEXT_LENGTH
1070
   378
1040
1.25
1001
ACAD_DSTYLE_DIMJOGGED_JOGANGLE_SYMBOL
1070
   384
1040
1.570796326794896
  0
DIMSTYLE
105
4F8
102
{ACAD_REACTORS
330
726
102
}
330
9
100
AcDbSymbolTableRecord
100
AcDbDimStyleTableRecord
  2
DIAMETER
 70
     0
 41
2.5
 42
0.0
 43
3.75
 44
1.25
 73
     0
 74
     0
 76
     1
 77
     1
 78
     8
 79
     2
140
3.5
141
0.0
143
0.039370078
147
0.625
171
     3
173
     1
179
     2
271
     1
272
     1
274
     3
283
     0
284
     8
340
17
344
19E
1001
ACAD_DSTYLE_DIMBREAK
1070
   391
1040
3.75
1001
ACAD_DSTYLE_DIMJAG
1070
   388
1040
1.5
1001
ACAD_DSTYLE_DIMTALN
1070
   392
1070
     0
1001
ACAD_DSTYLE_DIMEXT_LENGTH
1070
   378
1040
1.25
1001
ACAD_DSTYLE_DIMJOGGED_JOGANGLE_SYMBOL
1070
   384
1040
1.570796326794896
  0
ENDTAB
  0
TABLE
  2
BLOCK_RECORD
  5
1
330
0
100
AcDbSymbolTable
 70
     7
  0
BLOCK_RECORD
  5
A
102
{ACAD_XDICTIONARY
360
19A
102
}
330
1
100
AcDbSymbolTableRecord
100
AcDbBlockTableRecord
  2
*MODEL_SPACE
340
20
  0
BLOCK_RECORD
  5
B
330
1
100
AcDbSymbolTableRecord
100
AcDbBlockTableRecord
  2
*PAPER_SPACE
340
21
  0
BLOCK_RECORD
  5
19E
330
1
100
AcDbSymbolTableRecord
100
AcDbBlockTableRecord
  2
_None
340
0
  0
BLOCK_RECORD
  5
1A1
330
1
100
AcDbSymbolTableRecord
100
AcDbBlockTableRecord
  2
CERO_POINT
340
0
310
2800000020000000200000000100080000000000000400000000000000000000000000000000000000000000000080000080000000808000800000008000800080800000C0C0C000C0DCC000F0CAA6000020400000206000002080000020A0000020C0000020E00000400000004020000040400000406000004080000040A0
310
000040C0000040E00000600000006020000060400000606000006080000060A0000060C0000060E00000800000008020000080400000806000008080000080A0000080C0000080E00000A0000000A0200000A0400000A0600000A0800000A0A00000A0C00000A0E00000C0000000C0200000C0400000C0600000C0800000C0
310
A00000C0C00000C0E00000E0000000E0200000E0400000E0600000E0800000E0A00000E0C00000E0E00040000000400020004000400040006000400080004000A0004000C0004000E00040200000402020004020400040206000402080004020A0004020C0004020E000404000004040200040404000404060004040800040
310
40A0004040C0004040E00040600000406020004060400040606000406080004060A0004060C0004060E00040800000408020004080400040806000408080004080A0004080C0004080E00040A0000040A0200040A0400040A0600040A0800040A0A00040A0C00040A0E00040C0000040C0200040C0400040C0600040C08000
310
40C0A00040C0C00040C0E00040E0000040E0200040E0400040E0600040E0800040E0A00040E0C00040E0E00080000000800020008000400080006000800080008000A0008000C0008000E00080200000802020008020400080206000802080008020A0008020C0008020E00080400000804020008040400080406000804080
310
008040A0008040C0008040E00080600000806020008060400080606000806080008060A0008060C0008060E00080800000808020008080400080806000808080008080A0008080C0008080E00080A0000080A0200080A0400080A0600080A0800080A0A00080A0C00080A0E00080C0000080C0200080C0400080C0600080C0
310
800080C0A00080C0C00080C0E00080E0000080E0200080E0400080E0600080E0800080E0A00080E0C00080E0E000C0000000C0002000C0004000C0006000C0008000C000A000C000C000C000E000C0200000C0202000C0204000C0206000C0208000C020A000C020C000C020E000C0400000C0402000C0404000C0406000C0
310
408000C040A000C040C000C040E000C0600000C0602000C0604000C0606000C0608000C060A000C060C000C060E000C0800000C0802000C0804000C0806000C0808000C080A000C080C000C080E000C0A00000C0A02000C0A04000C0A06000C0A08000C0A0A000C0A0C000C0A0E000C0C00000C0C02000C0C04000C0C06000
310
C0C08000C0C0A000F0FBFF00A4A0A000808080000000FF0000FF000000FFFF00FF000000FF00FF00FFFF0000FFFFFF00000000000000000000000000000000000000000000000000000000000000000000000000000000000000000000000000FF0000000000000000000000000000000000000000000000000000000000FF
310
FFFFFFFF000000000000000000000000000000000000000000FFFFFFFFFFFF0000FF0000FFFF00FF00000000000000000000000000000000FF00000000000000FFFFFF0000FFFFFFFF000000000000000000000000000000FF0000000000000000FF00FF0000FF00FFFF00000000000000000000000000FF00000000000000
310
0000FFFF00FF0000FF0000FFFF00000000000000000000FF000000000000000000FFFF00FF00FF0000FF0000FF000000000000000000FF0000000000000000000000FF0000FF00FF0000FF0000FF0000000000000000FF00000000000000000000FFFFFF0000FFFFFF0000FF00FFFF000000000000FF000000000000000000
310
000000FF00FF000000FFFF0000FF00FF0000000000FF00000000000000000000000000FFFF00FFFF0000FFFF0000FFFF0000000000FF000000000000000000000000FFFF00FF0000FF0000FFFF0000FF0000000000FF00000000000000000000000000FF0000FF0000FF0000FFFF0000FF00000000FF000000000000000000
310
000000FFFFFF0000FF0000FF0000FFFF00FF00000000FF00FF00000000FF0000FF00FF00FFFFFF0000FF0000FF0000FFFF00FF0000FFFFFFFFFFFFFFFFFFFFFFFFFFFFFFFFFFFFFFFFFFFFFFFFFFFFFFFFFFFF000000FF00FF00FF00FF0000FF0000FFFFFF00000000000000000000000000FF000000FF0000FF00FF00FF00
310
00FF0000FFFF000000000000000000000000FF00000000FFFF0000FF00FF00FF00FF000000FF000000000000000000000000FF00000000FF00FF0000FF00FF00FF00FF0000FF0000000000000000000000FF000000000000FF00FF0000FFFF0000FF00FF00FF0000000000000000000000FF000000000000FFFF00FF00FF00
310
FF0000FF00FFFF00000000000000000000FF0000000000000000FF0000FF00FF00FF0000FF00FF00000000000000000000FF000000000000000000FF0000FF00FF00FF0000FFFF000000000000000000FF0000000000000000000000FF0000FF00FF00FF0000FF000000000000000000FF000000000000000000000000FF00
310
00FF00FF00FF00FF00000000000000FFFF00000000000000000000000000FFFF0000FF00FF00FFFF0000000000FFFF00000000000000000000000000000000FFFFFFFFFF00FF00FF000000FFFF0000000000000000000000000000000000000000000000FFFFFFFFFFFFFF0000000000000000000000000000000000000000
310
0000000000000000FF0000000000000000000000000000000000000000000000000000000000000000000000000000000000000000000000
102
{BLKREFS
331
524
102
}
1001
ACAD
1000
DesignCenter Data
1002
{
1070
     1
1070
     4
1002
}
  0
BLOCK_RECORD
  5
727
330
1
100
AcDbSymbolTableRecord
100
AcDbBlockTableRecord
  2
*D2
340
0
  0
BLOCK_RECORD
  5
74B
330
1
100
AcDbSymbolTableRecord
100
AcDbBlockTableRecord
  2
*D3
340
0
  0
BLOCK_RECORD
  5
758
330
1
100
AcDbSymbolTableRecord
100
AcDbBlockTableRecord
  2
*D4
340
0
  0
BLOCK_RECORD
  5
765
330
1
100
AcDbSymbolTableRecord
100
AcDbBlockTableRecord
  2
*D5
340
0
  0
BLOCK_RECORD
  5
772
330
1
100
AcDbSymbolTableRecord
100
AcDbBlockTableRecord
  2
*D6
340
0
  0
ENDTAB
  0
ENDSEC
  0
SECTION
  2
BLOCKS
  0
BLOCK
  5
D
330
A
100
AcDbEntity
  8
0
100
AcDbBlockBegin
  2
*MODEL_SPACE
 70
     0
 10
0.0
 20
0.0
 30
0.0
  3
*MODEL_SPACE
  1

  0
ENDBLK
  5
E
330
A
100
AcDbEntity
  8
0
100
AcDbBlockEnd
  0
BLOCK
  5
F
330
B
100
AcDbEntity
 67
     1
  8
0
100
AcDbBlockBegin
  2
*PAPER_SPACE
 70
     0
 10
0.0
 20
0.0
 30
0.0
  3
*PAPER_SPACE
  1

  0
ENDBLK
  5
10
330
B
100
AcDbEntity
 67
     1
  8
0
100
AcDbBlockEnd
  0
BLOCK
  5
19F
330
19E
100
AcDbEntity
  8
0
100
AcDbBlockBegin
  2
_None
 70
     0
 10
0.0
 20
0.0
 30
0.0
  3
_None
  1

  0
ENDBLK
  5
1A0
330
19E
100
AcDbEntity
  8
0
100
AcDbBlockEnd
  0
BLOCK
  5
1A2
330
1A1
100
AcDbEntity
  8
0
100
AcDbBlockBegin
  2
CERO_POINT
 70
     0
 10
0.0
 20
0.0
 30
0.0
  3
CERO_POINT
  1

  0
CIRCLE
  5
1A3
102
{ACAD_REACTORS
330
1A8
102
}
330
1A1
100
AcDbEntity
  8
SK2
100
AcDbCircle
 10
0.0
 20
0.0
 30
0.0
 40
2.5
  0
LINE
  5
1A4
330
1A1
100
AcDbEntity
  8
SK2
100
AcDbLine
 10
0.0900000000037835
 20
0.0
 30
0.0
 11
-0.0899999999965076
 21
0.0
 31
0.0
  0
LINE
  5
1A5
330
1A1
100
AcDbEntity
  8
SK2
100
AcDbLine
 10
0.0
 20
0.0899999999999182
 30
0.0
 11
0.0
 21
-0.0899999999999182
 31
0.0
  0
LINE
  5
1A6
102
{ACAD_REACTORS
330
1A8
102
}
330
1A1
100
AcDbEntity
  8
SK2
100
AcDbLine
 10
0.0
 20
-2.5
 30
0.0
 11
0.0
 21
2.5
 31
0.0
  0
LINE
  5
1A7
102
{ACAD_REACTORS
330
1A8
102
}
330
1A1
100
AcDbEntity
  8
SK2
100
AcDbLine
 10
2.5
 20
0.0
 30
0.0
 11
-2.5
 21
0.0
 31
0.0
  0
HATCH
  5
1A8
330
1A1
100
AcDbEntity
  8
SK2
100
AcDbHatch
 10
0.0
 20
0.0
 30
0.0
210
0.0
220
0.0
230
1.0
  2
ANSI31
 70
     0
 71
     1
 91
        2
 92
        7
 72
     1
 73
     1
 93
        3
 10
0.0
 20
-2.5
 42
0.4142135623730951
 10
2.5
 20
0.0
 42
0.0
 10
0.0
 20
0.0
 42
0.0
 97
        3
330
1A3
330
1A7
330
1A6
 92
        7
 72
     1
 73
     1
 93
        3
 10
0.0
 20
0.0
 42
0.0
 10
0.0
 20
2.5
 42
0.4142135623730951
 10
-2.5
 20
0.0
 42
0.0
 97
        3
330
1A7
330
1A6
330
1A3
 75
     0
 76
     1
 52
180.0
 41
0.1
 77
     0
 78
     1
 53
225.0
 43
5.170976743218488
 44
0.0
 45
0.2245064030267288
 46
-0.2245064030267289
 79
     0
 47
0.0243816376539857
 98
        2
 10
0.8789156907296272
 20
-1.044463114528752
 10
-0.8545028512526187
 20
0.7841600866017872
  0
ENDBLK
  5
1A9
330
1A1
100
AcDbEntity
  8
0
100
AcDbBlockEnd
  0
BLOCK
  5
731
330
727
100
AcDbEntity
  8
0
100
AcDbBlockBegin
  2
*D2
 70
     1
 10
0.0
 20
0.0
 30
0.0
  3
*D2
  1

  0
LINE
  5
D22
330
727
100
AcDbEntity
  8
SK2
 62
     0
370
    -2
100
AcDbLine
 10
-258.7499999999999
 20
15.99999999999999
 30
0.0
 11
-274.2870278799979
 21
15.99999999999999
 31
0.0
  0
LINE
  5
D23
330
727
100
AcDbEntity
  8
SK2
 62
     0
370
    -2
100
AcDbLine
 10
-273.0370278799978
 20
13.49999999999999
 30
0.0
 11
-273.0370278799978
 21
-15.99999999999999
 31
0.0
  0
SOLID
  5
D24
330
727
100
AcDbEntity
  8
SK2
 62
     0
100
AcDbTrace
 10
-273.4536945466645
 20
13.49999999999999
 30
0.0
 11
-272.6203612133311
 21
13.49999999999999
 31
0.0
 12
-273.0370278799978
 22
15.99999999999999
 32
0.0
 13
-273.0370278799978
 23
15.99999999999999
 33
0.0
  0
MTEXT
  5
D25
330
727
100
AcDbEntity
  8
SK2
 62
     0
100
AcDbMText
 10
-275.4735176902578
 20
-1.250000000000043
 30
0.0
 40
3.5
 41
0.0
 71
     5
 72
     1
  1
D32
 11
0.0000000000000001
 21
1.0
 31
0.0
 73
     1
 44
1.0
1001
ACAD
1000
MTEXTBEGIN
1070
    73
1070
     1
1070
    44
1040
1.0
1070
    74
1070
     0
1000
MTEXTEND
  0
POINT
  5
D26
330
727
100
AcDbEntity
  8
DEFPOINTS
 62
     0
100
AcDbPoint
 10
-258.7499999999999
 20
15.99999999999999
 30
0.0
  0
POINT
  5
D27
330
727
100
AcDbEntity
  8
DEFPOINTS
 62
     0
100
AcDbPoint
 10
-258.7499999999999
 20
-16.0
 30
0.0
  0
POINT
  5
D28
330
727
100
AcDbEntity
  8
DEFPOINTS
 62
     0
100
AcDbPoint
 10
-273.0370278799978
 20
-15.99999999999999
 30
0.0
  0
ENDBLK
  5
732
330
727
100
AcDbEntity
  8
0
100
AcDbBlockEnd
  0
BLOCK
  5
755
330
74B
100
AcDbEntity
  8
0
100
AcDbBlockBegin
  2
*D3
 70
     1
 10
0.0
 20
0.0
 30
0.0
  3
*D3
  1

  0
LINE
  5
D29
330
74B
100
AcDbEntity
  8
SK2
 62
     0
370
    -2
100
AcDbLine
 10
-259.75
 20
-15.125
 30
0.0
 11
-259.75
 21
-34.38498757249337
 31
0.0
  0
LINE
  5
D2A
330
74B
100
AcDbEntity
  8
SK2
 62
     0
370
    -2
100
AcDbLine
 10
40.25034200000007
 20
-25.625
 30
0.0
 11
40.25034200000007
 21
-34.38498757249337
 31
0.0
  0
LINE
  5
D2B
330
74B
100
AcDbEntity
  8
SK2
 62
     0
370
    -2
100
AcDbLine
 10
-257.25
 20
-33.13498757249337
 30
0.0
 11
37.75034200000007
 21
-33.13498757249337
 31
0.0
  0
SOLID
  5
D2C
330
74B
100
AcDbEntity
  8
SK2
 62
     0
100
AcDbTrace
 10
-257.25
 20
-32.71832090582671
 30
0.0
 11
-257.25
 21
-33.55165423916004
 31
0.0
 12
-259.75
 22
-33.13498757249337
 32
0.0
 13
-259.75
 23
-33.13498757249337
 33
0.0
  0
SOLID
  5
D2D
330
74B
100
AcDbEntity
  8
SK2
 62
     0
100
AcDbTrace
 10
37.75034200000007
 20
-32.71832090582671
 30
0.0
 11
37.75034200000007
 21
-33.55165423916004
 31
0.0
 12
40.25034200000007
 22
-33.13498757249337
 32
0.0
 13
40.25034200000007
 23
-33.13498757249337
 33
0.0
  0
MTEXT
  5
D2E
330
74B
100
AcDbEntity
  8
SK2
 62
     0
100
AcDbMText
 10
-109.7498289999998
 20
-30.69849776223337
 30
0.0
 40
3.5
 41
0.0
 71
     5
 72
     1
  1
300
 73
     1
 44
1.0
1001
ACAD
1000
MTEXTBEGIN
1070
    73
1070
     1
1070
    44
1040
1.0
1070
    74
1070
     0
1000
MTEXTEND
  0
POINT
  5
D2F
330
74B
100
AcDbEntity
  8
DEFPOINTS
 62
     0
100
AcDbPoint
 10
-259.75
 20
-14.5
 30
0.0
  0
POINT
  5
D30
330
74B
100
AcDbEntity
  8
DEFPOINTS
 62
     0
100
AcDbPoint
 10
40.25034200000007
 20
-25.0
 30
0.0
  0
POINT
  5
D31
330
74B
100
AcDbEntity
  8
DEFPOINTS
 62
     0
100
AcDbPoint
 10
40.25034200000007
 20
-33.13498757249337
 30
0.0
  0
ENDBLK
  5
756
330
74B
100
AcDbEntity
  8
0
100
AcDbBlockEnd
  0
BLOCK
  5
762
330
758
100
AcDbEntity
  8
0
100
AcDbBlockBegin
  2
*D4
 70
     1
 10
0.0
 20
0.0
 30
0.0
  3
*D4
  1

  0
LINE
  5
D32
330
758
100
AcDbEntity
  8
2
 62
     0
370
    -2
100
AcDbLine
 10
40.87534200000007
 20
-25.0
 30
0.0
 11
88.01167478598982
 21
-25.00000000000001
 31
0.0
  0
LINE
  5
D33
330
758
100
AcDbEntity
  8
2
 62
     0
370
    -2
100
AcDbLine
 10
76.01365700000005
 20
-0.0000000000000002
 30
0.0
 11
88.01167478598982
 21
-0.0000000000000036
 31
0.0
  0
LINE
  5
D34
330
758
100
AcDbEntity
  8
2
 62
     0
370
    -2
100
AcDbLine
 10
86.76167478598982
 20
-22.50000000000001
 30
0.0
 11
86.76167478598982
 21
-2.500000000000003
 31
0.0
  0
SOLID
  5
D35
330
758
100
AcDbEntity
  8
2
 62
     0
100
AcDbTrace
 10
86.34500811932316
 20
-22.50000000000001
 30
0.0
 11
87.1783414526565
 21
-22.50000000000001
 31
0.0
 12
86.76167478598982
 22
-25.00000000000001
 32
0.0
 13
86.76167478598982
 23
-25.00000000000001
 33
0.0
  0
SOLID
  5
D36
330
758
100
AcDbEntity
  8
2
 62
     0
100
AcDbTrace
 10
86.34500811932316
 20
-2.500000000000003
 30
0.0
 11
87.1783414526565
 21
-2.500000000000003
 31
0.0
 12
86.76167478598982
 22
-0.0000000000000032
 32
0.0
 13
86.76167478598982
 23
-0.0000000000000032
 33
0.0
  0
MTEXT
  5
D37
330
758
100
AcDbEntity
  8
2
 62
     0
100
AcDbMText
 10
84.32518497572981
 20
-12.49999999999999
 30
0.0
 40
3.5
 41
0.0
 71
     5
 72
     1
  1
25
 11
0.0000000000000001
 21
1.0
 31
0.0
 73
     1
 44
1.0
1001
ACAD
1000
MTEXTBEGIN
1070
    73
1070
     1
1070
    44
1040
1.0
1070
    74
1070
     0
1000
MTEXTEND
  0
POINT
  5
D38
330
758
100
AcDbEntity
  8
DEFPOINTS
 62
     0
100
AcDbPoint
 10
40.25034200000007
 20
-25.0
 30
0.0
  0
POINT
  5
D39
330
758
100
AcDbEntity
  8
DEFPOINTS
 62
     0
100
AcDbPoint
 10
75.38865700000005
 20
0.0
 30
0.0
  0
POINT
  5
D3A
330
758
100
AcDbEntity
  8
DEFPOINTS
 62
     0
100
AcDbPoint
 10
86.76167478598982
 20
-0.0000000000000032
 30
0.0
  0
ENDBLK
  5
763
330
758
100
AcDbEntity
  8
0
100
AcDbBlockEnd
  0
BLOCK
  5
76F
330
765
100
AcDbEntity
  8
0
100
AcDbBlockBegin
  2
*D5
 70
     1
 10
0.0
 20
0.0
 30
0.0
  3
*D5
  1

  0
LINE
  5
D3B
330
765
100
AcDbEntity
  8
2
 62
     0
370
    -2
100
AcDbLine
 10
40.25034200000007
 20
-24.375
 30
0.0
 11
40.25034200000007
 21
30.88178757805776
 31
0.0
  0
LINE
  5
D3C
330
765
100
AcDbEntity
  8
2
 62
     0
370
    -2
100
AcDbLine
 10
10.25000000000011
 20
16.37500000000001
 30
0.0
 11
10.25000000000011
 21
30.88178757805776
 31
0.0
  0
LINE
  5
D3D
330
765
100
AcDbEntity
  8
2
 62
     0
370
    -2
100
AcDbLine
 10
37.75034200000007
 20
29.63178757805776
 30
0.0
 11
12.75000000000011
 21
29.63178757805776
 31
0.0
  0
SOLID
  5
D3E
330
765
100
AcDbEntity
  8
2
 62
     0
100
AcDbTrace
 10
37.75034200000007
 20
30.04845424472443
 30
0.0
 11
37.75034200000007
 21
29.2151209113911
 31
0.0
 12
40.25034200000007
 22
29.63178757805776
 32
0.0
 13
40.25034200000007
 23
29.63178757805776
 33
0.0
  0
SOLID
  5
D3F
330
765
100
AcDbEntity
  8
2
 62
     0
100
AcDbTrace
 10
12.75000000000011
 20
30.04845424472443
 30
0.0
 11
12.75000000000011
 21
29.2151209113911
 31
0.0
 12
10.25000000000011
 22
29.63178757805776
 32
0.0
 13
10.25000000000011
 23
29.63178757805776
 33
0.0
  0
MTEXT
  5
D40
330
765
100
AcDbEntity
  8
2
 62
     0
100
AcDbMText
 10
25.2501710000001
 20
32.06827738831778
 30
0.0
 40
3.5
 41
0.0
 71
     5
 72
     1
  1
30
 73
     1
 44
1.0
1001
ACAD
1000
MTEXTBEGIN
1070
    73
1070
     1
1070
    44
1040
1.0
1070
    74
1070
     0
1000
MTEXTEND
  0
POINT
  5
D41
330
765
100
AcDbEntity
  8
DEFPOINTS
 62
     0
100
AcDbPoint
 10
40.25034200000007
 20
-25.0
 30
0.0
  0
POINT
  5
D42
330
765
100
AcDbEntity
  8
DEFPOINTS
 62
     0
100
AcDbPoint
 10
10.25000000000011
 20
15.75000000000001
 30
0.0
  0
POINT
  5
D43
330
765
100
AcDbEntity
  8
DEFPOINTS
 62
     0
100
AcDbPoint
 10
10.25000000000011
 20
29.63178757805776
 30
0.0
  0
ENDBLK
  5
770
330
765
100
AcDbEntity
  8
0
100
AcDbBlockEnd
  0
BLOCK
  5
781
330
772
100
AcDbEntity
  8
0
100
AcDbBlockBegin
  2
*D6
 70
     1
 10
0.0
 20
0.0
 30
0.0
  3
*D6
  1

  0
LINE
  5
D44
330
772
100
AcDbEntity
  8
2
 62
     0
370
    -2
100
AcDbLine
 10
37.62500000000013
 20
-25.0
 30
0.0
 11
29.32007886075343
 21
-25.0
 31
0.0
  0
ARC
  5
D45
330
772
100
AcDbEntity
  8
2
 62
     0
370
    -2
100
AcDbCircle
 10
40.22633123944091
 20
-25.0
 30
0.0
 40
9.656252378687483
100
AcDbArc
 50
103.1871927282768
 51
165.1244002123601
  0
SOLID
  5
D46
330
772
100
AcDbEntity
  8
2
 62
     0
100
AcDbTrace
 10
37.98167845369428
 20
-15.18381309524759
 30
0.0
 11
38.06515971860046
 21
-16.01295441182402
 31
0.0
 12
40.51084303587668
 22
-15.34793995881726
 32
0.0
 13
40.51084303587668
 23
-15.34793995881726
 33
0.0
  0
SOLID
  5
D47
330
772
100
AcDbEntity
  8
2
 62
     0
100
AcDbTrace
 10
31.30686419980376
 20
-22.57497247948161
 30
0.0
 11
30.48054255320049
 21
-22.4670976408987
 31
0.0
 12
30.57007886075343
 22
-25.0
 32
0.0
 13
30.57007886075343
 23
-25.0
 33
0.0
  0
MTEXT
  5
D48
330
772
100
AcDbEntity
  8
2
 62
     0
100
AcDbMText
 10
29.62506767090028
 20
-19.18212887744287
 30
0.0
 40
3.5
 41
0.0
 71
     5
 72
     1
  1
93%%D
 11
0.4811043708410919
 21
0.8766633244054398
 31
0.0
 73
     1
 44
1.0
1001
ACAD
1000
MTEXTBEGIN
1070
    73
1070
     1
1070
    44
1040
1.0
1070
    74
1070
     0
1000
MTEXTEND
  0
POINT
  5
D49
330
772
100
AcDbEntity
  8
DEFPOINTS
 62
     0
100
AcDbPoint
 10
35.56341288908377
 20
-16.54420893950126
 30
0.0
  0
POINT
  5
D4A
330
772
100
AcDbEntity
  8
DEFPOINTS
 62
     0
100
AcDbPoint
 10
38.25000000000013
 20
-25.0
 30
0.0
  0
POINT
  5
D4B
330
772
100
AcDbEntity
  8
DEFPOINTS
 62
     0
100
AcDbPoint
 10
40.63943800000012
 20
-10.985357
 30
0.0
  0
POINT
  5
D4C
330
772
100
AcDbEntity
  8
DEFPOINTS
 62
     0
100
AcDbPoint
 10
40.25067300000015
 20
-24.17420600000002
 30
0.0
  0
POINT
  5
D4D
330
772
100
AcDbEntity
  8
DEFPOINTS
 62
     0
100
AcDbPoint
 10
45.41019509923077
 20
-25.0
 30
0.0
  0
ENDBLK
  5
782
330
772
100
AcDbEntity
  8
0
100
AcDbBlockEnd
  0
ENDSEC
  0
SECTION
  2
ENTITIES
  0
LINE
  5
114
330
A
100
AcDbEntity
  8
4
100
AcDbLine
 10
75.38865700000005
 20
0.0
 30
0.0
 11
0.0000000000001137
 21
0.0
 31
0.0
  0
LINE
  5
11F
102
{ACAD_REACTORS
330
9BC
102
}
330
A
100
AcDbEntity
  8
1
 48
0.4929610000000002
100
AcDbLine
 10
37.59491100000004
 20
-14.5
 30
0.0
 11
17.87646300000003
 21
-14.5
 31
0.0
  0
SPLINE
  5
120
102
{ACAD_REACTORS
330
9BC
102
}
330
A
100
AcDbEntity
  8
1
100
AcDbSpline
210
0.0
220
0.0
230
1.0
 70
     8
 71
     3
 72
    38
 73
    34
 74
     0
 42
0.0000000001
 43
0.0000000001
 40
0.0
 40
0.0
 40
0.0
 40
0.0
 40
0.451381503026514
 40
0.8974058251292365
 40
1.337883579580734
 40
1.772686187678409
 40
2.201749651539274
 40
2.625077540195873
 40
3.042742992979583
 40
3.454889531053292
 40
3.861730357427391
 40
4.263544296078054
 40
4.66067758779382
 40
5.053543302843938
 40
5.442612084631504
 40
5.828401510664664
 40
6.211464648220584
 40
6.592378118523627
 40
6.971730042521072
 40
7.350108278564744
 40
7.728092220429302
 40
8.106248717065216
 40
8.48511718513641
 40
8.865200550053028
 40
9.246959454160467
 40
9.630808459581466
 40
10.01711419569324
 40
10.40619532571939
 40
10.79832415214693
 40
11.19372964707143
 40
11.59261124823679
 40
11.99518190109772
 40
12.40142883809512
 40
12.40142883809512
 40
12.40142883809512
 40
12.40142883809512
 10
10.25000000000011
 20
-5.746222505459357
 30
0.0
 10
10.27061909450142
 20
-5.895276047677008
 30
0.0
 10
10.31612084769131
 20
-6.190969442691169
 30
0.0
 10
10.39782839884572
 20
-6.629463077829717
 30
0.0
 10
10.49257441736409
 20
-7.059667652957351
 30
0.0
 10
10.60033314722523
 20
-7.480971254269807
 30
0.0
 10
10.72106777613091
 20
-7.892791983721392
 30
0.0
 10
10.85472968773041
 20
-8.294589858341026
 30
0.0
 10
11.00125578953306
 20
-8.685866621198213
 30
0.0
 10
11.16056611322281
 20
-9.066168635293381
 30
0.0
 10
11.33256060995151
 20
-9.435088489559733
 30
0.0
 10
11.51711757647823
 20
-9.792268179183775
 30
0.0
 10
11.7140939640385
 20
-10.13740300653134
 30
0.0
 10
11.92332519650742
 20
-10.47024555491597
 30
0.0
 10
12.14462572531082
 20
-10.79060625305406
 30
0.0
 10
12.37778856501775
 20
-11.09835173143681
 30
0.0
 10
12.6225851696831
 20
-11.39340310422163
 30
0.0
 10
12.8787656763138
 20
-11.67573427975717
 30
0.0
 10
13.14605955778002
 20
-11.94537026957689
 30
0.0
 10
13.42417740514823
 20
-12.20238608258501
 30
0.0
 10
13.71281474126951
 20
-12.4469067297549
 30
0.0
 10
14.01165635961208
 20
-12.67910352672794
 30
0.0
 10
14.3203786734056
 20
-12.89918974316223
 30
0.0
 10
14.63865009983182
 20
-13.1074151674072
 30
0.0
 10
14.96613296296052
 20
-13.30406186942334
 30
0.0
 10
15.30248592028319
 20
-13.4894402914369
 30
0.0
 10
15.64736657762248
 20
-13.663885382809
 30
0.0
 10
16.0004343178289
 20
-13.82775284078267
 30
0.0
 10
16.36135320189773
 20
-13.98141538210986
 30
0.0
 10
16.729798443806
 20
-14.12526057163701
 30
0.0
 10
17.10547356067931
 20
-14.25969141195308
 30
0.0
 10
17.48805739725408
 20
-14.38510153472564
 30
0.0
 10
17.7463061486666
 20
-14.46260202662467
 30
0.0
 10
17.87646249732771
 20
-14.49999999999999
 30
0.0
  0
ARC
  5
121
102
{ACAD_REACTORS
330
9BC
102
}
330
A
100
AcDbEntity
  8
1
100
AcDbCircle
 10
10.928831
 20
-4.531293000000005
 30
0.0
 40
1.391735999999999
100
AcDbArc
 50
228.1349599999983
 51
240.8060960000012
  0
ARC
  5
122
102
{ACAD_REACTORS
330
9BC
102
}
330
A
100
AcDbEntity
  8
1
100
AcDbCircle
 10
261.8825389999996
 20
-54.10249400000001
 30
0.0
 40
256.515414
100
AcDbArc
 50
166.7244069999999
 51
169.0934639999998
  0
SPLINE
  5
123
102
{ACAD_REACTORS
330
9BC
102
}
330
A
100
AcDbEntity
  8
1
100
AcDbSpline
210
0.0
220
0.0
230
1.0
 70
     8
 71
     3
 72
    46
 73
    42
 74
     0
 42
0.0000000001
 43
0.0000000001
 40
0.0
 40
0.0
 40
0.0
 40
0.0
 40
0.7225883446189224
 40
1.439171664902709
 40
2.150093878340676
 40
2.855898117537388
 40
3.557278867566906
 40
4.255038274606079
 40
4.950061150688305
 40
5.643268237320048
 40
6.335544625420387
 40
7.02771618103437
 40
7.720539225017857
 40
8.414699603103438
 40
9.110820314403584
 40
9.809458370090347
 40
10.51105982305416
 40
11.21595326959374
 40
11.92436510522701
 40
12.63643549054606
 40
13.3522342975226
 40
14.07177662238105
 40
14.79503755466151
 40
15.52195889148631
 40
16.25242524261915
 40
16.98627230025118
 40
17.72329937938782
 40
18.46327620633823
 40
19.20594855078746
 40
19.95104281087048
 40
20.69826966633447
 40
21.44732691746159
 40
22.19790161690832
 40
22.94966993095035
 40
23.70229828277258
 40
24.45545003483898
 40
25.20878731489336
 40
25.96197202684633
 40
26.71466680287062
 40
27.46653600003179
 40
28.21724684501121
 40
28.21724684501121
 40
28.21724684501121
 40
28.21724684501121
 10
12.2225514808708
 20
4.802343178074657
 30
0.0
 10
12.34118272681407
 20
5.012023728746797
 30
0.0
 10
12.58767704976932
 20
5.423762472414324
 30
0.0
 10
12.98634127026881
 20
6.019732828286397
 30
0.0
 10
13.4113299618468
 20
6.590243624565736
 30
0.0
 10
13.86156915377759
 20
7.134489303338824
 30
0.0
 10
14.33589299669151
 20
7.651932306925957
 30
0.0
 10
14.83308663889963
 20
8.142324337699767
 30
0.0
 10
15.35190610587043
 20
8.605678322796258
 30
0.0
 10
15.8910981583742
 20
9.042235487044088
 30
0.0
 10
16.44940990446659
 20
9.452426238274512
 30
0.0
 10
17.02559785100671
 20
9.836838398530778
 30
0.0
 10
17.61844885433331
 20
10.19619402610917
 30
0.0
 10
18.22680317147623
 20
10.5313265111243
 30
0.0
 10
18.84957332489656
 20
10.84315358294333
 30
0.0
 10
19.48574148521342
 20
11.13264435580614
 30
0.0
 10
20.13434392123313
 20
11.40079064033209
 30
0.0
 10
20.79445660817989
 20
11.64858237540903
 30
0.0
 10
21.46519419494401
 20
11.87699838170596
 30
0.0
 10
22.14571532807773
 20
12.08699935925914
 30
0.0
 10
22.8352275386829
 20
12.27952114532349
 30
0.0
 10
23.53299173171538
 20
12.45546783955775
 30
0.0
 10
24.2383238436893
 20
12.61570452810577
 30
0.0
 10
24.95058401743122
 20
12.76104730806533
 30
0.0
 10
25.669162688196
 20
12.89226086918621
 30
0.0
 10
26.39347018088651
 20
13.01005438121382
 30
0.0
 10
27.12293696346282
 20
13.11508072927414
 30
0.0
 10
27.85701388885784
 20
13.20793610167574
 30
0.0
 10
28.59517066094102
 20
13.28915921931542
 30
0.0
 10
29.33689399321801
 20
13.35923066317353
 30
0.0
 10
30.0816854957848
 20
13.41857226666909
 30
0.0
 10
30.82905931686926
 20
13.46754659597034
 30
0.0
 10
31.5785390120246
 20
13.50645647297679
 30
0.0
 10
32.3296542514698
 20
13.53554470233145
 30
0.0
 10
33.08193936673578
 20
13.55499433488346
 30
0.0
 10
33.83493286198207
 20
13.56492850392847
 30
0.0
 10
34.5881769914698
 20
13.56541037584275
 30
0.0
 10
35.34121579175993
 20
13.55644303528928
 30
0.0
 10
36.09359193827081
 20
13.53796950823642
 30
0.0
 10
36.84484710710612
 20
13.50987265987803
 30
0.0
 10
37.34508049322332
 20
13.48458500594785
 30
0.0
 10
37.59491082456489
 20
13.47026019488586
 30
0.0
  0
ARC
  5
124
102
{ACAD_REACTORS
330
9BC
102
}
330
A
100
AcDbEntity
  8
1
100
AcDbCircle
 10
-33.62754499999999
 20
-1228.831397
 30
0.0
 40
1244.341609999999
100
AcDbArc
 50
86.55017500000219
 51
86.71876500000019
  0
LINE
  5
125
102
{ACAD_REACTORS
330
9BC
102
}
330
A
100
AcDbEntity
  8
1
 48
0.22549
100
AcDbLine
 10
10.25000000000011
 20
4.802343
 30
0.0
 11
10.25000000000011
 21
13.82192499999999
 31
0.0
  0
LINE
  5
126
102
{ACAD_REACTORS
330
9BC
102
}
330
A
100
AcDbEntity
  8
1
 48
0.049314
100
AcDbLine
 10
12.22255099999991
 20
4.802343
 30
0.0
 11
10.25000000000011
 21
4.802343
 31
0.0
  0
ARC
  5
127
102
{ACAD_REACTORS
330
9BC
102
}
330
A
100
AcDbEntity
  8
1
100
AcDbCircle
 10
-9.536438000000003
 20
-1.237454999999997
 30
0.0
 40
20.687747
100
AcDbArc
 50
16.97477799999997
 51
19.2050010000003
  0
LINE
  5
128
102
{ACAD_REACTORS
330
9BC
102
}
330
A
100
AcDbEntity
  8
1
100
AcDbLine
 10
10.00000000000011
 20
5.567763999999987
 30
0.0
 11
0.0
 21
5.567763999999987
 31
0.0
  0
SPLINE
  5
129
102
{ACAD_REACTORS
330
53A
102
}
330
A
100
AcDbEntity
  8
SK1
100
AcDbSpline
210
0.0
220
0.0
230
1.0
 70
     8
 71
     3
 72
    14
 73
    10
 74
     0
 42
0.0000000001
 43
0.0000000001
 40
0.0
 40
0.0
 40
0.0
 40
0.0
 40
0.7645601948679759
 40
1.534781815317139
 40
2.3164807174306
 40
3.115692962348593
 40
3.938734561089924
 40
4.792263479642143
 40
5.683343001024672
 40
5.683343001024672
 40
5.683343001024672
 40
5.683343001024672
 10
-259.75
 20
-0.0000000014214052
 30
0.0
 10
-259.7500000000239
 20
0.2549090229958679
 30
0.0
 10
-259.7369392526085
 20
0.7665161835376823
 30
0.0
 10
-259.678014223583
 20
1.536771486584346
 30
0.0
 10
-259.5790449327785
 20
2.314529060305678
 30
0.0
 10
-259.4388526945546
 20
3.103809935224183
 30
0.0
 10
-259.2557386231427
 20
3.908807511950603
 30
0.0
 10
-259.0274404946761
 20
4.733999825026693
 30
0.0
 10
-258.8476350421585
 20
5.287192023064726
 30
0.0
 10
-258.7499999999998
 20
5.567764362830011
 30
0.0
  0
SPLINE
  5
12A
102
{ACAD_REACTORS
330
53A
102
}
330
A
100
AcDbEntity
  8
SK1
100
AcDbSpline
210
0.0
220
0.0
230
1.0
 70
     8
 71
     3
 72
    18
 73
    14
 74
     0
 42
0.0000000001
 43
0.0000000001
 40
0.0
 40
0.0
 40
0.0
 40
0.0
 40
0.571806786341473
 40
1.127331973742645
 40
1.668458421126461
 40
2.196994886115029
 40
2.714682703488749
 40
3.223202432332873
 40
3.72418043962733
 40
4.219195384393281
 40
4.709784563725182
 40
5.197450080421356
 40
5.68366479174204
 40
5.68366479174204
 40
5.68366479174204
 40
5.68366479174204
 10
-258.7499999999999
 20
-5.567764362830003
 30
0.0
 10
-258.8126463545501
 20
-5.387738483951863
 30
0.0
 10
-258.9314529947031
 20
-5.031197328813949
 30
0.0
 10
-259.0925938974988
 20
-4.498820340925718
 30
0.0
 10
-259.23469328537
 20
-3.975982660605493
 30
0.0
 10
-259.3584695675768
 20
-3.461466994345386
 30
0.0
 10
-259.4645424959571
 20
-2.954109514338481
 30
0.0
 10
-259.5534394347519
 20
-2.452787582176718
 30
0.0
 10
-259.625597760932
 20
-1.956418682693993
 30
0.0
 10
-259.6813682682053
 20
-1.463955475076331
 30
0.0
 10
-259.7210183135861
 20
-0.9743854550316299
 30
0.0
 10
-259.7447350354205
 20
-0.4867161371883171
 30
0.0
 10
-259.7499999999846
 20
-0.1620859310060325
 30
0.0
 10
-259.75
 20
-0.0000000014214052
 30
0.0
  0
LINE
  5
12B
102
{ACAD_REACTORS
330
9BC
102
}
330
A
100
AcDbEntity
  8
1
100
AcDbLine
 10
10.00000000000011
 20
-5.567764000000011
 30
0.0
 11
0.0
 21
-5.567764000000011
 31
0.0
  0
LINE
  5
12C
102
{ACAD_REACTORS
330
9BC
102
}
330
A
100
AcDbEntity
  8
1
 48
0.223306
100
AcDbLine
 10
10.00000000000011
 20
-14.5
 30
0.0
 11
10.00000000000011
 21
-5.567764000000011
 31
0.0
  0
LINE
  5
12D
102
{ACAD_REACTORS
330
9BC
102
}
330
A
100
AcDbEntity
  8
1
 48
0.00625
100
AcDbLine
 10
10.25000000000011
 20
-14.5
 30
0.0
 11
10.00000000000011
 21
-14.5
 31
0.0
  0
LINE
  5
12E
102
{ACAD_REACTORS
330
9BC
102
}
330
A
100
AcDbEntity
  8
1
 48
0.218844
100
AcDbLine
 10
10.25000000000011
 20
-14.5
 30
0.0
 11
10.25000000000011
 21
-5.746223000000008
 31
0.0
  0
LINE
  5
12F
102
{ACAD_REACTORS
330
9BC
102
}
330
A
100
AcDbEntity
  8
1
 48
0.190662
100
AcDbLine
 10
17.87646200000003
 20
-14.5
 30
0.0
 11
10.25000000000011
 21
-14.5
 31
0.0
  0
LINE
  5
130
102
{ACAD_REACTORS
330
9BC
102
}
330
A
100
AcDbEntity
  8
1
 48
0.072839
100
AcDbLine
 10
65.25000000000003
 20
-9.0
 30
0.0
 11
65.25000000000003
 21
-6.086433000000002
 31
0.0
  0
LINE
  5
131
102
{ACAD_REACTORS
330
9BC
102
}
330
A
100
AcDbEntity
  8
1
 48
0.027544
100
AcDbLine
 10
65.25000000000003
 20
7.898242999999999
 30
0.0
 11
65.25000000000003
 21
8.999999999999991
 31
0.0
  0
LINE
  5
132
102
{ACAD_REACTORS
330
9BC
102
}
330
A
100
AcDbEntity
  8
1
 48
0.133354
100
AcDbLine
 10
65.25000000000003
 20
2.564099999999989
 30
0.0
 11
65.25000000000003
 21
7.898242999999999
 31
0.0
  0
LINE
  5
133
102
{ACAD_REACTORS
330
9BC
102
}
330
A
100
AcDbEntity
  8
1
 48
0.216263
100
AcDbLine
 10
65.25000000000003
 20
-6.086433000000002
 30
0.0
 11
65.25000000000003
 21
2.564099999999989
 31
0.0
  0
SPLINE
  5
134
102
{ACAD_REACTORS
330
9BC
102
}
330
A
100
AcDbEntity
  8
1
100
AcDbSpline
210
0.0
220
0.0
230
1.0
 70
     8
 71
     3
 72
    24
 73
    20
 74
     0
 42
0.0000000001
 43
0.0000000001
 40
0.0
 40
0.0
 40
0.0
 40
0.0
 40
0.4830122061333838
 40
0.9958834404186172
 40
1.542044671151096
 40
2.125267545962918
 40
2.749713032676259
 40
3.41998000633754
 40
4.141153583830567
 40
4.918853098917271
 40
5.759279676073632
 40
6.66926340611385
 40
7.656356946846027
 40
8.728923034127396
 40
9.89533155015814
 40
11.16349871964249
 40
12.54065738711682
 40
14.03312587846301
 40
15.64607219664473
 40
15.64607219664473
 40
15.64607219664473
 40
15.64607219664473
 10
65.25000000000003
 20
2.564100414966608
 30
0.0
 10
65.16015221926743
 20
2.697719345557118
 30
0.0
 10
64.97024126134228
 20
2.970049218241321
 30
0.0
 10
64.66324109996325
 20
3.382414979151318
 30
0.0
 10
64.32366798338077
 20
3.811873697694323
 30
0.0
 10
63.94867644572432
 20
4.260459591198674
 30
0.0
 10
63.53505576927361
 20
4.7304019263808
 30
0.0
 10
63.07918614163842
 20
5.224158073860991
 30
0.0
 10
62.57700274320003
 20
5.744434965642717
 30
0.0
 10
62.02395739811541
 20
6.294214007213687
 30
0.0
 10
61.41498085876579
 20
6.876774955967531
 30
0.0
 10
60.74443339962775
 20
7.495730698659782
 30
0.0
 10
60.00604396677303
 20
8.155069627495464
 30
0.0
 10
59.19306234417942
 20
8.859011526030242
 30
0.0
 10
58.29857342674731
 20
9.611768994354219
 30
0.0
 10
57.31591022511288
 20
10.41726520018041
 30
0.0
 10
56.23893070270006
 20
11.27898804538815
 30
0.0
 10
55.0622347529485
 20
12.19989829533585
 30
0.0
 10
54.24087307529712
 20
12.82989815737321
 30
0.0
 10
53.81288124154061
 20
13.15531118991025
 30
0.0
  0
LINE
  5
135
102
{ACAD_REACTORS
330
9BC
102
}
330
A
100
AcDbEntity
  8
1
 48
0.023565
100
AcDbLine
 10
54.22106300000002
 20
14.18373100000001
 30
0.0
 11
53.87297600000002
 21
13.30777199999999
 31
0.0
  0
LINE
  5
136
102
{ACAD_REACTORS
330
9BC
102
}
330
A
100
AcDbEntity
  8
1
 48
0.004097
100
AcDbLine
 10
53.81288100000002
 20
13.15531099999999
 30
0.0
 11
53.87297600000002
 21
13.30777199999999
 31
0.0
  0
LINE
  5
137
102
{ACAD_REACTORS
330
9BC
102
}
330
A
100
AcDbEntity
  8
1
 48
0.071748
100
AcDbLine
 10
53.81288100000002
 20
13.15531099999999
 30
0.0
 11
50.94701300000004
 21
13.30777199999999
 31
0.0
  0
LINE
  5
138
102
{ACAD_REACTORS
330
9BC
102
}
330
A
100
AcDbEntity
  8
1
 48
0.04907
100
AcDbLine
 10
41.25000000000013
 20
13.78719300000001
 30
0.0
 11
41.25000000000013
 21
15.75000000000001
 31
0.0
  0
LINE
  5
139
102
{ACAD_REACTORS
330
9BC
102
}
330
A
100
AcDbEntity
  8
1
 48
0.013297
100
AcDbLine
 10
41.25000000000013
 20
13.25531199999999
 30
0.0
 11
41.25000000000013
 21
13.78719300000001
 31
0.0
  0
LINE
  5
13A
102
{ACAD_REACTORS
330
9BC
102
}
330
A
100
AcDbEntity
  8
1
 48
0.211839
100
AcDbLine
 10
10.00000000000011
 20
5.567763999999987
 30
0.0
 11
10.00000000000011
 21
14.04132099999999
 31
0.0
  0
LINE
  5
13B
102
{ACAD_REACTORS
330
9BC
102
}
330
A
100
AcDbEntity
  8
1
 48
0.048202
100
AcDbLine
 10
10.25000000000011
 20
13.82192499999999
 30
0.0
 11
10.25000000000011
 21
15.75000000000001
 31
0.0
  0
LINE
  5
13C
102
{ACAD_REACTORS
330
9BC
102
}
330
A
100
AcDbEntity
  8
1
100
AcDbLine
 10
10.00000000000011
 20
-14.5
 30
0.0
 11
0.0
 21
-14.5
 31
0.0
  0
LINE
  5
13D
102
{ACAD_REACTORS
330
53A
102
}
330
A
100
AcDbEntity
  8
SK1
 48
0.223306
100
AcDbLine
 10
-258.7499999999999
 20
-14.5
 30
0.0
 11
-258.7499999999999
 21
-5.567764000000011
 31
0.0
  0
LINE
  5
13E
102
{ACAD_REACTORS
330
53A
102
}
330
A
100
AcDbEntity
  8
SK1
 48
0.025
100
AcDbLine
 10
-259.75
 20
-14.5
 30
0.0
 11
-258.7499999999999
 21
-14.5
 31
0.0
  0
LINE
  5
13F
102
{ACAD_REACTORS
330
53A
102
}
330
A
100
AcDbEntity
  8
SK1
 48
0.3625
100
AcDbLine
 10
-259.75
 20
-14.5
 30
0.0
 11
-259.75
 21
0.0
 31
0.0
  0
LINE
  5
140
102
{ACAD_REACTORS
330
53A
102
}
330
A
100
AcDbEntity
  8
SK1
 48
0.211839
100
AcDbLine
 10
-258.7499999999999
 20
5.567763999999987
 30
0.0
 11
-258.7499999999999
 21
14.04132099999999
 31
0.0
  0
LINE
  5
141
102
{ACAD_REACTORS
330
53A
102
}
330
A
100
AcDbEntity
  8
SK1
 48
0.3290929999999999
100
AcDbLine
 10
-259.75
 20
0.0
 30
0.0
 11
-259.75
 21
13.163738
 31
0.0
  0
LINE
  5
142
102
{ACAD_REACTORS
330
53A
102
}
330
A
100
AcDbEntity
  8
SK1
 48
0.045907
100
AcDbLine
 10
-259.75
 20
13.163738
 30
0.0
 11
-259.75
 21
15.0
 31
0.0
  0
LINE
  5
143
102
{ACAD_REACTORS
330
9BC
102
}
330
A
100
AcDbEntity
  8
1
 48
0.048967
100
AcDbLine
 10
10.00000000000011
 20
14.04132099999999
 30
0.0
 11
10.00000000000011
 21
15.99999999999999
 31
0.0
  0
LINE
  5
144
102
{ACAD_REACTORS
330
53A
102
}
330
A
100
AcDbEntity
  8
SK1
 48
0.048967
100
AcDbLine
 10
-258.7499999999999
 20
14.04132099999999
 30
0.0
 11
-258.7499999999999
 21
15.99999999999999
 31
0.0
  0
ARC
  5
145
102
{ACAD_REACTORS
330
9BC
102
}
330
A
100
AcDbEntity
  8
1
100
AcDbCircle
 10
228.249277
 20
-55.441347
 30
0.0
 40
187.4392399999999
100
AcDbArc
 50
157.6780689999993
 51
158.1946759999997
  0
ARC
  5
146
102
{ACAD_REACTORS
330
9BC
102
}
330
A
100
AcDbEntity
  8
1
100
AcDbCircle
 10
-37.64295199999997
 20
-1680.327211999999
 30
0.0
 40
1695.950376
100
AcDbArc
 50
87.00572499999848
 51
87.33372800000235
  0
LINE
  5
147
102
{ACAD_REACTORS
330
9BC
102
}
330
A
100
AcDbEntity
  8
1
 48
0.006767
100
AcDbLine
 10
53.17547200000003
 20
-16.627913
 30
0.0
 11
53.37668200000003
 21
-16.44687600000001
 31
0.0
  0
ELLIPSE
  5
148
102
{ACAD_REACTORS
330
9BC
102
}
330
A
100
AcDbEntity
  8
1
100
AcDbEllipse
 10
54.34474500000007
 20
-0.658221999999995
 30
0.0
 11
-1.02458333969116
 21
-16.0431900024414
 31
0.0
210
0.0
220
0.0
230
-1.0
 40
0.103927
 41
6.206082771647962
 42
6.372534555374291
  0
SPLINE
  5
149
102
{ACAD_REACTORS
330
9BC
102
}
330
A
100
AcDbEntity
  8
1
100
AcDbSpline
210
0.0
220
0.0
230
1.0
 70
     8
 71
     3
 72
    22
 73
    18
 74
     0
 42
0.0000000001
 43
0.0000000001
 40
0.0
 40
0.0
 40
0.0
 40
0.0
 40
0.5480143385229025
 40
1.135355396136422
 40
1.76735254397233
 40
2.449951039695879
 40
3.189810261978642
 40
3.994401651494908
 40
4.87210589971738
 40
5.832309187665877
 40
6.885499511843967
 40
8.043515293023405
 40
9.319099619706872
 40
10.72449747569046
 40
12.2708842623206
 40
13.96790065618953
 40
15.82311745262511
 40
15.82311745262511
 40
15.82311745262511
 40
15.82311745262511
 10
65.25000000000003
 20
-6.08643267780468
 30
0.0
 10
65.14578677528858
 20
-6.236487575907962
 30
0.0
 10
64.92351378483395
 20
-6.542885883166674
 30
0.0
 10
64.56005187975072
 20
-7.006685360124057
 30
0.0
 10
64.15196492650679
 20
-7.49200904508025
 30
0.0
 10
63.6946472154873
 20
-8.001895866640174
 30
0.0
 10
63.18281123288156
 20
-8.539719694649377
 30
0.0
 10
62.61039999243289
 20
-9.109249786197443
 30
0.0
 10
61.97051273088172
 20
-9.714692406948698
 30
0.0
 10
61.25532599808278
 20
-10.36073832975639
 30
0.0
 10
60.45597707953394
 20
-11.0526423789189
 30
0.0
 10
59.56258009436655
 20
-11.79618249063187
 30
0.0
 10
58.56464747419855
 20
-12.5973252601304
 30
0.0
 10
57.4517705641849
 20
-13.46178244709127
 30
0.0
 10
56.21433249482405
 20
-14.39460452955357
 30
0.0
 10
54.84399837832743
 20
-15.39997610007844
 30
0.0
 10
53.88125035312818
 20
-16.08932261657944
 30
0.0
 10
53.37668219248641
 20
-16.44687637251533
 30
0.0
  0
LINE
  5
14A
102
{ACAD_REACTORS
330
9BC
102
}
330
A
100
AcDbEntity
  8
1
 48
0.073523
100
AcDbLine
 10
37.59491100000004
 20
-14.5
 30
0.0
 11
40.53583700000003
 21
-14.5
 31
0.0
  0
LINE
  5
14B
102
{ACAD_REACTORS
330
9BC
102
}
330
A
100
AcDbEntity
  8
1
 48
0.198736
100
AcDbLine
 10
53.37668200000003
 20
-16.44687600000001
 30
0.0
 11
53.68253600000007
 21
-8.503318000000009
 31
0.0
  0
LINE
  5
14C
102
{ACAD_REACTORS
330
9BC
102
}
330
A
100
AcDbEntity
  8
1
 48
0.093236
100
AcDbLine
 10
56.85511500000004
 20
-6.542804000000008
 30
0.0
 11
53.68253600000007
 21
-8.503318000000009
 31
0.0
  0
ELLIPSE
  5
14D
102
{ACAD_REACTORS
330
9BC
102
}
330
A
100
AcDbEntity
  8
1
100
AcDbEllipse
 10
55.37287400000003
 20
-4.290236000000006
 30
0.0
 11
-2.464791297912595
 21
1.15138232707977
 31
0.0
210
0.0
220
0.0
230
-1.0
 40
0.9690279999999999
 41
0.5614830460581101
 42
3.707529046677471
  0
LINE
  5
14E
102
{ACAD_REACTORS
330
9BC
102
}
330
A
100
AcDbEntity
  8
1
 48
0.388429
100
AcDbLine
 10
53.88056800000007
 20
-2.04391600000001
 30
0.0
 11
40.70040300000002
 21
-10.27106999999999
 31
0.0
  0
LINE
  5
14F
102
{ACAD_REACTORS
330
9BC
102
}
330
A
100
AcDbEntity
  8
1
 48
0.011829
100
AcDbLine
 10
40.70040300000002
 20
-10.27106999999999
 30
0.0
 11
40.68646500000014
 21
-10.74403699999999
 31
0.0
  0
ELLIPSE
  5
150
102
{ACAD_REACTORS
330
9BB
102
}
330
A
100
AcDbEntity
  8
INSERT
100
AcDbEllipse
 10
48.9500300000001
 20
0.3990380000000115
 30
0.0
 11
-3.623959064483641
 21
1.693235039710995
 31
0.0
210
0.0
220
0.0
230
-1.0
 40
0.9690299999999998
 41
3.132094763593701
 42
6.273680635702247
  0
ELLIPSE
  5
151
102
{ACAD_REACTORS
330
9BB
102
}
330
A
100
AcDbEntity
  8
INSERT
100
AcDbEllipse
 10
48.95004100000003
 20
0.3990149999999986
 30
0.0
 11
-3.623977661132812
 21
1.693243741989135
 31
0.0
210
0.0
220
0.0
230
-1.0
 40
0.9690279999999999
 41
6.273687417031047
 42
7.573238885258107
  0
ELLIPSE
  5
152
102
{ACAD_REACTORS
330
9BB
102
}
330
A
100
AcDbEntity
  8
INSERT
100
AcDbEllipse
 10
48.95001900000014
 20
0.3990380000000115
 30
0.0
 11
-3.624061584472652
 21
1.693015575408933
 31
0.0
210
0.0
220
0.0
230
-0.9999999999999998
 40
0.9690299999999998
 41
1.290118606910508
 42
3.13215301075573
  0
LINE
  5
154
102
{ACAD_REACTORS
330
9BC
102
}
330
A
100
AcDbEntity
  8
1
 48
0.159656
100
AcDbLine
 10
50.59933400000014
 20
-4.300979999999995
 30
0.0
 11
45.17532199999998
 21
-7.672065000000007
 31
0.0
  0
LINE
  5
155
102
{ACAD_REACTORS
330
9BC
102
}
330
A
100
AcDbEntity
  8
1
 48
0.131363
100
AcDbLine
 10
45.17532199999998
 20
-7.672065000000007
 30
0.0
 11
40.71251200000003
 21
-10.44575299999999
 31
0.0
  0
LINE
  5
156
102
{ACAD_REACTORS
330
9BC
102
}
330
A
100
AcDbEntity
  8
1
 48
0.100717
100
AcDbLine
 10
54.02098600000002
 20
-2.17438400000001
 30
0.0
 11
50.59933400000014
 21
-4.300979999999995
 31
0.0
  0
LINE
  5
157
102
{ACAD_REACTORS
330
9BC
102
}
330
A
100
AcDbEntity
  8
1
 48
0.004378
100
AcDbLine
 10
40.70040300000002
 20
-10.27106999999999
 30
0.0
 11
40.71251200000003
 21
-10.44575299999999
 31
0.0
  0
ELLIPSE
  5
158
102
{ACAD_REACTORS
330
9BC
102
}
330
A
100
AcDbEntity
  8
1
100
AcDbEllipse
 10
55.38812000000003
 20
-4.240735999999998
 30
0.0
 11
2.275306463241576
 21
-1.035847902297972
 31
0.0
210
0.0
220
0.0
230
-1.0
 40
0.9693000000000001
 41
3.714788699634343
 42
6.283264088568157
  0
ELLIPSE
  5
159
102
{ACAD_REACTORS
330
9BC
102
}
330
A
100
AcDbEntity
  8
1
100
AcDbEllipse
 10
55.38812000000003
 20
-4.240735999999998
 30
0.0
 11
2.275306463241576
 21
-1.035847902297972
 31
0.0
210
0.0
220
0.0
230
-1.0
 40
0.9693000000000001
 41
0.0000787813885725
 42
0.5731960460445446
  0
LINE
  5
15A
102
{ACAD_REACTORS
330
9BC
102
}
330
A
100
AcDbEntity
  8
1
 48
0.004619
100
AcDbLine
 10
54.00873500000002
 20
-7.033082000000008
 30
0.0
 11
54.17741700000002
 21
-6.957702000000002
 31
0.0
  0
LINE
  5
15B
102
{ACAD_REACTORS
330
9BC
102
}
330
A
100
AcDbEntity
  8
1
 48
0.038415
100
AcDbLine
 10
54.17741700000002
 20
-6.957702000000002
 30
0.0
 11
53.49404400000007
 21
-8.333968000000004
 31
0.0
  0
LINE
  5
15C
102
{ACAD_REACTORS
330
9BC
102
}
330
A
100
AcDbEntity
  8
1
 48
0.009014
100
AcDbLine
 10
53.80026900000004
 20
-8.143646000000025
 30
0.0
 11
53.49404400000007
 21
-8.333968000000004
 31
0.0
  0
LINE
  5
15D
102
{ACAD_REACTORS
330
9BC
102
}
330
A
100
AcDbEntity
  8
1
 48
0.08698
100
AcDbLine
 10
53.80026900000004
 20
-8.143646000000025
 30
0.0
 11
56.75525300000007
 21
-6.307090000000008
 31
0.0
  0
LINE
  5
15E
102
{ACAD_REACTORS
330
9BC
102
}
330
A
100
AcDbEntity
  8
1
 48
0.207502
100
AcDbLine
 10
53.17547200000003
 20
-16.627913
 30
0.0
 11
53.49404400000007
 21
-8.333968000000004
 31
0.0
  0
LINE
  5
15F
102
{ACAD_REACTORS
330
9BC
102
}
330
A
100
AcDbEntity
  8
1
 48
0.006335
100
AcDbLine
 10
53.68253600000007
 20
-8.503318000000009
 30
0.0
 11
53.49404400000007
 21
-8.333968000000004
 31
0.0
  0
LINE
  5
160
102
{ACAD_REACTORS
330
9BC
102
}
330
A
100
AcDbEntity
  8
1
100
AcDbLine
 10
41.25000000000013
 20
15.75000000000001
 30
0.0
 11
10.25000000000011
 21
15.75000000000001
 31
0.0
  0
LINE
  5
161
102
{ACAD_REACTORS
330
9BC
102
}
330
A
100
AcDbEntity
  8
1
 48
0.008839
100
AcDbLine
 10
10.25000000000011
 20
15.75000000000001
 30
0.0
 11
10.00000000000011
 21
15.99999999999999
 31
0.0
  0
LINE
  5
162
102
{ACAD_REACTORS
330
53A
102
}
330
A
100
AcDbEntity
  8
SK1
 48
0.035355
100
AcDbLine
 10
-259.75
 20
15.0
 30
0.0
 11
-258.7499999999999
 21
15.99999999999999
 31
0.0
  0
LINE
  5
163
102
{ACAD_REACTORS
330
9BC
102
}
330
A
100
AcDbEntity
  8
1
100
AcDbLine
 10
10.00000000000011
 20
15.99999999999999
 30
0.0
 11
0.0
 21
15.99999999999999
 31
0.0
  0
LINE
  5
164
102
{ACAD_REACTORS
330
9BC
102
}
330
A
100
AcDbEntity
  8
1
 48
0.309838
100
AcDbLine
 10
65.25000000000003
 20
8.999999999999991
 30
0.0
 11
54.85591200000013
 21
15.75000000000001
 31
0.0
  0
LINE
  5
165
102
{ACAD_REACTORS
330
9BC
102
}
330
A
100
AcDbEntity
  8
1
 48
0.340148
100
AcDbLine
 10
54.85591200000013
 20
15.75000000000001
 30
0.0
 11
41.25000000000013
 21
15.75000000000001
 31
0.0
  0
LINE
  5
166
102
{ACAD_REACTORS
330
9BC
102
}
330
A
100
AcDbEntity
  8
1
 48
0.351699
100
AcDbLine
 10
65.25000000000003
 20
-9.0
 30
0.0
 11
53.45163300000002
 21
-16.66194899999999
 31
0.0
  0
ELLIPSE
  5
167
102
{ACAD_REACTORS
330
9BB
330
C1C
102
}
330
A
100
AcDbEntity
  8
INSERT
100
AcDbEllipse
 10
41.04617900000002
 20
-24.215013
 30
0.0
 11
0.7280980348587037
 21
-0.3314713239669802
 31
0.0
210
0.0
220
0.0
230
-1.0
 40
0.9692999999999999
 41
0.5731960460445574
 42
2.754857611037464
  0
LINE
  5
168
102
{ACAD_REACTORS
330
9BB
330
C1C
102
}
330
A
100
AcDbEntity
  8
INSERT
 48
0.329864
100
AcDbLine
 10
40.63943800000012
 20
-10.985357
 30
0.0
 11
40.25067300000015
 21
-24.17420600000002
 31
0.0
  0
ELLIPSE
  5
169
102
{ACAD_REACTORS
330
9BB
330
C1C
102
}
330
A
100
AcDbEntity
  8
INSERT
 48
0.331458
100
AcDbEllipse
 10
41.43494400000006
 20
-11.026164
 30
0.0
 11
0.7280980348587037
 21
-0.3314713239669802
 31
0.0
210
0.0
220
0.0
230
-1.0
 40
0.9692999999999999
 41
2.754857611037464
 42
3.141470455694657
  0
ELLIPSE
  5
16A
102
{ACAD_REACTORS
330
9BB
330
C1C
102
}
330
A
100
AcDbEntity
  8
INSERT
 48
0.331458
100
AcDbEllipse
 10
41.43494400000006
 20
-11.026164
 30
0.0
 11
0.7280980348587037
 21
-0.3314713239669802
 31
0.0
210
0.0
220
0.0
230
-1.0
 40
0.9692999999999999
 41
3.141470455694657
 42
3.714788699634352
  0
LINE
  5
16B
102
{ACAD_REACTORS
330
9BB
330
C1C
102
}
330
A
100
AcDbEntity
  8
INSERT
 48
0.331458
100
AcDbLine
 10
52.25810100000003
 20
-3.366315000000006
 30
0.0
 11
40.99746200000007
 21
-10.364931
 31
0.0
  0
ELLIPSE
  5
16C
102
{ACAD_REACTORS
330
9BB
330
C1C
102
}
330
A
100
AcDbEntity
  8
INSERT
 48
0.331458
100
AcDbEllipse
 10
52.69558300000003
 20
-4.027548000000009
 30
0.0
 11
0.7280980348587037
 21
-0.3314713239669802
 31
0.0
210
0.0
220
0.0
230
-1.0
 40
0.9692999999999999
 41
3.714788699634348
 42
5.896450264627257
  0
ELLIPSE
  5
16D
102
{ACAD_REACTORS
330
9BB
102
}
330
A
100
AcDbEntity
  8
INSERT
 48
0.331458
100
AcDbEllipse
 10
53.34250600000004
 20
-2.606540999999999
 30
0.0
 11
0.7280980348587037
 21
-0.3314713239669802
 31
0.0
210
0.0
220
0.0
230
-1.0
 40
0.9692999999999999
 41
5.274551440251201
 42
5.896450264627257
  0
LINE
  5
16E
102
{ACAD_REACTORS
330
9BB
330
C1C
102
}
330
A
100
AcDbEntity
  8
INSERT
 48
0.331458
100
AcDbLine
 10
53.10232500000004
 20
-17.25720400000001
 30
0.0
 11
53.49109000000006
 21
-4.068354999999995
 31
0.0
  0
LINE
  5
16F
102
{ACAD_REACTORS
330
9BB
102
}
330
A
100
AcDbEntity
  8
INSERT
 48
0.331458
100
AcDbLine
 10
54.000452
 20
-7.314094000000002
 30
0.0
 11
54.13801300000002
 21
-2.647348000000008
 31
0.0
  0
ELLIPSE
  5
170
102
{ACAD_REACTORS
330
9BB
330
C1C
102
}
330
A
100
AcDbEntity
  8
INSERT
 48
0.331458
100
AcDbEllipse
 10
52.30681900000003
 20
-17.216397
 30
0.0
 11
0.7280980348587037
 21
-0.3314713239669802
 31
0.0
210
0.0
220
0.0
230
-1.0
 40
0.9692999999999999
 41
5.896450264627257
 42
6.283063109284451
  0
ELLIPSE
  5
171
102
{ACAD_REACTORS
330
9BB
330
C1C
102
}
330
A
100
AcDbEntity
  8
INSERT
 48
0.331458
100
AcDbEllipse
 10
52.30681900000003
 20
-17.216397
 30
0.0
 11
0.7280980348587037
 21
-0.3314713239669802
 31
0.0
210
0.0
220
0.0
230
-1.0
 40
0.9692999999999999
 41
6.283063109284451
 42
6.856381353224143
  0
LINE
  5
172
102
{ACAD_REACTORS
330
9BB
330
C1C
102
}
330
A
100
AcDbEntity
  8
INSERT
 48
0.331458
100
AcDbLine
 10
41.48366200000006
 20
-24.876246
 30
0.0
 11
52.74430100000003
 21
-17.87762999999999
 31
0.0
  0
ELLIPSE
  5
173
102
{ACAD_REACTORS
330
9BB
330
C1C
102
}
330
A
100
AcDbEntity
  8
INSERT
 48
0.331458
100
AcDbEllipse
 10
46.870882
 20
-14.121281
 30
0.0
 11
2.75767135620117
 21
-1.25544762611389
 31
0.0
210
0.0
220
0.0
230
-1.0
 40
0.9693000000000001
 41
4.785585026429584
 42
11.06877033360917
  0
ELLIPSE
  5
174
102
{ACAD_REACTORS
330
9BB
102
}
330
A
100
AcDbEntity
  8
INSERT
 48
0.331458
100
AcDbEllipse
 10
46.91672700000006
 20
-14.020579
 30
0.0
 11
2.348116159439086
 21
-1.068994998931884
 31
0.0
210
0.0
220
0.0
230
-1.0
 40
0.9693000000000001
 41
6.28311018451312
 42
9.424702838102916
  0
ELLIPSE
  5
175
102
{ACAD_REACTORS
330
9BB
102
}
330
A
100
AcDbEntity
  8
INSERT
 48
0.331458
100
AcDbEllipse
 10
46.91672700000006
 20
-14.020579
 30
0.0
 11
2.348116159439086
 21
-1.068994998931884
 31
0.0
210
0.0
220
0.0
230
-1.0
 40
0.9693000000000001
 41
3.141517530923328
 42
4.78558502642924
  0
ELLIPSE
  5
176
102
{ACAD_REACTORS
330
9BB
102
}
330
A
100
AcDbEntity
  8
INSERT
 48
0.331458
100
AcDbEllipse
 10
46.91672700000006
 20
-14.020579
 30
0.0
 11
2.348116159439086
 21
-1.068994998931884
 31
0.0
210
0.0
220
0.0
230
-1.0
 40
0.9693000000000001
 41
4.78558502642924
 42
6.28311018451312
  0
LINE
  5
179
102
{ACAD_REACTORS
330
9BB
330
C1C
102
}
330
A
100
AcDbEntity
  8
INSERT
 48
0.331458
100
AcDbLine
 10
40.86266300000014
 20
-10.35243099999999
 30
0.0
 11
40.70680700000004
 21
-10.69477899999999
 31
0.0
  0
LINE
  5
17A
102
{ACAD_REACTORS
330
9BB
330
C1C
102
}
330
A
100
AcDbEntity
  8
INSERT
 48
0.331458
100
AcDbLine
 10
53.43291700000007
 20
-16.673634
 30
0.0
 11
53.03495600000005
 21
-17.547782
 31
0.0
  0
ELLIPSE
  5
17B
102
{ACAD_REACTORS
330
9BB
102
}
330
A
100
AcDbEntity
  8
INSERT
100
AcDbEllipse
 10
48.99420600000005
 20
0.4960839999999891
 30
0.0
 11
3.640490293502806
 21
-1.657356619834899
 31
0.0
210
0.0
220
0.0
230
-1.0
 40
0.9693000000000001
 41
0.0140564131900652
 42
2.143992372839444
  0
ELLIPSE
  5
17C
102
{ACAD_REACTORS
330
9BB
102
}
330
A
100
AcDbEntity
  8
INSERT
100
AcDbEllipse
 10
48.99420600000005
 20
0.4960839999999891
 30
0.0
 11
3.640490293502806
 21
-1.657356619834899
 31
0.0
210
0.0
220
0.0
230
-1.0
 40
0.9693000000000001
 41
2.143992372839444
 42
3.128148035311146
  0
ELLIPSE
  5
17D
102
{ACAD_REACTORS
330
9BB
102
}
330
A
100
AcDbEntity
  8
INSERT
100
AcDbEllipse
 10
48.93308000000004
 20
0.3618160000000046
 30
0.0
 11
2.694663047790526
 21
-1.226762771606444
 31
0.0
210
0.0
220
0.0
230
-1.0
 40
0.9693000000000001
 41
5.28558502642924
 42
11.56877033360882
  0
LINE
  5
17E
102
{ACAD_REACTORS
330
9BB
102
}
330
A
100
AcDbEntity
  8
INSERT
 48
0.042367
100
AcDbLine
 10
49.03368700000013
 20
-1.325280000000004
 30
0.0
 11
50.47303300000013
 21
-0.4307100000000049
 31
0.0
  0
LINE
  5
17F
102
{ACAD_REACTORS
330
9BB
102
}
330
A
100
AcDbEntity
  8
INSERT
 48
0.042252
100
AcDbLine
 10
50.47303300000013
 20
-0.4307100000000049
 30
0.0
 11
50.37242600000005
 21
1.256387000000003
 31
0.0
  0
LINE
  5
180
102
{ACAD_REACTORS
330
9BB
102
}
330
A
100
AcDbEntity
  8
INSERT
 48
0.043298
100
AcDbLine
 10
50.37242600000005
 20
1.256387000000003
 30
0.0
 11
48.83247200000003
 21
2.048913999999987
 31
0.0
  0
LINE
  5
181
102
{ACAD_REACTORS
330
9BB
102
}
330
A
100
AcDbEntity
  8
INSERT
 48
0.042367
100
AcDbLine
 10
48.83247200000003
 20
2.048913999999987
 30
0.0
 11
47.393126
 21
1.154343999999994
 31
0.0
  0
LINE
  5
182
102
{ACAD_REACTORS
330
9BB
102
}
330
A
100
AcDbEntity
  8
INSERT
 48
0.042252
100
AcDbLine
 10
47.393126
 20
1.154343999999994
 30
0.0
 11
47.49373400000004
 21
-0.5327530000000067
 31
0.0
  0
LINE
  5
183
102
{ACAD_REACTORS
330
9BB
102
}
330
A
100
AcDbEntity
  8
INSERT
 48
0.043298
100
AcDbLine
 10
47.49373400000004
 20
-0.5327530000000067
 30
0.0
 11
49.03368700000013
 21
-1.325280000000004
 31
0.0
  0
LINE
  5
184
102
{ACAD_REACTORS
330
9BB
102
}
330
A
100
AcDbEntity
  8
INSERT
 48
0.02765
100
AcDbLine
 10
49.49213600000003
 20
-0.3182669999999987
 30
0.0
 11
50.43150800000015
 21
0.2655639999999906
 31
0.0
  0
LINE
  5
185
102
{ACAD_REACTORS
330
9BB
102
}
330
A
100
AcDbEntity
  8
INSERT
 48
0.043298
100
AcDbLine
 10
47.95218300000013
 20
0.4742599999999939
 30
0.0
 11
49.49213600000003
 21
-0.3182669999999987
 31
0.0
  0
LINE
  5
186
102
{ACAD_REACTORS
330
9BB
102
}
330
A
100
AcDbEntity
  8
INSERT
 48
0.024815
100
AcDbLine
 10
47.89309600000009
 20
1.465085999999991
 30
0.0
 11
47.95218300000013
 21
0.4742599999999939
 31
0.0
  0
LINE
  5
187
102
{ACAD_REACTORS
330
9BB
102
}
330
A
100
AcDbEntity
  8
INSERT
 48
0.027661
100
AcDbLine
 10
49.03368700000013
 20
-1.325280000000004
 30
0.0
 11
49.49213600000003
 21
-0.3182669999999987
 31
0.0
  0
LINE
  5
188
102
{ACAD_REACTORS
330
9BB
102
}
330
A
100
AcDbEntity
  8
INSERT
 48
0.027661
100
AcDbLine
 10
47.49373400000004
 20
-0.5327530000000067
 30
0.0
 11
47.95218300000013
 21
0.4742599999999939
 31
0.0
  0
ELLIPSE
  5
18B
102
{ACAD_REACTORS
330
9BB
102
}
330
A
100
AcDbEntity
  8
INSERT
 48
0.331458
100
AcDbEllipse
 10
46.977803
 20
-14.028822
 30
0.0
 11
-1.456196069717406
 21
0.6629426479339602
 31
0.0
210
0.0
220
0.0
230
-1.0
 40
0.9693000000000001
 41
2.842124073305751
 42
5.983716727558427
  0
LINE
  5
18C
102
{ACAD_REACTORS
330
9BB
102
}
330
A
100
AcDbEntity
  8
INSERT
 48
0.331458
100
AcDbLine
 10
45.46600600000013
 20
-13.232701
 30
0.0
 11
45.39685800000003
 21
-13.811794
 31
0.0
  0
ELLIPSE
  5
18D
102
{ACAD_REACTORS
330
9BB
102
}
330
A
100
AcDbEntity
  8
INSERT
 48
0.331458
100
AcDbEllipse
 10
47.04695100000011
 20
-13.449729
 30
0.0
 11
-1.456196069717406
 21
0.6629426479339602
 31
0.0
210
0.0
220
0.0
230
-1.0
 40
0.9693000000000001
 41
5.983716726896353
 42
9.125309381149376
  0
LINE
  5
18E
102
{ACAD_REACTORS
330
9BB
102
}
330
A
100
AcDbEntity
  8
INSERT
 48
0.331458
100
AcDbLine
 10
48.55874800000012
 20
-14.24585000000001
 30
0.0
 11
48.62789600000005
 21
-13.666757
 31
0.0
  0
ELLIPSE
  5
18F
102
{ACAD_REACTORS
330
9BB
102
}
330
A
100
AcDbEntity
  8
INSERT
 48
0.331458
100
AcDbEllipse
 10
47.0287420000001
 20
-13.91693200000001
 30
0.0
 11
-1.911257386207577
 21
0.8701122403144834
 31
0.0
210
0.0
220
0.0
230
-0.9999999999999998
 40
0.9693000000000001
 41
3.141576798775584
 42
5.983716727225385
  0
ELLIPSE
  5
190
102
{ACAD_REACTORS
330
9BB
102
}
330
A
100
AcDbEntity
  8
INSERT
 48
0.331458
100
AcDbEllipse
 10
47.0287420000001
 20
-13.91693200000001
 30
0.0
 11
-1.911257386207577
 21
0.8701122403144834
 31
0.0
210
0.0
220
0.0
230
-0.9999999999999998
 40
0.9693000000000001
 41
2.842124073638787
 42
3.141576798775584
  0
LINE
  5
192
102
{ACAD_REACTORS
330
9BB
102
}
330
A
100
AcDbEntity
  8
INSERT
 48
0.331458
100
AcDbLine
 10
45.02288300000006
 20
-13.052987
 30
0.0
 11
44.953734
 21
-13.63208000000001
 31
0.0
  0
ELLIPSE
  5
193
102
{ACAD_REACTORS
330
9BB
102
}
330
A
100
AcDbEntity
  8
INSERT
 48
0.331458
100
AcDbEllipse
 10
47.09789000000013
 20
-13.33783900000001
 30
0.0
 11
-1.911257386207577
 21
0.8701122403144834
 31
0.0
210
0.0
220
0.0
230
-0.9999999999999998
 40
0.9693000000000001
 41
2.383090971429333
 42
2.842124073635581
  0
ELLIPSE
  5
194
102
{ACAD_REACTORS
330
9BB
102
}
330
A
100
AcDbEntity
  8
INSERT
 48
0.331458
100
AcDbEllipse
 10
47.09789000000013
 20
-13.33783900000001
 30
0.0
 11
-1.911257386207577
 21
0.8701122403144834
 31
0.0
210
0.0
220
0.0
230
-0.9999999999999998
 40
0.9693000000000001
 41
6.283169452365378
 42
6.716132238981032
  0
ELLIPSE
  5
195
102
{ACAD_REACTORS
330
9BB
102
}
330
A
100
AcDbEntity
  8
INSERT
 48
0.331458
100
AcDbEllipse
 10
47.09789000000013
 20
-13.33783900000001
 30
0.0
 11
-1.911257386207577
 21
0.8701122403144834
 31
0.0
210
0.0
220
0.0
230
-0.9999999999999998
 40
0.9693000000000001
 41
5.983716727228567
 42
6.283169452365378
  0
LINE
  5
196
102
{ACAD_REACTORS
330
9BB
102
}
330
A
100
AcDbEntity
  8
INSERT
 48
0.331458
100
AcDbLine
 10
49.10374900000014
 20
-14.20178299999999
 30
0.0
 11
49.17289700000007
 21
-13.62269100000001
 31
0.0
  0
INSERT
  5
524
330
A
100
AcDbEntity
  8
SK2
100
AcDbBlockReference
  2
CERO_POINT
 10
0.0
 20
0.0
 30
0.0
 41
-1.0
  0
LINE
  5
525
330
A
100
AcDbEntity
  8
INFTOTAL
100
AcDbLine
 10
-281.9387681807171
 20
37.43342701690642
 30
0.0
 11
-231.938768180717
 21
37.43342701690639
 31
0.0
  0
LINE
  5
526
330
A
100
AcDbEntity
  8
INFTOTAL
100
AcDbLine
 10
99.09592756507741
 20
-8.391874824170699
 30
0.0
 11
99.09592756507741
 21
-58.39187482417067
 31
0.0
  0
LINE
  5
527
330
A
100
AcDbEntity
  8
INFTOTAL
100
AcDbLine
 10
99.09592756507741
 20
-58.39187482417067
 30
0.0
 11
49.09592756507728
 21
-58.39187482417067
 31
0.0
  0
LINE
  5
528
330
A
100
AcDbEntity
  8
INFTOTAL
100
AcDbLine
 10
-281.9387681807171
 20
-12.56657298309357
 30
0.0
 11
-281.9387681807171
 21
37.43342701690642
 31
0.0
  0
LINE
  5
535
102
{ACAD_REACTORS
330
53A
102
}
330
A
100
AcDbEntity
  8
SK1
100
AcDbLine
 10
0.0000000000001137
 20
15.99999999999998
 30
0.0
 11
-258.7499999999999
 21
15.99999999999999
 31
0.0
  0
LINE
  5
536
102
{ACAD_REACTORS
330
53A
102
}
330
A
100
AcDbEntity
  8
SK1
100
AcDbLine
 10
0.0
 20
5.567763999999987
 30
0.0
 11
-258.7499999999999
 21
5.567763999999987
 31
0.0
  0
LINE
  5
537
330
A
100
AcDbEntity
  8
SK4
100
AcDbLine
 10
0.0
 20
0.0
 30
0.0
 11
-263.6439779388223
 21
0.0
 31
0.0
  0
LINE
  5
538
102
{ACAD_REACTORS
330
53A
102
}
330
A
100
AcDbEntity
  8
SK1
100
AcDbLine
 10
0.0
 20
-5.567764000000011
 30
0.0
 11
-258.7499999999999
 21
-5.567764000000011
 31
0.0
  0
LINE
  5
539
102
{ACAD_REACTORS
330
53A
102
}
330
A
100
AcDbEntity
  8
SK1
100
AcDbLine
 10
0.0
 20
-14.5
 30
0.0
 11
-258.7499999999999
 21
-14.5
 31
0.0
  0
DIMENSION
  5
726
102
{ACAD_REACTORS
330
9BA
102
}
330
A
100
AcDbEntity
  8
SK2
100
AcDbDimension
  2
*D2
 10
-273.0370278799978
 20
-15.99999999999999
 30
0.0
 11
-275.4735176902578
 21
-1.250000000000043
 31
0.0
 70
    32
  1
D<>
 71
     5
 42
31.99999999999999
  3
DIAMETER
100
AcDbAlignedDimension
 13
-258.7499999999999
 23
15.99999999999999
 33
0.0
 14
-258.7499999999999
 24
-16.0
 34
0.0
 50
90.0
100
AcDbRotatedDimension
  0
DIMENSION
  5
74A
102
{ACAD_REACTORS
330
9BA
102
}
330
A
100
AcDbEntity
  8
SK2
100
AcDbDimension
  2
*D3
 10
40.25034200000007
 20
-33.13498757249337
 30
0.0
 11
-109.7498289999998
 21
-30.69849776223337
 31
0.0
 70
    32
 71
     5
 42
300.000342
  3
STANDARD
100
AcDbAlignedDimension
 13
-259.75
 23
-14.5
 33
0.0
 14
40.25034200000007
 24
-25.0
 34
0.0
 50
180.0
100
AcDbRotatedDimension
  0
DIMENSION
  5
757
102
{ACAD_REACTORS
330
9A9
102
}
330
A
100
AcDbEntity
  8
2
100
AcDbDimension
  2
*D4
 10
86.76167478598982
 20
-0.0000000000000032
 30
0.0
 11
84.32518497572981
 21
-12.49999999999999
 31
0.0
 70
    32
 71
     5
 42
25.00000000000001
  3
STANDARD
100
AcDbAlignedDimension
 13
40.25034200000007
 23
-25.0
 33
0.0
 14
75.38865700000005
 24
0.0
 34
0.0
 50
90.0
100
AcDbRotatedDimension
  0
DIMENSION
  5
764
102
{ACAD_REACTORS
330
9A9
102
}
330
A
100
AcDbEntity
  8
2
100
AcDbDimension
  2
*D5
 10
10.25000000000011
 20
29.63178757805776
 30
0.0
 11
25.2501710000001
 21
32.06827738831778
 31
0.0
 70
    32
 71
     5
 42
30.00034199999996
  3
STANDARD
100
AcDbAlignedDimension
 13
40.25034200000007
 23
-25.0
 33
0.0
 14
10.25000000000011
 24
15.75000000000001
 34
0.0
 50
180.0
100
AcDbRotatedDimension
  0
DIMENSION
  5
771
102
{ACAD_REACTORS
330
9A9
102
}
330
A
100
AcDbEntity
  8
2
100
AcDbDimension
  2
*D6
 10
45.41019509923077
 20
-25.0
 30
0.0
 11
31.7610489278428
 21
-20.35433477466876
 31
0.0
 70
   162
  1
93%%D
 71
     5
 42
1.600264589094695
  3
STANDARD
100
AcDb2LineAngularDimension
 13
40.63943800000012
 23
-10.985357
 33
0.0
 14
40.25067300000015
 24
-24.17420600000002
 34
0.0
 15
38.25000000000013
 25
-25.0
 35
0.0
 16
35.56341288908377
 26
-16.54420893950126
 36
0.0
  0
HATCH
  5
C1C
330
A
100
AcDbEntity
  8
7
100
AcDbHatch
 10
0.0
 20
0.0
 30
0.0
210
0.0
220
0.0
230
1.0
  2
ANSI37
 70
     0
 71
     1
 91
        2
 92
        5
 93
       13
 72
     3
 10
52.69558300000003
 20
-4.027548000000009
 11
0.7280980348587037
 21
-0.3314713239669802
 40
0.9692999999999996
 50
21.54118302876371
 51
147.967000107017
 73
     1
 72
     1
 10
52.2581028266549
 20
-3.366313864713084
 11
40.99745847289061
 21
-10.36493319213888
 72
     3
 10
41.43494400000006
 20
-11.026164
 11
0.7280980348587037
 21
-0.3314713239669802
 40
0.9692999999999996
 50
147.9670001070167
 51
179.9515764730542
 73
     1
 72
     1
 10
40.70712638484947
 20
-10.69407745007933
 11
40.70680005689275
 21
-10.69479425099382
 72
     3
 10
41.43494400000006
 20
-11.026164
 11
0.7280980348587037
 21
-0.3314713239669802
 40
0.9692999999999996
 50
180.0067864799523
 51
183.824540808588
 73
     1
 72
     3
 10
41.43494400000006
 20
-11.026164
 11
0.7280980348587037
 21
-0.3314713239669802
 40
0.9692999999999996
 50
183.824540808588
 51
201.5411830287638
 73
     1
 72
     1
 10
40.63943825556729
 20
-10.98534832988617
 11
40.2506728398548
 21
-24.17421143292953
 72
     3
 10
41.04617900000002
 20
-24.215013
 11
0.7280980348587037
 21
-0.3314713239669802
 40
0.9692999999999996
 50
201.5411830287638
 51
327.9670001070167
 73
     1
 72
     1
 10
41.48366472931479
 20
-24.87624430369966
 11
52.74430452207989
 21
-17.87762781098705
 72
     3
 10
52.30681900000003
 20
-17.216397
 11
0.7280980348587037
 21
-0.3314713239669802
 40
0.9692999999999996
 50
-32.03299989298307
 51
0.0067864799524086
 73
     1
 72
     1
 10
53.0349543473509
 20
-17.54778563015459
 11
53.03519714556724
 21
-17.54725230760482
 72
     3
 10
52.30681900000003
 20
-17.216397
 11
0.7280980348587037
 21
-0.3314713239669802
 40
0.9692999999999996
 50
0.0484658784349662
 51
21.54118302876371
 73
     1
 72
     1
 10
53.10232478944834
 20
-17.25721114296402
 11
53.49108981611799
 21
-4.068361238197567
 97
       12
330
16C
330
16B
330
16A
330
179
330
169
330
168
330
167
330
172
330
171
330
17A
330
170
330
16E
 92
       20
 93
        1
 72
     3
 10
46.870882
 20
-14.121281
 11
2.75767135620117
 21
-1.25544762611389
 40
0.9693000000000001
 50
0.0
 51
360.0
 73
     0
 97
        1
330
173
 75
     0
 76
     1
 52
0.0
 41
0.125
 77
     0
 78
     2
 53
45.0
 43
0.0
 44
0.0
 45
-0.280633003783411
 46
0.280633003783411
 79
     0
 53
135.0
 43
0.0
 44
0.0
 45
-0.280633003783411
 46
-0.280633003783411
 79
     0
 47
0.0615029409519871
 98
        4
 10
51.38830078095814
 20
-11.41317678308585
 10
51.38830078095814
 20
-11.41317678308585
 10
51.38830078095814
 20
-11.41317678308585
 10
51.38830078095814
 20
-11.41317678308585
1001
ACAD
1010
0.0
1020
0.0
1030
0.0
  0
TEXT
  5
D8D
330
A
100
AcDbEntity
  8
SK6
100
AcDbText
 10
-130.4377351822255
 20
-49.62046488575733
 30
0.0
 40
3.499999999999999
  1
 S32T PDZNL 15
100
AcDbText
1001
ACAD
1000
MTEXTBEGIN
1070
    73
1070
     1
1070
    44
1040
1.0
1070
    74
1070
     0
1000
MTEXTEND
  0
VIEWPORT
  5
2A
102
{ACAD_XDICTIONARY
360
D5B
102
}
330
B
100
AcDbEntity
 67
     1
  8
0
 62
     0
370
     0
100
AcDbViewport
 10
0.0
 20
0.0
 30
0.0
 40
1000.0
 41
1000.0
 68
     1
 69
     1
 12
0.0
 22
0.0
 13
0.0
 23
0.0
 14
1.0
 24
1.0
 15
1.0
 25
1.0
 16
0.0
 26
0.0
 36
1.0
 17
0.0
 27
0.0
 37
0.0
 42
50.0
 43
0.0
 44
0.0
 45
1000.0
 50
0.0
 51
0.0
 72
   100
 90
        0
  1

281
     0
 71
     0
 74
     1
110
0.0
120
0.0
130
0.0
111
1.0
121
0.0
131
0.0
112
0.0
122
1.0
132
0.0
 79
     0
146
0.0
  0
ENDSEC
  0
SECTION
  2
OBJECTS
  0
DICTIONARY
  5
19
330
0
100
AcDbDictionary
281
     1
  3
ACAD_2007HEADERVARS_RT
350
D54
  3
ACAD_COLOR
350
10F
  3
ACAD_GROUP
350
1A
  3
ACAD_LAYOUT
350
1E
  3
ACAD_MATERIAL
350
10E
  3
ACAD_MLEADERSTYLE
350
A55
  3
ACAD_MLINESTYLE
350
1B
  3
ACAD_PLOTSETTINGS
350
22
  3
ACAD_PLOTSTYLENAME
350
1F
  3
ACAD_SCALELIST
350
A43
  3
ACAD_TABLESTYLE
350
110
  3
ACAD_VISUALSTYLE
350
A2F
  3
ACAD_WIPEOUT_VARS
350
23
  3
ACDB_RECOMPOSE_DATA
350
D52
  3
AcDbVariableDictionary
350
9C1
  3
DWGPROPS
350
D53
  0
DICTIONARY
  5
515
330
2
100
AcDbDictionary
280
     1
281
     1
  3
ACAD_LAYERFILTERS
360
9C0
  3
ACAD_LAYERSTATES
360
516
  3
ACLYDICTIONARY
360
9BF
  0
DICTIONARY
  5
B2B
330
14
100
AcDbDictionary
280
     1
281
     1
  3
ADSK_XREC_LAYER_RECONCILED
360
B2C
  0
DICTIONARY
  5
4D7
330
4D6
100
AcDbDictionary
280
     1
281
     1
  3
ADSK_XREC_LAYER_RECONCILED
360
4D8
  0
DICTIONARY
  5
4DA
330
4D9
100
AcDbDictionary
280
     1
281
     1
  3
ADSK_XREC_LAYER_RECONCILED
360
4DB
  0
DICTIONARY
  5
4DD
330
4DC
100
AcDbDictionary
280
     1
281
     1
  3
ADSK_XREC_LAYER_RECONCILED
360
4DE
  0
DICTIONARY
  5
4E3
330
4E2
100
AcDbDictionary
280
     1
281
     1
  3
ADSK_XREC_LAYER_RECONCILED
360
4E4
  0
DICTIONARY
  5
4E6
330
4E5
100
AcDbDictionary
280
     1
281
     1
  3
ADSK_XREC_LAYER_RECONCILED
360
4E7
  0
DICTIONARY
  5
4E9
330
4E8
100
AcDbDictionary
280
     1
281
     1
  3
ADSK_XREC_LAYER_RECONCILED
360
4EA
  0
DICTIONARY
  5
4F3
330
4F2
100
AcDbDictionary
280
     1
281
     1
  3
ADSK_XREC_LAYER_RECONCILED
360
4F4
  0
DICTIONARY
  5
B2D
330
4F6
100
AcDbDictionary
280
     1
281
     1
  3
ADSK_XREC_LAYER_RECONCILED
360
B2E
  0
DICTIONARY
  5
B2F
330
4F7
100
AcDbDictionary
280
     1
281
     1
  3
ADSK_XREC_LAYER_RECONCILED
360
B30
  0
DICTIONARY
  5
C1E
330
C1D
100
AcDbDictionary
280
     1
281
     1
  0
DICTIONARY
  5
19A
330
A
100
AcDbDictionary
280
     1
281
     1
  3
ACAD_SORTENTS
360
19B
  0
DICTIONARY
  5
D5B
330
2A
100
AcDbDictionary
280
     1
281
     1
  3
ACAD_XREC_ROUNDTRIP
360
D5C
  0
DICTIONARY
  5
D54
102
{ACAD_REACTORS
330
19
102
}
330
19
100
AcDbDictionary
281
     1
  3
DIMFXL
350
D55
  3
DIMJOGANG
350
D56
  0
DICTIONARY
  5
10F
102
{ACAD_REACTORS
330
19
102
}
330
19
100
AcDbDictionary
281
     1
  0
DICTIONARY
  5
1A
102
{ACAD_REACTORS
330
19
102
}
330
19
100
AcDbDictionary
281
     1
  3
*A1
350
50B
  3
*A10
350
C24
  3
*A11
350
53A
  3
*A12
350
9A9
  3
*A2
350
9BA
  3
*A3
350
9BB
  3
*A4
350
9BC
  3
*A5
350
C1F
  3
*A6
350
C20
  3
*A7
350
C21
  3
*A8
350
C22
  3
*A9
350
C23
  0
DICTIONARY
  5
1E
102
{ACAD_REACTORS
330
19
102
}
330
19
100
AcDbDictionary
281
     1
  3
Layout1
350
21
  3
Model
350
20
  0
DICTIONARY
  5
10E
102
{ACAD_REACTORS
330
19
102
}
330
19
100
AcDbDictionary
281
     1
  3
ByBlock
350
50C
  3
ByLayer
350
50F
  3
Global
350
512
  0
DICTIONARY
  5
A55
102
{ACAD_REACTORS
330
19
102
}
330
19
100
AcDbDictionary
281
     1
  3
Standard
350
A56
  0
DICTIONARY
  5
1B
102
{ACAD_REACTORS
330
19
102
}
330
19
100
AcDbDictionary
281
     1
  3
Standard
350
1C
  0
DICTIONARY
  5
22
102
{ACAD_REACTORS
330
19
102
}
330
19
100
AcDbDictionary
281
     1
  0
ACDBDICTIONARYWDFLT
  5
1F
102
{ACAD_REACTORS
330
19
102
}
330
19
100
AcDbDictionary
281
     1
  3
Normal
350
1D
100
AcDbDictionaryWithDefault
340
1D
  0
DICTIONARY
  5
A43
102
{ACAD_REACTORS
330
19
102
}
330
19
100
AcDbDictionary
281
     1
  3
A0
350
A44
  3
A1
350
A45
  3
A2
350
A46
  3
A3
350
A47
  3
A4
350
A48
  3
A5
350
A49
  3
A6
350
A4A
  3
A7
350
A4B
  3
A8
350
A4C
  3
A9
350
A4D
  3
B0
350
A4E
  3
B1
350
A4F
  3
B2
350
A50
  3
B3
350
A51
  3
B4
350
A52
  3
B5
350
A53
  3
B6
350
A54
  0
DICTIONARY
  5
110
102
{ACAD_REACTORS
330
19
102
}
330
19
100
AcDbDictionary
281
     1
  3
Standard
350
111
  0
DICTIONARY
  5
A2F
102
{ACAD_REACTORS
330
19
102
}
330
19
100
AcDbDictionary
281
     1
  3
2dWireframe
350
A35
  3
3D Hidden
350
A37
  3
3dWireframe
350
A36
  3
Basic
350
A34
  3
Brighten
350
A3B
  3
ColorChange
350
A3F
  3
Conceptual
350
A38
  3
Dim
350
A3A
  3
EdgeColorOff
350
A42
  3
Facepattern
350
A3E
  3
Flat
350
A30
  3
FlatWithEdges
350
A31
  3
Gouraud
350
A32
  3
GouraudWithEdges
350
A33
  3
JitterOff
350
A40
  3
Linepattern
350
A3D
  3
OverhangOff
350
A41
  3
Realistic
350
A39
  3
Thicken
350
A3C
  0
WIPEOUTVARIABLES
  5
23
330
19
100
AcDbWipeoutVariables
 70
     1
  0
XRECORD
  5
D52
102
{ACAD_REACTORS
330
19
102
}
330
19
100
AcDbXrecord
280
     1
 90
        1
330
111
  0
DICTIONARY
  5
9C1
102
{ACAD_REACTORS
330
19
102
}
330
19
100
AcDbDictionary
281
     1
  3
CANNOSCALE
350
B32
  3
CMLEADERSTYLE
350
B31
  3
CTABLESTYLE
350
9C2
  3
DIMASSOC
350
9C3
  3
INDEXCTL
350
B34
  3
PROJECTNAME
350
9C4
  3
SORTENTS
350
B33
  3
XCLIPFRAME
350
D50
  0
XRECORD
  5
D53
102
{ACAD_REACTORS
330
19
102
}
330
19
100
AcDbXrecord
280
     1
  1
DWGPROPS COOKIE
  2

  3

  4

  6

  7

  8
designcad03
  9

300
=
301
=
302
=
303
=
304
=
305
=
306
=
307
=
308
=
309
=
 40
0.1506280787037037
 41
2455379.420921042
 42
2455477.683017939
  1

 90
        0
  0
DICTIONARY
  5
9C0
102
{ACAD_REACTORS
330
515
102
}
330
515
100
AcDbDictionary
281
     1
  0
DICTIONARY
  5
516
102
{ACAD_REACTORS
330
515
102
}
330
515
100
AcDbDictionary
281
     1
  0
DICTIONARY
  5
9BF
102
{ACAD_REACTORS
330
515
102
}
330
515
100
AcDbDictionary
281
     1
1001
ACAD
1000
<All
  0
XRECORD
  5
B2C
102
{ACAD_REACTORS
330
B2B
102
}
330
B2B
100
AcDbXrecord
280
     1
290
     1
  0
XRECORD
  5
4D8
102
{ACAD_REACTORS
330
4D7
102
}
330
4D7
100
AcDbXrecord
280
     1
290
     1
  0
XRECORD
  5
4DB
102
{ACAD_REACTORS
330
4DA
102
}
330
4DA
100
AcDbXrecord
280
     1
290
     1
  0
XRECORD
  5
4DE
102
{ACAD_REACTORS
330
4DD
102
}
330
4DD
100
AcDbXrecord
280
     1
290
     1
  0
XRECORD
  5
4E4
102
{ACAD_REACTORS
330
4E3
102
}
330
4E3
100
AcDbXrecord
280
     1
290
     1
  0
XRECORD
  5
4E7
102
{ACAD_REACTORS
330
4E6
102
}
330
4E6
100
AcDbXrecord
280
     1
290
     1
  0
XRECORD
  5
4EA
102
{ACAD_REACTORS
330
4E9
102
}
330
4E9
100
AcDbXrecord
280
     1
290
     1
  0
XRECORD
  5
4F4
102
{ACAD_REACTORS
330
4F3
102
}
330
4F3
100
AcDbXrecord
280
     1
290
     1
  0
XRECORD
  5
B2E
102
{ACAD_REACTORS
330
B2D
102
}
330
B2D
100
AcDbXrecord
280
     1
290
     1
  0
XRECORD
  5
B30
102
{ACAD_REACTORS
330
B2F
102
}
330
B2F
100
AcDbXrecord
280
     1
290
     1
  0
SORTENTSTABLE
  5
19B
102
{ACAD_REACTORS
330
19A
102
}
330
19A
100
AcDbSortentsTable
330
A
331
125
  5
128
331
527
  5
537
331
15C
  5
162
331
14D
  5
153
331
193
  5
19D
331
15B
  5
161
331
192
  5
19C
331
526
  5
536
331
14C
  5
152
331
124
  5
127
331
123
  5
126
331
525
  5
535
331
15A
  5
160
331
14B
  5
151
331
159
  5
15F
331
190
  5
199
331
74A
  5
757
331
122
  5
125
331
14A
  5
150
331
524
  5
534
331
121
  5
124
331
523
  5
533
331
158
  5
15E
331
149
  5
14F
331
18F
  5
197
331
18E
  5
196
331
148
  5
14E
331
187
  5
18F
331
120
  5
123
331
157
  5
15D
331
11F
  5
122
331
156
  5
15C
331
18D
  5
195
331
147
  5
14D
331
186
  5
18E
331
18C
  5
194
331
185
  5
18D
331
155
  5
15B
331
146
  5
14C
331
154
  5
15A
331
18B
  5
193
331
145
  5
14B
331
184
  5
18C
331
183
  5
18B
331
144
  5
14A
331
152
  5
158
331
114
  5
114
331
143
  5
149
331
182
  5
18A
331
188
  5
192
331
181
  5
189
331
151
  5
157
331
142
  5
148
331
150
  5
156
331
141
  5
147
331
180
  5
188
331
17F
  5
187
331
771
  5
BCB
331
140
  5
146
331
13F
  5
145
331
17E
  5
186
331
16F
  5
177
331
17D
  5
185
331
16E
  5
176
331
13E
  5
144
331
13D
  5
143
331
17C
  5
184
331
16D
  5
175
331
17B
  5
183
331
16C
  5
174
331
13C
  5
141
331
764
  5
771
331
13B
  5
140
331
17A
  5
182
331
16B
  5
173
331
16A
  5
172
331
13A
  5
13F
331
179
  5
181
331
139
  5
13E
331
537
  5
116
331
169
  5
171
331
528
  5
726
331
536
  5
12C
331
138
  5
13D
331
539
  5
142
331
168
  5
170
331
137
  5
13C
331
176
  5
180
331
538
  5
130
331
167
  5
16F
331
535
  5
16A
331
757
  5
764
331
136
  5
13B
331
175
  5
17D
331
12F
  5
134
331
166
  5
16D
331
174
  5
17C
331
12E
  5
133
331
165
  5
16C
331
135
  5
13A
331
134
  5
139
331
173
  5
17B
331
12D
  5
132
331
164
  5
16B
331
172
  5
17A
331
163
  5
169
331
133
  5
138
331
12C
  5
131
331
132
  5
137
331
171
  5
179
331
12B
  5
12F
331
162
  5
168
331
170
  5
178
331
161
  5
167
331
131
  5
136
331
12A
  5
12E
331
C1C
  5
16E
331
130
  5
135
331
129
  5
12D
331
160
  5
166
331
726
  5
74A
331
15F
  5
165
331
196
  5
528
331
128
  5
12B
331
195
  5
524
331
127
  5
12A
331
15E
  5
164
331
14F
  5
155
331
15D
  5
163
331
194
  5
523
331
14E
  5
154
331
126
  5
129
  0
XRECORD
  5
D5C
102
{ACAD_REACTORS
330
D5B
102
}
330
D5B
100
AcDbXrecord
280
     1
102
SHADEPLOT
 70
     0
  0
XRECORD
  5
D55
102
{ACAD_REACTORS
330
D54
102
}
330
D54
100
AcDbXrecord
280
     1
 40
1.25
  0
XRECORD
  5
D56
102
{ACAD_REACTORS
330
D54
102
}
330
D54
100
AcDbXrecord
280
     1
 40
1.570796326794896
  0
GROUP
  5
50B
102
{ACAD_REACTORS
330
1A
102
}
330
1A
100
AcDbGroup
300

 70
     1
 71
     1
  0
GROUP
  5
C24
102
{ACAD_REACTORS
330
1A
102
}
330
1A
100
AcDbGroup
300

 70
     1
 71
     1
  0
GROUP
  5
53A
102
{ACAD_REACTORS
330
1A
102
}
330
1A
100
AcDbGroup
300

 70
     1
 71
     1
340
539
340
538
340
535
340
536
340
162
340
144
340
142
340
141
340
140
340
13F
340
13E
340
13D
340
12A
340
129
  0
GROUP
  5
9A9
102
{ACAD_REACTORS
330
1A
102
}
330
1A
100
AcDbGroup
300

 70
     1
 71
     1
340
757
340
764
340
771
  0
GROUP
  5
9BA
102
{ACAD_REACTORS
330
1A
102
}
330
1A
100
AcDbGroup
300

 70
     1
 71
     1
340
74A
340
726
  0
GROUP
  5
9BB
102
{ACAD_REACTORS
330
1A
102
}
330
1A
100
AcDbGroup
300

 70
     1
 71
     1
340
196
340
195
340
194
340
193
340
192
340
190
340
18F
340
18E
340
18D
340
18C
340
18B
340
17A
340
179
340
176
340
175
340
174
340
173
340
172
340
171
340
170
340
16F
340
16E
340
16D
340
16C
340
16B
340
16A
340
169
340
168
340
167
340
17D
340
17C
340
17B
340
150
340
187
340
183
340
17E
340
152
340
188
340
186
340
185
340
184
340
182
340
181
340
180
340
17F
340
151
  0
GROUP
  5
9BC
102
{ACAD_REACTORS
330
1A
102
}
330
1A
100
AcDbGroup
300

 70
     1
 71
     1
340
166
340
165
340
164
340
163
340
161
340
160
340
15F
340
15E
340
15D
340
15C
340
15B
340
15A
340
159
340
158
340
157
340
156
340
155
340
154
340
14F
340
14E
340
14D
340
14C
340
14B
340
14A
340
149
340
148
340
147
340
146
340
145
340
143
340
13C
340
13B
340
13A
340
139
340
138
340
137
340
136
340
135
340
134
340
133
340
132
340
131
340
130
340
12F
340
12E
340
12D
340
12C
340
12B
340
128
340
127
340
126
340
125
340
124
340
123
340
122
340
121
340
120
340
11F
  0
GROUP
  5
C1F
102
{ACAD_REACTORS
330
1A
102
}
330
1A
100
AcDbGroup
300

 70
     1
 71
     1
  0
GROUP
  5
C20
102
{ACAD_REACTORS
330
1A
102
}
330
1A
100
AcDbGroup
300

 70
     1
 71
     1
  0
GROUP
  5
C21
102
{ACAD_REACTORS
330
1A
102
}
330
1A
100
AcDbGroup
300

 70
     1
 71
     1
  0
GROUP
  5
C22
102
{ACAD_REACTORS
330
1A
102
}
330
1A
100
AcDbGroup
300

 70
     1
 71
     1
  0
GROUP
  5
C23
102
{ACAD_REACTORS
330
1A
102
}
330
1A
100
AcDbGroup
300

 70
     1
 71
     1
  0
LAYOUT
  5
21
102
{ACAD_XDICTIONARY
360
D59
102
}
102
{ACAD_REACTORS
330
1E
102
}
330
1E
100
AcDbPlotSettings
  1

  2

  4

  6

 40
0.0
 41
0.0
 42
0.0
 43
0.0
 44
0.0
 45
0.0
 46
0.0
 47
0.0
 48
0.0
 49
0.0
140
0.0
141
0.0
142
1.0
143
1.0
 70
     0
 72
     0
 73
     0
 74
     0
  7

 75
     0
147
1.0
148
0.0
149
0.0
100
AcDbLayout
  1
Layout1
 70
     1
 71
     1
 10
0.0
 20
0.0
 11
420.0
 21
297.0
 12
0.0
 22
0.0
 32
0.0
 14
0.0
 24
0.0
 34
0.0
 15
324.3201899999999
 25
85.87714400000001
 35
2.0
146
0.0
 13
0.0
 23
0.0
 33
0.0
 16
1.0
 26
0.0
 36
0.0
 17
0.0
 27
1.0
 37
0.0
 76
     0
330
B
331
2A
  0
LAYOUT
  5
20
102
{ACAD_XDICTIONARY
360
D57
102
}
102
{ACAD_REACTORS
330
1E
102
}
330
1E
100
AcDbPlotSettings
  1

  2

  4

  6

 40
0.0
 41
0.0
 42
0.0
 43
0.0
 44
0.0
 45
0.0
 46
0.0
 47
0.0
 48
0.0
 49
0.0
140
0.0
141
0.0
142
1.0
143
1.0
 70
  1024
 72
     0
 73
     0
 74
     0
  7

 75
     0
147
1.0
148
0.0
149
0.0
100
AcDbLayout
  1
Model
 70
     0
 71
     0
 10
0.0
 20
0.0
 11
0.0
 21
0.0
 12
0.0
 22
0.0
 32
0.0
 14
0.0
 24
0.0
 34
0.0
 15
0.0
 25
0.0
 35
0.0
146
0.0
 13
0.0
 23
0.0
 33
0.0
 16
0.0
 26
0.0
 36
0.0
 17
0.0
 27
0.0
 37
0.0
 76
     0
330
A
331
A23
  0
MATERIAL
  5
50C
102
{ACAD_XDICTIONARY
360
50D
102
}
102
{ACAD_REACTORS
330
10E
102
}
330
10E
100
AcDbMaterial
  1
ByBlock
  0
MATERIAL
  5
50F
102
{ACAD_XDICTIONARY
360
510
102
}
102
{ACAD_REACTORS
330
10E
102
}
330
10E
100
AcDbMaterial
  1
ByLayer
  0
MATERIAL
  5
512
102
{ACAD_XDICTIONARY
360
513
102
}
102
{ACAD_REACTORS
330
10E
102
}
330
10E
100
AcDbMaterial
  1
Global
  0
MLEADERSTYLE
  5
A56
102
{ACAD_REACTORS
330
A55
102
}
330
A55
100
AcDbMLeaderStyle
170
     2
171
     1
172
     0
 90
        2
 40
0.0
 41
0.0
173
     1
 91
-1056964608
340
11
 92
       -2
290
     1
 42
2.0
291
     1
 43
0.36
  3
Standard
 44
4.0
300

342
17
174
     1
178
     6
175
     1
176
     0
 93
-1056964608
 45
4.0
292
     0
297
     0
 46
4.0
 94
-1056964608
 47
1.0
 49
1.0
140
1.0
293
     1
141
0.0
294
     1
177
     0
142
1.0
295
     0
296
     0
143
0.125
1001
ACAD_MLEADERVER
1070
     2
  0
MLINESTYLE
  5
1C
102
{ACAD_REACTORS
330
1B
102
}
330
1B
100
AcDbMlineStyle
  2
STANDARD
 70
     0
  3

 62
     0
 51
90.0
 52
90.0
 71
     2
 49
0.5
 62
   256
  6
BYLAYER
 49
-0.5
 62
   256
  6
BYLAYER
  0
ACDBPLACEHOLDER
  5
1D
102
{ACAD_REACTORS
330
1F
102
}
330
1F
  0
SCALE
  5
A44
102
{ACAD_REACTORS
330
A43
102
}
330
A43
100
AcDbScale
 70
     0
300
1:1
140
1.0
141
1.0
290
     1
  0
SCALE
  5
A45
102
{ACAD_REACTORS
330
A43
102
}
330
A43
100
AcDbScale
 70
     0
300
1:2
140
1.0
141
2.0
290
     0
  0
SCALE
  5
A46
102
{ACAD_REACTORS
330
A43
102
}
330
A43
100
AcDbScale
 70
     0
300
1:4
140
1.0
141
4.0
290
     0
  0
SCALE
  5
A47
102
{ACAD_REACTORS
330
A43
102
}
330
A43
100
AcDbScale
 70
     0
300
1:5
140
1.0
141
5.0
290
     0
  0
SCALE
  5
A48
102
{ACAD_REACTORS
330
A43
102
}
330
A43
100
AcDbScale
 70
     0
300
1:8
140
1.0
141
8.0
290
     0
  0
SCALE
  5
A49
102
{ACAD_REACTORS
330
A43
102
}
330
A43
100
AcDbScale
 70
     0
300
1:10
140
1.0
141
10.0
290
     0
  0
SCALE
  5
A4A
102
{ACAD_REACTORS
330
A43
102
}
330
A43
100
AcDbScale
 70
     0
300
1:16
140
1.0
141
16.0
290
     0
  0
SCALE
  5
A4B
102
{ACAD_REACTORS
330
A43
102
}
330
A43
100
AcDbScale
 70
     0
300
1:20
140
1.0
141
20.0
290
     0
  0
SCALE
  5
A4C
102
{ACAD_REACTORS
330
A43
102
}
330
A43
100
AcDbScale
 70
     0
300
1:30
140
1.0
141
30.0
290
     0
  0
SCALE
  5
A4D
102
{ACAD_REACTORS
330
A43
102
}
330
A43
100
AcDbScale
 70
     0
300
1:40
140
1.0
141
40.0
290
     0
  0
SCALE
  5
A4E
102
{ACAD_REACTORS
330
A43
102
}
330
A43
100
AcDbScale
 70
     0
300
1:50
140
1.0
141
50.0
290
     0
  0
SCALE
  5
A4F
102
{ACAD_REACTORS
330
A43
102
}
330
A43
100
AcDbScale
 70
     0
300
1:100
140
1.0
141
100.0
290
     0
  0
SCALE
  5
A50
102
{ACAD_REACTORS
330
A43
102
}
330
A43
100
AcDbScale
 70
     0
300
2:1
140
2.0
141
1.0
290
     0
  0
SCALE
  5
A51
102
{ACAD_REACTORS
330
A43
102
}
330
A43
100
AcDbScale
 70
     0
300
4:1
140
4.0
141
1.0
290
     0
  0
SCALE
  5
A52
102
{ACAD_REACTORS
330
A43
102
}
330
A43
100
AcDbScale
 70
     0
300
8:1
140
8.0
141
1.0
290
     0
  0
SCALE
  5
A53
102
{ACAD_REACTORS
330
A43
102
}
330
A43
100
AcDbScale
 70
     0
300
10:1
140
10.0
141
1.0
290
     0
  0
SCALE
  5
A54
102
{ACAD_REACTORS
330
A43
102
}
330
A43
100
AcDbScale
 70
     0
300
100:1
140
100.0
141
1.0
290
     0
  0
TABLESTYLE
  5
111
102
{ACAD_XDICTIONARY
360
B36
102
}
102
{ACAD_REACTORS
330
110
102
}
330
110
100
AcDbTableStyle
  3
Standard
 70
     0
 71
     0
 40
1.5
 41
1.5
280
     0
281
     0
  7
STANDARD
140
4.5
170
     2
 62
     0
 63
     7
283
     0
274
    -2
284
     1
 64
     0
275
    -2
285
     1
 65
     0
276
    -2
286
     1
 66
     0
277
    -2
287
     1
 67
     0
278
    -2
288
     1
 68
     0
279
    -2
289
     1
 69
     0
  7
STANDARD
140
6.0
170
     5
 62
     0
 63
     7
283
     0
274
    -2
284
     1
 64
     0
275
    -2
285
     1
 65
     0
276
    -2
286
     1
 66
     0
277
    -2
287
     1
 67
     0
278
    -2
288
     1
 68
     0
279
    -2
289
     1
 69
     0
  7
STANDARD
140
4.5
170
     5
 62
     0
 63
     7
283
     0
274
    -2
284
     1
 64
     0
275
    -2
285
     1
 65
     0
276
    -2
286
     1
 66
     0
277
    -2
287
     1
 67
     0
278
    -2
288
     1
 68
     0
279
    -2
289
     1
 69
     0
  0
VISUALSTYLE
  5
A35
102
{ACAD_XDICTIONARY
360
D6A
102
}
102
{ACAD_REACTORS
330
A2F
102
}
330
A2F
100
AcDbVisualStyle
  2

 70
     4
 71
     0
 72
     2
 73
     0
 90
        0
 40
-0.6
 41
-30.0
 62
     5
 63
     7
 74
     1
 91
        4
 64
     7
 65
   257
 75
     1
175
     1
 42
1.0
 92
        0
 66
   257
 43
1.0
 76
     1
 77
     6
 78
     2
 67
     7
 79
     5
170
     0
171
     0
290
     0
174
     0
 93
        1
 44
0.0
173
     0
291
     0
 45
0.0
1001
ACAD
1000
AcDbSavedByObjectVersion
1070
     0
  0
VISUALSTYLE
  5
A37
102
{ACAD_XDICTIONARY
360
D6E
102
}
102
{ACAD_REACTORS
330
A2F
102
}
330
A2F
100
AcDbVisualStyle
  2

 70
     6
 71
     1
 72
     2
 73
     2
 90
        0
 40
-0.6
 41
-30.0
 62
     5
 63
     7
 74
     2
 91
        2
 64
     7
 65
   257
 75
     2
175
     1
 42
179.0
 92
        0
 66
   257
 43
1.0
 76
     1
 77
     6
 78
     2
 67
     7
 79
     3
170
     0
171
     0
290
     0
174
     0
 93
        1
 44
0.0
173
     0
291
     0
 45
0.0
1001
ACAD
1000
AcDbSavedByObjectVersion
1070
     0
  0
VISUALSTYLE
  5
A36
102
{ACAD_XDICTIONARY
360
D6C
102
}
102
{ACAD_REACTORS
330
A2F
102
}
330
A2F
100
AcDbVisualStyle
  2

 70
     5
 71
     0
 72
     2
 73
     0
 90
        0
 40
-0.6
 41
-30.0
 62
     5
 63
     7
 74
     1
 91
        4
 64
     7
 65
   257
 75
     1
175
     1
 42
1.0
 92
        0
 66
   257
 43
1.0
 76
     1
 77
     6
 78
     2
 67
     7
 79
     5
170
     0
171
     0
290
     0
174
     0
 93
        1
 44
0.0
173
     0
291
     0
 45
0.0
1001
ACAD
1000
AcDbSavedByObjectVersion
1070
     0
  0
VISUALSTYLE
  5
A34
102
{ACAD_XDICTIONARY
360
D68
102
}
102
{ACAD_REACTORS
330
A2F
102
}
330
A2F
100
AcDbVisualStyle
  2

 70
     7
 71
     1
 72
     0
 73
     1
 90
        0
 40
-0.6
 41
-30.0
 62
     5
 63
     7
 74
     0
 91
        4
 64
     7
 65
   257
 75
     1
175
     1
 42
1.0
 92
        8
 66
     7
 43
1.0
 76
     1
 77
     6
 78
     2
 67
     7
 79
     5
170
     0
171
     0
290
     0
174
     0
 93
        1
 44
0.0
173
     0
291
     1
 45
0.0
1001
ACAD
1000
AcDbSavedByObjectVersion
1070
     0
  0
VISUALSTYLE
  5
A3B
102
{ACAD_XDICTIONARY
360
D76
102
}
102
{ACAD_REACTORS
330
A2F
102
}
330
A2F
100
AcDbVisualStyle
  2

 70
    12
 71
     2
 72
     2
 73
     0
 90
        0
 40
-0.6
 41
-30.0
 62
     5
 63
     7
 74
     1
 91
        4
 64
     7
 65
   257
 75
     1
175
     1
 42
1.0
 92
        8
 66
     7
 43
1.0
 76
     1
 77
     6
 78
     2
 67
     7
 79
     5
170
     0
171
     0
290
     0
174
     0
 93
        1
 44
50.0
173
     0
291
     1
 45
0.0
1001
ACAD
1000
AcDbSavedByObjectVersion
1070
     0
  0
VISUALSTYLE
  5
A3F
102
{ACAD_XDICTIONARY
360
D7E
102
}
102
{ACAD_REACTORS
330
A2F
102
}
330
A2F
100
AcDbVisualStyle
  2

 70
    16
 71
     2
 72
     2
 73
     3
 90
        0
 40
-0.6
 41
-30.0
 62
     5
 63
     8
 74
     1
 91
        4
 64
     7
 65
   257
 75
     1
175
     1
 42
1.0
 92
        8
 66
     8
 43
1.0
 76
     1
 77
     6
 78
     2
 67
     7
 79
     5
170
     0
171
     0
290
     0
174
     0
 93
        1
 44
0.0
173
     0
291
     1
 45
0.0
1001
ACAD
1000
AcDbSavedByObjectVersion
1070
     0
  0
VISUALSTYLE
  5
A38
102
{ACAD_XDICTIONARY
360
D70
102
}
102
{ACAD_REACTORS
330
A2F
102
}
330
A2F
100
AcDbVisualStyle
  2

 70
     9
 71
     3
 72
     2
 73
     0
 90
        0
 40
-0.6
 41
-30.0
 62
     5
 63
     7
 74
     2
 91
        2
 64
     7
 65
   257
 75
     1
175
     1
 42
179.0
 92
        8
 66
     7
 43
1.0
 76
     1
 77
     6
 78
     2
 67
     7
 79
     3
170
     0
171
     0
290
     0
174
     0
 93
        1
 44
0.0
173
     0
291
     0
 45
0.0
1001
ACAD
1000
AcDbSavedByObjectVersion
1070
     0
  0
VISUALSTYLE
  5
A3A
102
{ACAD_XDICTIONARY
360
D74
102
}
102
{ACAD_REACTORS
330
A2F
102
}
330
A2F
100
AcDbVisualStyle
  2

 70
    11
 71
     2
 72
     2
 73
     0
 90
        0
 40
-0.6
 41
-30.0
 62
     5
 63
     7
 74
     1
 91
        4
 64
     7
 65
   257
 75
     1
175
     1
 42
1.0
 92
        8
 66
     7
 43
1.0
 76
     1
 77
     6
 78
     2
 67
     7
 79
     5
170
     0
171
     0
290
     0
174
     0
 93
        1
 44
-50.0
173
     0
291
     1
 45
0.0
1001
ACAD
1000
AcDbSavedByObjectVersion
1070
     0
  0
VISUALSTYLE
  5
A42
102
{ACAD_XDICTIONARY
360
D84
102
}
102
{ACAD_REACTORS
330
A2F
102
}
330
A2F
100
AcDbVisualStyle
  2

 70
    22
 71
     2
 72
     2
 73
     0
 90
        0
 40
-0.6
 41
-30.0
 62
     5
 63
     7
 74
     1
 91
        4
 64
     7
 65
   257
 75
     1
175
     1
 42
1.0
 92
        8
 66
     7
 43
1.0
 76
     1
 77
     6
 78
     2
 67
     7
 79
     5
170
     0
171
     0
290
     0
174
     0
 93
        1
 44
0.0
173
     0
291
     1
 45
0.0
1001
ACAD
1000
AcDbSavedByObjectVersion
1070
     0
  0
VISUALSTYLE
  5
A3E
102
{ACAD_XDICTIONARY
360
D7C
102
}
102
{ACAD_REACTORS
330
A2F
102
}
330
A2F
100
AcDbVisualStyle
  2

 70
    15
 71
     2
 72
     2
 73
     0
 90
        0
 40
-0.6
 41
-30.0
 62
     5
 63
     7
 74
     1
 91
        4
 64
     7
 65
   257
 75
     1
175
     1
 42
1.0
 92
        8
 66
     7
 43
1.0
 76
     1
 77
     6
 78
     2
 67
     7
 79
     5
170
     0
171
     0
290
     0
174
     0
 93
        1
 44
0.0
173
     0
291
     1
 45
0.0
1001
ACAD
1000
AcDbSavedByObjectVersion
1070
     0
  0
VISUALSTYLE
  5
A30
102
{ACAD_XDICTIONARY
360
D60
102
}
102
{ACAD_REACTORS
330
A2F
102
}
330
A2F
100
AcDbVisualStyle
  2

 70
     0
 71
     2
 72
     1
 73
     1
 90
        2
 40
-0.6
 41
30.0
 62
     5
 63
     7
 74
     0
 91
        4
 64
     7
 65
   257
 75
     1
175
     1
 42
1.0
 92
        8
 66
     7
 43
1.0
 76
     1
 77
     6
 78
     2
 67
     7
 79
     5
170
     0
171
     0
290
     0
174
     0
 93
       13
 44
0.0
173
     0
291
     1
 45
0.0
1001
ACAD
1000
AcDbSavedByObjectVersion
1070
     0
  0
VISUALSTYLE
  5
A31
102
{ACAD_XDICTIONARY
360
D62
102
}
102
{ACAD_REACTORS
330
A2F
102
}
330
A2F
100
AcDbVisualStyle
  2

 70
     1
 71
     2
 72
     1
 73
     1
 90
        2
 40
-0.6
 41
30.0
 62
     5
 63
     7
 74
     1
 91
        4
 64
     7
 65
   257
 75
     1
175
     1
 42
1.0
 92
        0
 66
   257
 43
1.0
 76
     1
 77
     6
 78
     2
 67
     7
 79
     5
170
     0
171
     0
290
     0
174
     0
 93
       13
 44
0.0
173
     0
291
     1
 45
0.0
1001
ACAD
1000
AcDbSavedByObjectVersion
1070
     0
  0
VISUALSTYLE
  5
A32
102
{ACAD_XDICTIONARY
360
D64
102
}
102
{ACAD_REACTORS
330
A2F
102
}
330
A2F
100
AcDbVisualStyle
  2

 70
     2
 71
     2
 72
     2
 73
     1
 90
        2
 40
-0.6
 41
30.0
 62
     5
 63
     7
 74
     0
 91
        4
 64
     7
 65
   257
 75
     1
175
     1
 42
1.0
 92
        0
 66
     7
 43
1.0
 76
     1
 77
     6
 78
     2
 67
     7
 79
     5
170
     0
171
     0
290
     0
174
     0
 93
       13
 44
0.0
173
     0
291
     1
 45
0.0
1001
ACAD
1000
AcDbSavedByObjectVersion
1070
     0
  0
VISUALSTYLE
  5
A33
102
{ACAD_XDICTIONARY
360
D66
102
}
102
{ACAD_REACTORS
330
A2F
102
}
330
A2F
100
AcDbVisualStyle
  2

 70
     3
 71
     2
 72
     2
 73
     1
 90
        2
 40
-0.6
 41
30.0
 62
     5
 63
     7
 74
     1
 91
        4
 64
     7
 65
   257
 75
     1
175
     1
 42
1.0
 92
        0
 66
   257
 43
1.0
 76
     1
 77
     6
 78
     2
 67
     7
 79
     5
170
     0
171
     0
290
     0
174
     0
 93
       13
 44
0.0
173
     0
291
     1
 45
0.0
1001
ACAD
1000
AcDbSavedByObjectVersion
1070
     0
  0
VISUALSTYLE
  5
A40
102
{ACAD_XDICTIONARY
360
D80
102
}
102
{ACAD_REACTORS
330
A2F
102
}
330
A2F
100
AcDbVisualStyle
  2

 70
    20
 71
     2
 72
     2
 73
     0
 90
        0
 40
-0.6
 41
-30.0
 62
     5
 63
     7
 74
     1
 91
        4
 64
     7
 65
   257
 75
     1
175
     1
 42
1.0
 92
       10
 66
     7
 43
1.0
 76
     1
 77
     6
 78
     2
 67
     7
 79
     5
170
     0
171
     0
290
     0
174
     0
 93
        1
 44
0.0
173
     0
291
     1
 45
0.0
1001
ACAD
1000
AcDbSavedByObjectVersion
1070
     0
  0
VISUALSTYLE
  5
A3D
102
{ACAD_XDICTIONARY
360
D7A
102
}
102
{ACAD_REACTORS
330
A2F
102
}
330
A2F
100
AcDbVisualStyle
  2

 70
    14
 71
     2
 72
     2
 73
     0
 90
        0
 40
-0.6
 41
-30.0
 62
     5
 63
     7
 74
     1
 91
        4
 64
     7
 65
   257
 75
     7
175
     7
 42
1.0
 92
        8
 66
     7
 43
1.0
 76
     1
 77
     6
 78
     2
 67
     7
 79
     5
170
     0
171
     0
290
     0
174
     0
 93
        1
 44
0.0
173
     0
291
     1
 45
0.0
1001
ACAD
1000
AcDbSavedByObjectVersion
1070
     0
  0
VISUALSTYLE
  5
A41
102
{ACAD_XDICTIONARY
360
D82
102
}
102
{ACAD_REACTORS
330
A2F
102
}
330
A2F
100
AcDbVisualStyle
  2

 70
    21
 71
     2
 72
     2
 73
     0
 90
        0
 40
-0.6
 41
-30.0
 62
     5
 63
     7
 74
     1
 91
        4
 64
     7
 65
   257
 75
     1
175
     1
 42
1.0
 92
        9
 66
     7
 43
1.0
 76
     1
 77
     6
 78
     2
 67
     7
 79
     5
170
     0
171
     0
290
     0
174
     0
 93
        1
 44
0.0
173
     0
291
     1
 45
0.0
1001
ACAD
1000
AcDbSavedByObjectVersion
1070
     0
  0
VISUALSTYLE
  5
A39
102
{ACAD_XDICTIONARY
360
D72
102
}
102
{ACAD_REACTORS
330
A2F
102
}
330
A2F
100
AcDbVisualStyle
  2

 70
     8
 71
     2
 72
     2
 73
     0
 90
        0
 40
-0.6
 41
-30.0
 62
     5
 63
     7
 74
     1
 91
        0
 64
     7
 65
   257
 75
     1
175
     1
 42
1.0
 92
        8
 66
     8
 43
1.0
 76
     1
 77
     6
 78
     2
 67
     7
 79
     5
170
     0
171
     0
290
     0
174
     0
 93
       13
 44
0.0
173
     0
291
     0
 45
0.0
1001
ACAD
1000
AcDbSavedByObjectVersion
1070
     0
  0
VISUALSTYLE
  5
A3C
102
{ACAD_XDICTIONARY
360
D78
102
}
102
{ACAD_REACTORS
330
A2F
102
}
330
A2F
100
AcDbVisualStyle
  2

 70
    13
 71
     2
 72
     2
 73
     0
 90
        0
 40
-0.6
 41
-30.0
 62
     5
 63
     7
 74
     1
 91
        4
 64
     7
 65
   257
 75
     1
175
     1
 42
1.0
 92
       12
 66
     7
 43
1.0
 76
     1
 77
     6
 78
     2
 67
     7
 79
     5
170
     0
171
     0
290
     0
174
     0
 93
        1
 44
0.0
173
     0
291
     1
 45
0.0
1001
ACAD
1000
AcDbSavedByObjectVersion
1070
     0
  0
DICTIONARYVAR
  5
B32
102
{ACAD_REACTORS
330
9C1
102
}
330
9C1
100
DictionaryVariables
280
     0
  1
1:1
  0
DICTIONARYVAR
  5
B31
102
{ACAD_REACTORS
330
9C1
102
}
330
9C1
100
DictionaryVariables
280
     0
  1
STANDARD
  0
DICTIONARYVAR
  5
9C2
102
{ACAD_REACTORS
330
9C1
102
}
330
9C1
100
DictionaryVariables
280
     0
  1
STANDARD
  0
DICTIONARYVAR
  5
9C3
102
{ACAD_REACTORS
330
9C1
102
}
330
9C1
100
DictionaryVariables
280
     0
  1
1
  0
DICTIONARYVAR
  5
B34
102
{ACAD_REACTORS
330
9C1
102
}
330
9C1
100
DictionaryVariables
280
     0
  1
0
  0
DICTIONARYVAR
  5
9C4
102
{ACAD_REACTORS
330
9C1
102
}
330
9C1
100
DictionaryVariables
280
     0
  1

  0
DICTIONARYVAR
  5
B33
102
{ACAD_REACTORS
330
9C1
102
}
330
9C1
100
DictionaryVariables
280
     0
  1
127
  0
DICTIONARYVAR
  5
D50
102
{ACAD_REACTORS
330
9C1
102
}
330
9C1
100
DictionaryVariables
280
     0
  1
2
  0
DICTIONARY
  5
D59
330
21
100
AcDbDictionary
280
     1
281
     1
  3
ACAD_XREC_ROUNDTRIP
360
D5A
  0
DICTIONARY
  5
D57
330
20
100
AcDbDictionary
280
     1
281
     1
  3
ACAD_XREC_ROUNDTRIP
360
D58
  0
DICTIONARY
  5
50D
330
50C
100
AcDbDictionary
280
     1
281
     1
  3
ACAD_XREC_ROUNDTRIP
360
50E
  0
DICTIONARY
  5
510
330
50F
100
AcDbDictionary
280
     1
281
     1
  3
ACAD_XREC_ROUNDTRIP
360
511
  0
DICTIONARY
  5
513
330
512
100
AcDbDictionary
280
     1
281
     1
  3
ACAD_XREC_ROUNDTRIP
360
514
  0
DICTIONARY
  5
B36
330
111
100
AcDbDictionary
280
     1
281
     1
  3
ACAD_ROUNDTRIP_2008_TABLESTYLE_CELLSTYLEMAP
360
D51
  3
ACAD_XREC_ROUNDTRIP
360
D5D
  0
DICTIONARY
  5
D6A
330
A35
100
AcDbDictionary
280
     1
281
     1
  3
ACAD_XREC_ROUNDTRIP
360
D6B
  0
DICTIONARY
  5
D6E
330
A37
100
AcDbDictionary
280
     1
281
     1
  3
ACAD_XREC_ROUNDTRIP
360
D6F
  0
DICTIONARY
  5
D6C
330
A36
100
AcDbDictionary
280
     1
281
     1
  3
ACAD_XREC_ROUNDTRIP
360
D6D
  0
DICTIONARY
  5
D68
330
A34
100
AcDbDictionary
280
     1
281
     1
  3
ACAD_XREC_ROUNDTRIP
360
D69
  0
DICTIONARY
  5
D76
330
A3B
100
AcDbDictionary
280
     1
281
     1
  3
ACAD_XREC_ROUNDTRIP
360
D77
  0
DICTIONARY
  5
D7E
330
A3F
100
AcDbDictionary
280
     1
281
     1
  3
ACAD_XREC_ROUNDTRIP
360
D7F
  0
DICTIONARY
  5
D70
330
A38
100
AcDbDictionary
280
     1
281
     1
  3
ACAD_XREC_ROUNDTRIP
360
D71
  0
DICTIONARY
  5
D74
330
A3A
100
AcDbDictionary
280
     1
281
     1
  3
ACAD_XREC_ROUNDTRIP
360
D75
  0
DICTIONARY
  5
D84
330
A42
100
AcDbDictionary
280
     1
281
     1
  3
ACAD_XREC_ROUNDTRIP
360
D85
  0
DICTIONARY
  5
D7C
330
A3E
100
AcDbDictionary
280
     1
281
     1
  3
ACAD_XREC_ROUNDTRIP
360
D7D
  0
DICTIONARY
  5
D60
330
A30
100
AcDbDictionary
280
     1
281
     1
  3
ACAD_XREC_ROUNDTRIP
360
D61
  0
DICTIONARY
  5
D62
330
A31
100
AcDbDictionary
280
     1
281
     1
  3
ACAD_XREC_ROUNDTRIP
360
D63
  0
DICTIONARY
  5
D64
330
A32
100
AcDbDictionary
280
     1
281
     1
  3
ACAD_XREC_ROUNDTRIP
360
D65
  0
DICTIONARY
  5
D66
330
A33
100
AcDbDictionary
280
     1
281
     1
  3
ACAD_XREC_ROUNDTRIP
360
D67
  0
DICTIONARY
  5
D80
330
A40
100
AcDbDictionary
280
     1
281
     1
  3
ACAD_XREC_ROUNDTRIP
360
D81
  0
DICTIONARY
  5
D7A
330
A3D
100
AcDbDictionary
280
     1
281
     1
  3
ACAD_XREC_ROUNDTRIP
360
D7B
  0
DICTIONARY
  5
D82
330
A41
100
AcDbDictionary
280
     1
281
     1
  3
ACAD_XREC_ROUNDTRIP
360
D83
  0
DICTIONARY
  5
D72
330
A39
100
AcDbDictionary
280
     1
281
     1
  3
ACAD_XREC_ROUNDTRIP
360
D73
  0
DICTIONARY
  5
D78
330
A3C
100
AcDbDictionary
280
     1
281
     1
  3
ACAD_XREC_ROUNDTRIP
360
D79
  0
XRECORD
  5
D5A
102
{ACAD_REACTORS
330
D59
102
}
330
D59
100
AcDbXrecord
280
     1
102
SHADEPLOT
 70
     0
102
SHADEPLOTRESLEVEL
 70
     2
102
SHADEPLOTCUSTOMDPI
 70
   300
  0
XRECORD
  5
D58
102
{ACAD_REACTORS
330
D57
102
}
330
D57
100
AcDbXrecord
280
     1
102
SHADEPLOT
 70
     0
102
SHADEPLOTRESLEVEL
 70
     2
102
SHADEPLOTCUSTOMDPI
 70
   300
  0
XRECORD
  5
50E
102
{ACAD_REACTORS
330
50D
102
}
330
50D
100
AcDbXrecord
280
     1
102
MATERIAL
148
0.0
149
0.0
149
0.0
 93
        0
 94
      127
282
     0
 72
     1
 77
     1
171
     1
175
     1
179
     1
273
     0
  0
XRECORD
  5
511
102
{ACAD_REACTORS
330
510
102
}
330
510
100
AcDbXrecord
280
     1
102
MATERIAL
148
0.0
149
0.0
149
0.0
 93
        0
 94
      127
282
     0
 72
     1
 77
     1
171
     1
175
     1
179
     1
273
     0
  0
XRECORD
  5
514
102
{ACAD_REACTORS
330
513
102
}
330
513
100
AcDbXrecord
280
     1
102
MATERIAL
148
0.0
149
0.0
149
0.0
 93
        0
 94
      127
282
     0
 72
     1
 77
     1
171
     1
175
     1
179
     1
273
     0
  0
CELLSTYLEMAP
  5
D51
102
{ACAD_REACTORS
330
B36
102
}
330
B36
100
AcDbCellStyleMap
 90
        3
300
CELLSTYLE
  1
TABLEFORMAT_BEGIN
 90
        5
170
     1
 91
        0
 92
    32768
 62
   257
 93
        1
300
CONTENTFORMAT
  1
CONTENTFORMAT_BEGIN
 90
        0
 91
        0
 92
        4
 93
        0
300

 40
0.0
140
1.0
 94
        5
 62
     0
340
17
144
6.0
309
CONTENTFORMAT_END
171
     1
301
MARGIN
  1
CELLMARGIN_BEGIN
 40
1.5
 40
1.5
 40
1.5
 40
1.5
 40
0.18
 40
0.18
309
CELLMARGIN_END
 94
        6
 95
        1
302
GRIDFORMAT
  1
GRIDFORMAT_BEGIN
 90
        0
 91
        1
 62
     0
 92
       -2
340
0
 93
        0
 40
0.045
309
GRIDFORMAT_END
 95
        2
302
GRIDFORMAT
  1
GRIDFORMAT_BEGIN
 90
        0
 91
        1
 62
     0
 92
       -2
340
0
 93
        0
 40
0.045
309
GRIDFORMAT_END
 95
        4
302
GRIDFORMAT
  1
GRIDFORMAT_BEGIN
 90
        0
 91
        1
 62
     0
 92
       -2
340
0
 93
        0
 40
0.045
309
GRIDFORMAT_END
 95
        8
302
GRIDFORMAT
  1
GRIDFORMAT_BEGIN
 90
        0
 91
        1
 62
     0
 92
       -2
340
0
 93
        0
 40
0.045
309
GRIDFORMAT_END
 95
       16
302
GRIDFORMAT
  1
GRIDFORMAT_BEGIN
 90
        0
 91
        1
 62
     0
 92
       -2
340
0
 93
        0
 40
0.045
309
GRIDFORMAT_END
 95
       32
302
GRIDFORMAT
  1
GRIDFORMAT_BEGIN
 90
        0
 91
        1
 62
     0
 92
       -2
340
0
 93
        0
 40
0.045
309
GRIDFORMAT_END
309
TABLEFORMAT_END
  1
CELLSTYLE_BEGIN
 90
        1
 91
        1
300
_TITLE
309
CELLSTYLE_END
300
CELLSTYLE
  1
TABLEFORMAT_BEGIN
 90
        5
170
     1
 91
        0
 92
        0
 62
   257
 93
        1
300
CONTENTFORMAT
  1
CONTENTFORMAT_BEGIN
 90
        0
 91
        0
 92
        4
 93
        0
300

 40
0.0
140
1.0
 94
        5
 62
     0
340
17
144
4.5
309
CONTENTFORMAT_END
171
     1
301
MARGIN
  1
CELLMARGIN_BEGIN
 40
1.5
 40
1.5
 40
1.5
 40
1.5
 40
0.18
 40
0.18
309
CELLMARGIN_END
 94
        6
 95
        1
302
GRIDFORMAT
  1
GRIDFORMAT_BEGIN
 90
        0
 91
        1
 62
     0
 92
       -2
340
0
 93
        0
 40
0.045
309
GRIDFORMAT_END
 95
        2
302
GRIDFORMAT
  1
GRIDFORMAT_BEGIN
 90
        0
 91
        1
 62
     0
 92
       -2
340
0
 93
        0
 40
0.045
309
GRIDFORMAT_END
 95
        4
302
GRIDFORMAT
  1
GRIDFORMAT_BEGIN
 90
        0
 91
        1
 62
     0
 92
       -2
340
0
 93
        0
 40
0.045
309
GRIDFORMAT_END
 95
        8
302
GRIDFORMAT
  1
GRIDFORMAT_BEGIN
 90
        0
 91
        1
 62
     0
 92
       -2
340
0
 93
        0
 40
0.045
309
GRIDFORMAT_END
 95
       16
302
GRIDFORMAT
  1
GRIDFORMAT_BEGIN
 90
        0
 91
        1
 62
     0
 92
       -2
340
0
 93
        0
 40
0.045
309
GRIDFORMAT_END
 95
       32
302
GRIDFORMAT
  1
GRIDFORMAT_BEGIN
 90
        0
 91
        1
 62
     0
 92
       -2
340
0
 93
        0
 40
0.045
309
GRIDFORMAT_END
309
TABLEFORMAT_END
  1
CELLSTYLE_BEGIN
 90
        2
 91
        1
300
_HEADER
309
CELLSTYLE_END
300
CELLSTYLE
  1
TABLEFORMAT_BEGIN
 90
        5
170
     1
 91
        0
 92
        0
 62
   257
 93
        1
300
CONTENTFORMAT
  1
CONTENTFORMAT_BEGIN
 90
        0
 91
        0
 92
        4
 93
        0
300

 40
0.0
140
1.0
 94
        2
 62
     0
340
17
144
4.5
309
CONTENTFORMAT_END
171
     1
301
MARGIN
  1
CELLMARGIN_BEGIN
 40
1.5
 40
1.5
 40
1.5
 40
1.5
 40
0.18
 40
0.18
309
CELLMARGIN_END
 94
        6
 95
        1
302
GRIDFORMAT
  1
GRIDFORMAT_BEGIN
 90
        0
 91
        1
 62
     0
 92
       -2
340
0
 93
        0
 40
0.045
309
GRIDFORMAT_END
 95
        2
302
GRIDFORMAT
  1
GRIDFORMAT_BEGIN
 90
        0
 91
        1
 62
     0
 92
       -2
340
0
 93
        0
 40
0.045
309
GRIDFORMAT_END
 95
        4
302
GRIDFORMAT
  1
GRIDFORMAT_BEGIN
 90
        0
 91
        1
 62
     0
 92
       -2
340
0
 93
        0
 40
0.045
309
GRIDFORMAT_END
 95
        8
302
GRIDFORMAT
  1
GRIDFORMAT_BEGIN
 90
        0
 91
        1
 62
     0
 92
       -2
340
0
 93
        0
 40
0.045
309
GRIDFORMAT_END
 95
       16
302
GRIDFORMAT
  1
GRIDFORMAT_BEGIN
 90
        0
 91
        1
 62
     0
 92
       -2
340
0
 93
        0
 40
0.045
309
GRIDFORMAT_END
 95
       32
302
GRIDFORMAT
  1
GRIDFORMAT_BEGIN
 90
        0
 91
        1
 62
     0
 92
       -2
340
0
 93
        0
 40
0.045
309
GRIDFORMAT_END
309
TABLEFORMAT_END
  1
CELLSTYLE_BEGIN
 90
        3
 91
        2
300
_DATA
309
CELLSTYLE_END
  0
XRECORD
  5
D5D
102
{ACAD_REACTORS
330
B36
102
}
330
B36
100
AcDbXrecord
280
     1
102
ACAD_ROUNDTRIP_PRE2007_TABLESTYLE
 90
        4
 91
        0
  1

 92
        4
 93
        0
  2

 94
        4
 95
        0
  3

  0
XRECORD
  5
D6B
102
{ACAD_REACTORS
330
D6A
102
}
330
D6A
100
AcDbXrecord
280
     1
102
RTVSPropertyOp0
 70
     1
102
RTVSPropertyOp1
 70
     1
102
RTVSPropertyOp2
 70
     1
102
RTVSPropertyOp3
 70
     1
102
RTVSPropertyOp4
 70
     1
102
RTVSPropertyOp5
 70
     1
102
RTVSPropertyOp6
 70
     1
102
RTVSPropertyOp7
 70
     1
102
RTVSPropertyOp8
 70
     1
102
RTVSPropertyOp9
 70
     1
102
RTVSPropertyOp10
 70
     1
102
RTVSPropertyOp11
 70
     1
102
RTVSPropertyOp12
 70
     1
102
RTVSPropertyOp13
 70
     1
102
RTVSPropertyOp14
 70
     1
102
RTVSPropertyOp15
 70
     1
102
RTVSPropertyOp16
 70
     1
102
RTVSPropertyOp17
 70
     1
102
RTVSPropertyOp18
 70
     1
102
RTVSPropertyOp19
 70
     1
102
RTVSPropertyOp20
 70
     1
102
RTVSPropertyOp21
 70
     1
102
RTVSPropertyOp22
 70
     1
102
RTVSPropertyOp23
 70
     1
102
RTVSPropertyOp24
 70
     1
102
RTVSPropertyOp25
 70
     1
102
RTVSPropertyOp26
 70
     1
102
RTVSPropertyOp27
 70
     1
  0
XRECORD
  5
D6F
102
{ACAD_REACTORS
330
D6E
102
}
330
D6E
100
AcDbXrecord
280
     1
102
RTVSPropertyOp0
 70
     1
102
RTVSPropertyOp1
 70
     1
102
RTVSPropertyOp2
 70
     1
102
RTVSPropertyOp3
 70
     1
102
RTVSPropertyOp4
 70
     1
102
RTVSPropertyOp5
 70
     1
102
RTVSPropertyOp6
 70
     1
102
RTVSPropertyOp7
 70
     1
102
RTVSPropertyOp8
 70
     1
102
RTVSPropertyOp9
 70
     1
102
RTVSPropertyOp10
 70
     1
102
RTVSPropertyOp11
 70
     1
102
RTVSPropertyOp12
 70
     1
102
RTVSPropertyOp13
 70
     1
102
RTVSPropertyOp14
 70
     1
102
RTVSPropertyOp15
 70
     1
102
RTVSPropertyOp16
 70
     1
102
RTVSPropertyOp17
 70
     1
102
RTVSPropertyOp18
 70
     1
102
RTVSPropertyOp19
 70
     1
102
RTVSPropertyOp20
 70
     1
102
RTVSPropertyOp21
 70
     1
102
RTVSPropertyOp22
 70
     1
102
RTVSPropertyOp23
 70
     1
102
RTVSPropertyOp24
 70
     1
102
RTVSPropertyOp25
 70
     1
102
RTVSPropertyOp26
 70
     1
102
RTVSPropertyOp27
 70
     1
  0
XRECORD
  5
D6D
102
{ACAD_REACTORS
330
D6C
102
}
330
D6C
100
AcDbXrecord
280
     1
102
RTVSPropertyOp0
 70
     1
102
RTVSPropertyOp1
 70
     1
102
RTVSPropertyOp2
 70
     1
102
RTVSPropertyOp3
 70
     1
102
RTVSPropertyOp4
 70
     1
102
RTVSPropertyOp5
 70
     1
102
RTVSPropertyOp6
 70
     1
102
RTVSPropertyOp7
 70
     1
102
RTVSPropertyOp8
 70
     1
102
RTVSPropertyOp9
 70
     1
102
RTVSPropertyOp10
 70
     1
102
RTVSPropertyOp11
 70
     1
102
RTVSPropertyOp12
 70
     1
102
RTVSPropertyOp13
 70
     1
102
RTVSPropertyOp14
 70
     1
102
RTVSPropertyOp15
 70
     1
102
RTVSPropertyOp16
 70
     1
102
RTVSPropertyOp17
 70
     1
102
RTVSPropertyOp18
 70
     1
102
RTVSPropertyOp19
 70
     1
102
RTVSPropertyOp20
 70
     1
102
RTVSPropertyOp21
 70
     1
102
RTVSPropertyOp22
 70
     1
102
RTVSPropertyOp23
 70
     1
102
RTVSPropertyOp24
 70
     1
102
RTVSPropertyOp25
 70
     1
102
RTVSPropertyOp26
 70
     1
102
RTVSPropertyOp27
 70
     1
  0
XRECORD
  5
D69
102
{ACAD_REACTORS
330
D68
102
}
330
D68
100
AcDbXrecord
280
     1
102
RTVSPropertyOp0
 70
     1
102
RTVSPropertyOp1
 70
     1
102
RTVSPropertyOp2
 70
     1
102
RTVSPropertyOp3
 70
     1
102
RTVSPropertyOp4
 70
     1
102
RTVSPropertyOp5
 70
     1
102
RTVSPropertyOp6
 70
     1
102
RTVSPropertyOp7
 70
     1
102
RTVSPropertyOp8
 70
     1
102
RTVSPropertyOp9
 70
     1
102
RTVSPropertyOp10
 70
     1
102
RTVSPropertyOp11
 70
     1
102
RTVSPropertyOp12
 70
     1
102
RTVSPropertyOp13
 70
     1
102
RTVSPropertyOp14
 70
     1
102
RTVSPropertyOp15
 70
     1
102
RTVSPropertyOp16
 70
     1
102
RTVSPropertyOp17
 70
     1
102
RTVSPropertyOp18
 70
     1
102
RTVSPropertyOp19
 70
     1
102
RTVSPropertyOp20
 70
     1
102
RTVSPropertyOp21
 70
     1
102
RTVSPropertyOp22
 70
     1
102
RTVSPropertyOp23
 70
     1
102
RTVSPropertyOp24
 70
     1
102
RTVSPropertyOp25
 70
     1
102
RTVSPropertyOp26
 70
     1
102
RTVSPropertyOp27
 70
     1
  0
XRECORD
  5
D77
102
{ACAD_REACTORS
330
D76
102
}
330
D76
100
AcDbXrecord
280
     1
102
RTVSPropertyOp0
 70
     1
102
RTVSPropertyOp1
 70
     1
102
RTVSPropertyOp2
 70
     1
102
RTVSPropertyOp3
 70
     1
102
RTVSPropertyOp4
 70
     1
102
RTVSPropertyOp5
 70
     1
102
RTVSPropertyOp6
 70
     1
102
RTVSPropertyOp7
 70
     1
102
RTVSPropertyOp8
 70
     1
102
RTVSPropertyOp9
 70
     1
102
RTVSPropertyOp10
 70
     1
102
RTVSPropertyOp11
 70
     1
102
RTVSPropertyOp12
 70
     1
102
RTVSPropertyOp13
 70
     1
102
RTVSPropertyOp14
 70
     1
102
RTVSPropertyOp15
 70
     1
102
RTVSPropertyOp16
 70
     1
102
RTVSPropertyOp17
 70
     1
102
RTVSPropertyOp18
 70
     1
102
RTVSPropertyOp19
 70
     1
102
RTVSPropertyOp20
 70
     1
102
RTVSPropertyOp21
 70
     1
102
RTVSPropertyOp22
 70
     1
102
RTVSPropertyOp23
 70
     1
102
RTVSPropertyOp24
 70
     1
102
RTVSPropertyOp25
 70
     1
102
RTVSPropertyOp26
 70
     1
102
RTVSPropertyOp27
 70
     1
  0
XRECORD
  5
D7F
102
{ACAD_REACTORS
330
D7E
102
}
330
D7E
100
AcDbXrecord
280
     1
102
RTVSPropertyOp0
 70
     1
102
RTVSPropertyOp1
 70
     1
102
RTVSPropertyOp2
 70
     1
102
RTVSPropertyOp3
 70
     1
102
RTVSPropertyOp4
 70
     1
102
RTVSPropertyOp5
 70
     1
102
RTVSPropertyOp6
 70
     1
102
RTVSPropertyOp7
 70
     1
102
RTVSPropertyOp8
 70
     1
102
RTVSPropertyOp9
 70
     1
102
RTVSPropertyOp10
 70
     1
102
RTVSPropertyOp11
 70
     1
102
RTVSPropertyOp12
 70
     1
102
RTVSPropertyOp13
 70
     1
102
RTVSPropertyOp14
 70
     1
102
RTVSPropertyOp15
 70
     1
102
RTVSPropertyOp16
 70
     1
102
RTVSPropertyOp17
 70
     1
102
RTVSPropertyOp18
 70
     1
102
RTVSPropertyOp19
 70
     1
102
RTVSPropertyOp20
 70
     1
102
RTVSPropertyOp21
 70
     1
102
RTVSPropertyOp22
 70
     1
102
RTVSPropertyOp23
 70
     1
102
RTVSPropertyOp24
 70
     1
102
RTVSPropertyOp25
 70
     1
102
RTVSPropertyOp26
 70
     1
102
RTVSPropertyOp27
 70
     1
  0
XRECORD
  5
D71
102
{ACAD_REACTORS
330
D70
102
}
330
D70
100
AcDbXrecord
280
     1
102
RTVSPropertyOp0
 70
     1
102
RTVSPropertyOp1
 70
     1
102
RTVSPropertyOp2
 70
     1
102
RTVSPropertyOp3
 70
     1
102
RTVSPropertyOp4
 70
     1
102
RTVSPropertyOp5
 70
     1
102
RTVSPropertyOp6
 70
     1
102
RTVSPropertyOp7
 70
     1
102
RTVSPropertyOp8
 70
     1
102
RTVSPropertyOp9
 70
     1
102
RTVSPropertyOp10
 70
     1
102
RTVSPropertyOp11
 70
     1
102
RTVSPropertyOp12
 70
     1
102
RTVSPropertyOp13
 70
     1
102
RTVSPropertyOp14
 70
     1
102
RTVSPropertyOp15
 70
     1
102
RTVSPropertyOp16
 70
     1
102
RTVSPropertyOp17
 70
     1
102
RTVSPropertyOp18
 70
     1
102
RTVSPropertyOp19
 70
     1
102
RTVSPropertyOp20
 70
     1
102
RTVSPropertyOp21
 70
     1
102
RTVSPropertyOp22
 70
     1
102
RTVSPropertyOp23
 70
     1
102
RTVSPropertyOp24
 70
     1
102
RTVSPropertyOp25
 70
     1
102
RTVSPropertyOp26
 70
     1
102
RTVSPropertyOp27
 70
     1
  0
XRECORD
  5
D75
102
{ACAD_REACTORS
330
D74
102
}
330
D74
100
AcDbXrecord
280
     1
102
RTVSPropertyOp0
 70
     1
102
RTVSPropertyOp1
 70
     1
102
RTVSPropertyOp2
 70
     1
102
RTVSPropertyOp3
 70
     1
102
RTVSPropertyOp4
 70
     1
102
RTVSPropertyOp5
 70
     1
102
RTVSPropertyOp6
 70
     1
102
RTVSPropertyOp7
 70
     1
102
RTVSPropertyOp8
 70
     1
102
RTVSPropertyOp9
 70
     1
102
RTVSPropertyOp10
 70
     1
102
RTVSPropertyOp11
 70
     1
102
RTVSPropertyOp12
 70
     1
102
RTVSPropertyOp13
 70
     1
102
RTVSPropertyOp14
 70
     1
102
RTVSPropertyOp15
 70
     1
102
RTVSPropertyOp16
 70
     1
102
RTVSPropertyOp17
 70
     1
102
RTVSPropertyOp18
 70
     1
102
RTVSPropertyOp19
 70
     1
102
RTVSPropertyOp20
 70
     1
102
RTVSPropertyOp21
 70
     1
102
RTVSPropertyOp22
 70
     1
102
RTVSPropertyOp23
 70
     1
102
RTVSPropertyOp24
 70
     1
102
RTVSPropertyOp25
 70
     1
102
RTVSPropertyOp26
 70
     1
102
RTVSPropertyOp27
 70
     1
  0
XRECORD
  5
D85
102
{ACAD_REACTORS
330
D84
102
}
330
D84
100
AcDbXrecord
280
     1
102
RTVSPropertyOp0
 70
     0
102
RTVSPropertyOp1
 70
     0
102
RTVSPropertyOp2
 70
     0
102
RTVSPropertyOp3
 70
     0
102
RTVSPropertyOp4
 70
     0
102
RTVSPropertyOp5
 70
     0
102
RTVSPropertyOp6
 70
     0
102
RTVSPropertyOp7
 70
     0
102
RTVSPropertyOp8
 70
     0
102
RTVSPropertyOp9
 70
     0
102
RTVSPropertyOp10
 70
     0
102
RTVSPropertyOp11
 70
     0
102
RTVSPropertyOp12
 70
     0
102
RTVSPropertyOp13
 70
     0
102
RTVSPropertyOp14
 70
     2
102
RTVSPropertyOp15
 70
     0
102
RTVSPropertyOp16
 70
     0
102
RTVSPropertyOp17
 70
     0
102
RTVSPropertyOp18
 70
     0
102
RTVSPropertyOp19
 70
     0
102
RTVSPropertyOp20
 70
     0
102
RTVSPropertyOp21
 70
     0
102
RTVSPropertyOp22
 70
     0
102
RTVSPropertyOp23
 70
     0
102
RTVSPropertyOp24
 70
     0
102
RTVSPropertyOp25
 70
     0
102
RTVSPropertyOp26
 70
     0
102
RTVSPropertyOp27
 70
     0
  0
XRECORD
  5
D7D
102
{ACAD_REACTORS
330
D7C
102
}
330
D7C
100
AcDbXrecord
280
     1
102
RTVSPropertyOp0
 70
     1
102
RTVSPropertyOp1
 70
     1
102
RTVSPropertyOp2
 70
     1
102
RTVSPropertyOp3
 70
     1
102
RTVSPropertyOp4
 70
     1
102
RTVSPropertyOp5
 70
     1
102
RTVSPropertyOp6
 70
     1
102
RTVSPropertyOp7
 70
     1
102
RTVSPropertyOp8
 70
     1
102
RTVSPropertyOp9
 70
     1
102
RTVSPropertyOp10
 70
     1
102
RTVSPropertyOp11
 70
     1
102
RTVSPropertyOp12
 70
     1
102
RTVSPropertyOp13
 70
     1
102
RTVSPropertyOp14
 70
     1
102
RTVSPropertyOp15
 70
     1
102
RTVSPropertyOp16
 70
     1
102
RTVSPropertyOp17
 70
     1
102
RTVSPropertyOp18
 70
     1
102
RTVSPropertyOp19
 70
     1
102
RTVSPropertyOp20
 70
     1
102
RTVSPropertyOp21
 70
     1
102
RTVSPropertyOp22
 70
     1
102
RTVSPropertyOp23
 70
     1
102
RTVSPropertyOp24
 70
     1
102
RTVSPropertyOp25
 70
     1
102
RTVSPropertyOp26
 70
     1
102
RTVSPropertyOp27
 70
     1
  0
XRECORD
  5
D61
102
{ACAD_REACTORS
330
D60
102
}
330
D60
100
AcDbXrecord
280
     1
102
RTVSPropertyOp0
 70
     1
102
RTVSPropertyOp1
 70
     1
102
RTVSPropertyOp2
 70
     1
102
RTVSPropertyOp3
 70
     1
102
RTVSPropertyOp4
 70
     1
102
RTVSPropertyOp5
 70
     1
102
RTVSPropertyOp6
 70
     1
102
RTVSPropertyOp7
 70
     1
102
RTVSPropertyOp8
 70
     1
102
RTVSPropertyOp9
 70
     1
102
RTVSPropertyOp10
 70
     1
102
RTVSPropertyOp11
 70
     1
102
RTVSPropertyOp12
 70
     1
102
RTVSPropertyOp13
 70
     1
102
RTVSPropertyOp14
 70
     1
102
RTVSPropertyOp15
 70
     1
102
RTVSPropertyOp16
 70
     1
102
RTVSPropertyOp17
 70
     1
102
RTVSPropertyOp18
 70
     1
102
RTVSPropertyOp19
 70
     1
102
RTVSPropertyOp20
 70
     1
102
RTVSPropertyOp21
 70
     1
102
RTVSPropertyOp22
 70
     1
102
RTVSPropertyOp23
 70
     1
102
RTVSPropertyOp24
 70
     1
102
RTVSPropertyOp25
 70
     1
102
RTVSPropertyOp26
 70
     1
102
RTVSPropertyOp27
 70
     1
  0
XRECORD
  5
D63
102
{ACAD_REACTORS
330
D62
102
}
330
D62
100
AcDbXrecord
280
     1
102
RTVSPropertyOp0
 70
     1
102
RTVSPropertyOp1
 70
     1
102
RTVSPropertyOp2
 70
     1
102
RTVSPropertyOp3
 70
     1
102
RTVSPropertyOp4
 70
     1
102
RTVSPropertyOp5
 70
     1
102
RTVSPropertyOp6
 70
     1
102
RTVSPropertyOp7
 70
     1
102
RTVSPropertyOp8
 70
     1
102
RTVSPropertyOp9
 70
     1
102
RTVSPropertyOp10
 70
     1
102
RTVSPropertyOp11
 70
     1
102
RTVSPropertyOp12
 70
     1
102
RTVSPropertyOp13
 70
     1
102
RTVSPropertyOp14
 70
     1
102
RTVSPropertyOp15
 70
     1
102
RTVSPropertyOp16
 70
     1
102
RTVSPropertyOp17
 70
     1
102
RTVSPropertyOp18
 70
     1
102
RTVSPropertyOp19
 70
     1
102
RTVSPropertyOp20
 70
     1
102
RTVSPropertyOp21
 70
     1
102
RTVSPropertyOp22
 70
     1
102
RTVSPropertyOp23
 70
     1
102
RTVSPropertyOp24
 70
     1
102
RTVSPropertyOp25
 70
     1
102
RTVSPropertyOp26
 70
     1
102
RTVSPropertyOp27
 70
     1
  0
XRECORD
  5
D65
102
{ACAD_REACTORS
330
D64
102
}
330
D64
100
AcDbXrecord
280
     1
102
RTVSPropertyOp0
 70
     1
102
RTVSPropertyOp1
 70
     1
102
RTVSPropertyOp2
 70
     1
102
RTVSPropertyOp3
 70
     1
102
RTVSPropertyOp4
 70
     1
102
RTVSPropertyOp5
 70
     1
102
RTVSPropertyOp6
 70
     1
102
RTVSPropertyOp7
 70
     1
102
RTVSPropertyOp8
 70
     1
102
RTVSPropertyOp9
 70
     1
102
RTVSPropertyOp10
 70
     1
102
RTVSPropertyOp11
 70
     1
102
RTVSPropertyOp12
 70
     1
102
RTVSPropertyOp13
 70
     1
102
RTVSPropertyOp14
 70
     1
102
RTVSPropertyOp15
 70
     1
102
RTVSPropertyOp16
 70
     1
102
RTVSPropertyOp17
 70
     1
102
RTVSPropertyOp18
 70
     1
102
RTVSPropertyOp19
 70
     1
102
RTVSPropertyOp20
 70
     1
102
RTVSPropertyOp21
 70
     1
102
RTVSPropertyOp22
 70
     1
102
RTVSPropertyOp23
 70
     1
102
RTVSPropertyOp24
 70
     1
102
RTVSPropertyOp25
 70
     1
102
RTVSPropertyOp26
 70
     1
102
RTVSPropertyOp27
 70
     1
  0
XRECORD
  5
D67
102
{ACAD_REACTORS
330
D66
102
}
330
D66
100
AcDbXrecord
280
     1
102
RTVSPropertyOp0
 70
     1
102
RTVSPropertyOp1
 70
     1
102
RTVSPropertyOp2
 70
     1
102
RTVSPropertyOp3
 70
     1
102
RTVSPropertyOp4
 70
     1
102
RTVSPropertyOp5
 70
     1
102
RTVSPropertyOp6
 70
     1
102
RTVSPropertyOp7
 70
     1
102
RTVSPropertyOp8
 70
     1
102
RTVSPropertyOp9
 70
     1
102
RTVSPropertyOp10
 70
     1
102
RTVSPropertyOp11
 70
     1
102
RTVSPropertyOp12
 70
     1
102
RTVSPropertyOp13
 70
     1
102
RTVSPropertyOp14
 70
     1
102
RTVSPropertyOp15
 70
     1
102
RTVSPropertyOp16
 70
     1
102
RTVSPropertyOp17
 70
     1
102
RTVSPropertyOp18
 70
     1
102
RTVSPropertyOp19
 70
     1
102
RTVSPropertyOp20
 70
     1
102
RTVSPropertyOp21
 70
     1
102
RTVSPropertyOp22
 70
     1
102
RTVSPropertyOp23
 70
     1
102
RTVSPropertyOp24
 70
     1
102
RTVSPropertyOp25
 70
     1
102
RTVSPropertyOp26
 70
     1
102
RTVSPropertyOp27
 70
     1
  0
XRECORD
  5
D81
102
{ACAD_REACTORS
330
D80
102
}
330
D80
100
AcDbXrecord
280
     1
102
RTVSPropertyOp0
 70
     0
102
RTVSPropertyOp1
 70
     0
102
RTVSPropertyOp2
 70
     0
102
RTVSPropertyOp3
 70
     0
102
RTVSPropertyOp4
 70
     0
102
RTVSPropertyOp5
 70
     0
102
RTVSPropertyOp6
 70
     0
102
RTVSPropertyOp7
 70
     0
102
RTVSPropertyOp8
 70
     0
102
RTVSPropertyOp9
 70
     0
102
RTVSPropertyOp10
 70
     0
102
RTVSPropertyOp11
 70
     0
102
RTVSPropertyOp12
 70
     0
102
RTVSPropertyOp13
 70
     0
102
RTVSPropertyOp14
 70
     2
102
RTVSPropertyOp15
 70
     0
102
RTVSPropertyOp16
 70
     0
102
RTVSPropertyOp17
 70
     0
102
RTVSPropertyOp18
 70
     0
102
RTVSPropertyOp19
 70
     0
102
RTVSPropertyOp20
 70
     0
102
RTVSPropertyOp21
 70
     0
102
RTVSPropertyOp22
 70
     0
102
RTVSPropertyOp23
 70
     0
102
RTVSPropertyOp24
 70
     0
102
RTVSPropertyOp25
 70
     0
102
RTVSPropertyOp26
 70
     0
102
RTVSPropertyOp27
 70
     0
  0
XRECORD
  5
D7B
102
{ACAD_REACTORS
330
D7A
102
}
330
D7A
100
AcDbXrecord
280
     1
102
RTVSPropertyOp0
 70
     1
102
RTVSPropertyOp1
 70
     1
102
RTVSPropertyOp2
 70
     1
102
RTVSPropertyOp3
 70
     1
102
RTVSPropertyOp4
 70
     1
102
RTVSPropertyOp5
 70
     1
102
RTVSPropertyOp6
 70
     1
102
RTVSPropertyOp7
 70
     1
102
RTVSPropertyOp8
 70
     1
102
RTVSPropertyOp9
 70
     1
102
RTVSPropertyOp10
 70
     1
102
RTVSPropertyOp11
 70
     1
102
RTVSPropertyOp12
 70
     1
102
RTVSPropertyOp13
 70
     1
102
RTVSPropertyOp14
 70
     1
102
RTVSPropertyOp15
 70
     1
102
RTVSPropertyOp16
 70
     1
102
RTVSPropertyOp17
 70
     1
102
RTVSPropertyOp18
 70
     1
102
RTVSPropertyOp19
 70
     1
102
RTVSPropertyOp20
 70
     1
102
RTVSPropertyOp21
 70
     1
102
RTVSPropertyOp22
 70
     1
102
RTVSPropertyOp23
 70
     1
102
RTVSPropertyOp24
 70
     1
102
RTVSPropertyOp25
 70
     1
102
RTVSPropertyOp26
 70
     1
102
RTVSPropertyOp27
 70
     1
  0
XRECORD
  5
D83
102
{ACAD_REACTORS
330
D82
102
}
330
D82
100
AcDbXrecord
280
     1
102
RTVSPropertyOp0
 70
     0
102
RTVSPropertyOp1
 70
     0
102
RTVSPropertyOp2
 70
     0
102
RTVSPropertyOp3
 70
     0
102
RTVSPropertyOp4
 70
     0
102
RTVSPropertyOp5
 70
     0
102
RTVSPropertyOp6
 70
     0
102
RTVSPropertyOp7
 70
     0
102
RTVSPropertyOp8
 70
     0
102
RTVSPropertyOp9
 70
     0
102
RTVSPropertyOp10
 70
     0
102
RTVSPropertyOp11
 70
     0
102
RTVSPropertyOp12
 70
     0
102
RTVSPropertyOp13
 70
     0
102
RTVSPropertyOp14
 70
     2
102
RTVSPropertyOp15
 70
     0
102
RTVSPropertyOp16
 70
     0
102
RTVSPropertyOp17
 70
     0
102
RTVSPropertyOp18
 70
     0
102
RTVSPropertyOp19
 70
     0
102
RTVSPropertyOp20
 70
     0
102
RTVSPropertyOp21
 70
     0
102
RTVSPropertyOp22
 70
     0
102
RTVSPropertyOp23
 70
     0
102
RTVSPropertyOp24
 70
     0
102
RTVSPropertyOp25
 70
     0
102
RTVSPropertyOp26
 70
     0
102
RTVSPropertyOp27
 70
     0
  0
XRECORD
  5
D73
102
{ACAD_REACTORS
330
D72
102
}
330
D72
100
AcDbXrecord
280
     1
102
RTVSPropertyOp0
 70
     1
102
RTVSPropertyOp1
 70
     1
102
RTVSPropertyOp2
 70
     1
102
RTVSPropertyOp3
 70
     1
102
RTVSPropertyOp4
 70
     1
102
RTVSPropertyOp5
 70
     1
102
RTVSPropertyOp6
 70
     1
102
RTVSPropertyOp7
 70
     1
102
RTVSPropertyOp8
 70
     1
102
RTVSPropertyOp9
 70
     1
102
RTVSPropertyOp10
 70
     1
102
RTVSPropertyOp11
 70
     1
102
RTVSPropertyOp12
 70
     1
102
RTVSPropertyOp13
 70
     1
102
RTVSPropertyOp14
 70
     1
102
RTVSPropertyOp15
 70
     1
102
RTVSPropertyOp16
 70
     1
102
RTVSPropertyOp17
 70
     1
102
RTVSPropertyOp18
 70
     1
102
RTVSPropertyOp19
 70
     1
102
RTVSPropertyOp20
 70
     1
102
RTVSPropertyOp21
 70
     1
102
RTVSPropertyOp22
 70
     1
102
RTVSPropertyOp23
 70
     1
102
RTVSPropertyOp24
 70
     1
102
RTVSPropertyOp25
 70
     1
102
RTVSPropertyOp26
 70
     1
102
RTVSPropertyOp27
 70
     1
  0
XRECORD
  5
D79
102
{ACAD_REACTORS
330
D78
102
}
330
D78
100
AcDbXrecord
280
     1
102
RTVSPropertyOp0
 70
     1
102
RTVSPropertyOp1
 70
     1
102
RTVSPropertyOp2
 70
     1
102
RTVSPropertyOp3
 70
     1
102
RTVSPropertyOp4
 70
     1
102
RTVSPropertyOp5
 70
     1
102
RTVSPropertyOp6
 70
     1
102
RTVSPropertyOp7
 70
     1
102
RTVSPropertyOp8
 70
     1
102
RTVSPropertyOp9
 70
     1
102
RTVSPropertyOp10
 70
     1
102
RTVSPropertyOp11
 70
     1
102
RTVSPropertyOp12
 70
     1
102
RTVSPropertyOp13
 70
     1
102
RTVSPropertyOp14
 70
     1
102
RTVSPropertyOp15
 70
     1
102
RTVSPropertyOp16
 70
     1
102
RTVSPropertyOp17
 70
     1
102
RTVSPropertyOp18
 70
     1
102
RTVSPropertyOp19
 70
     1
102
RTVSPropertyOp20
 70
     1
102
RTVSPropertyOp21
 70
     1
102
RTVSPropertyOp22
 70
     1
102
RTVSPropertyOp23
 70
     1
102
RTVSPropertyOp24
 70
     1
102
RTVSPropertyOp25
 70
     1
102
RTVSPropertyOp26
 70
     1
102
RTVSPropertyOp27
 70
     1
  0
ENDSEC
  0
EOF
